Subcategories

Tigran Chukhajian - Arshak II (Aram Katinyan; Chorus & Orchestra, Yerevan's State Academic) (1998)

Posted By: Aregak
Tigran Chukhajian - Arshak II (Aram Katinyan; Chorus & Orchestra, Yerevan's State Academic) (1998)

Tigran Chukhajian - Arshak II (Aram Katinyan; Yergat, Gasparyan, Galachyan, Levonian, Davityan, Hovhanessyan, Babouryan, Haroutionyan; Chorus & Orchestra, Yerevan's State Academic) (1998)
EAC Rip | FLAC, IMG+CUE, LOG, Scans | CD1`77:11, CD2` 52:58 | 498.9 MB
Classical | Parseghian Records / PR 11-157

Arshak II is the first Armenian classical opera, written by Dikran Tchouhadjian and T. Terzian in 1868. Its libretto, a lyrical tragedy in Armenian and Italian, is based on historical reports about King Arsaces II (Arshak II), written by Movses Khorenatsi and Pavstos Buzand.
"Arshak II" is the first “Armenian grand opera” with choruses and ballets. It was partially staged in 1873, assembled on November 29, 1945 at the Armenian Opera Theater in Yerevan and was awarded by the USSR State Prize in 1946. Arshak II is a "gem" of Armenian musical culture. In 2001, it was staged at the San Francisco Opera. Pavel Lisitsian, Mihran Yerkat, Tigran Levonyan were among the performers of Arshak's role.
Performer:
Mihran Yergat - Arshak II,
Gohar Gasparyan - Olimpia,
Gohar Galachyan - Parandzem,
Dikran Levonian - Tirit,
Mirich Davityan - Terasdamat,
Nar Hovhanessyan - Nerses,
Robert Babouryan - Spandarat,
Paleri Haroutionyan - Vasak
Chorus & Orchestra. Yerevan's State Academic, Ballet & Opera Theater Co. of Alexander Spendiarov.
Aram Katanvan - Conductor
A. Gulakyan - Libretto

Track Listings:
CD1
01. Scene 1 - Act I. - Arshak II comes home from a war 22:34
02. Scene 2 - Act I. - Prince Tirit plots to kill Arshak II 29:31
03. Scene 3 - Act II. - Arshak's soldiers capture prince Tirit 04:42
04. Scene 4 - Act III. - Arshak puts his wife, Olympia in jail 20:25
CD2
01. Scene 5 - Act III. Arshak pardons the traitors 20:36
02. Scene 6 - Act IV. Prince Spandarat tries to poison Arshak 32:22

Exact Audio Copy V1.0 beta 3 from 29. August 2011

EAC extraction logfile from 25. January 2014, 19:55

Aram Katinyan / Chukhajian - Arshak II (Part I) - CD1

Used drive : ATAPI iHAS122 C Adapter: 0 ID: 1

Read mode : Secure
Utilize accurate stream : Yes
Defeat audio cache : Yes
Make use of C2 pointers : No

Read offset correction : 6
Overread into Lead-In and Lead-Out : No
Fill up missing offset samples with silence : Yes
Delete leading and trailing silent blocks : No
Null samples used in CRC calculations : Yes
Used interface : Installed external ASPI interface

Used output format : User Defined Encoder
Selected bitrate : 192 kBit/s
Quality : High
Add ID3 tag : No
Command line compressor : C:\Program Files\Exact Audio Copy\Flac\flac.exe
Additional command line options : -V -8 -T "Date=%year%" -T "Genre=%genre%" %source%

TOC of the extracted CD

Track | Start | Length | Start sector | End sector
––––––––––––––––––––––––––––-
1 | 0:00.00 | 22:33.54 | 0 | 101528
2 | 22:33.54 | 29:30.46 | 101529 | 234324
3 | 52:04.25 | 4:42.27 | 234325 | 255501
4 | 56:46.52 | 20:25.17 | 255502 | 347393

Range status and errors

Selected range

Filename C:\Program Files\Exact Audio Copy\Flac\Chukhajian - Arshak II (Part I) (Aram Katinyan) - CD1.wav

Copy aborted

End of status report

==== Log checksum 2FE233C8B86BE5A525BB65298C793136964962759F110CEB20437A9E4A474F9C ====

Exact Audio Copy V1.0 beta 3 from 29. August 2011

EAC extraction logfile from 26. January 2014, 12:31

Aram Katinyan / Chukhajian - Arshak II (Part 2) - CD2

Used drive : ATAPI iHAS122 C Adapter: 0 ID: 1

Read mode : Secure
Utilize accurate stream : Yes
Defeat audio cache : Yes
Make use of C2 pointers : No

Read offset correction : 6
Overread into Lead-In and Lead-Out : No
Fill up missing offset samples with silence : Yes
Delete leading and trailing silent blocks : No
Null samples used in CRC calculations : Yes
Used interface : Installed external ASPI interface

Used output format : User Defined Encoder
Selected bitrate : 192 kBit/s
Quality : High
Add ID3 tag : No
Command line compressor : C:\Program Files\Exact Audio Copy\Flac\flac.exe
Additional command line options : -V -8 -T "Date=%year%" -T "Genre=%genre%" %source%

TOC of the extracted CD

Track | Start | Length | Start sector | End sector
––––––––––––––––––––––––––––-
1 | 0:00.00 | 20:35.52 | 0 | 92676
2 | 20:35.52 | 32:22.30 | 92677 | 238356

Range status and errors

Selected range

Filename C:\Program Files\Exact Audio Copy\Flac\Chukhajian - Arshak II (Part 2) (Aram Katinyan) - CD2.wav

Peak level 98.1 %
Extraction speed 3.1 X
Range quality 100.0 %
Test CRC 4D3FFD4C
Copy CRC 4D3FFD4C
Copy OK

No errors occurred

AccurateRip summary

Track 1 cannot be verified as accurate (confidence 1) [ED43BA0B], AccurateRip returned [28CB5C66] (AR v2)
Track 2 cannot be verified as accurate (confidence 1) [638A0398], AccurateRip returned [BBD236AE] (AR v2)

No tracks could be verified as accurate
You may have a different pressing from the one(s) in the database

End of status report

==== Log checksum B2171DB3DC5C6A5B84EE6C3BB5F96A6C43DAFC13BEA28F601AFAE68CDF96050A ====