Subcategories

TCP - Temporal Chaos (2016)

Posted By: gribovar
TCP - Temporal Chaos (2016)

TCP - Temporal Chaos (2016)
EAC Rip | FLAC (tracks+.cue+log) - 397 MB | MP3 CBR 320 kbps (LAME 3.93) - 145 MB | Covers - 87 MB
Genre: Progressive Rock | RAR 3% Rec. | Label: Watt Records (WATT 003)

After a prolonged five year episode of life-gets-in-the-way, TCP (Temporal Chaos Project) enthusiastically comes back with their third release, Temporal Chaos, an album filled with the band’s unmistakable penchant for drama, twisted melodies, double-meaning lyrics, and the marriage of old and new. Opening with the edgy but strangely addictive Torn Apart and culminating in the epic In the Flame, could this be TCP’s best effort yet?

Tracklist:
01. Torn Apart 1000 Sparks
02. Forest Of Lovelies
03. Impetus
04. The Forces
05. Chrysalis
06. Fantasize/Into The Blue
07. Third Eye Limited
08. In The Flame

Total time: 01:01:44

Exact Audio Copy V1.0 beta 3 from 29. August 2011

EAC extraction logfile from 25. January 2018, 19:41

TCP / Temporal Chaos

Used drive : HL-DT-STDVDRAM GH24NSB0 Adapter: 3 ID: 0

Read mode : Secure
Utilize accurate stream : Yes
Defeat audio cache : Yes
Make use of C2 pointers : No

Read offset correction : 6
Overread into Lead-In and Lead-Out : No
Fill up missing offset samples with silence : Yes
Delete leading and trailing silent blocks : No
Null samples used in CRC calculations : Yes
Used interface : Native Win32 interface for Win NT & 2000
Gap handling : Appended to previous track

Used output format : User Defined Encoder
Selected bitrate : 128 kBit/s
Quality : High
Add ID3 tag : No
Command line compressor : C:\Program Files\Exact Audio Copy\FLAC\FLAC.EXE
Additional command line options : -8 -V -T "ARTIST=%artist%" -T "TITLE=%title%" -T "ALBUM=%albumtitle%" -T "DATE=%year%" -T "TRACKNUMBER=%tracknr%" -T "TOTALTRACKS=%numtracks%" -T "GENRE=%genre%" -T "ALBUMARTIST=%albumartist%" -T "ALBUM ARTIST=%albumartist%" -T "COMMENT=EAC Secure Mode, Test & Copy, AccurateRip, FLAC -8" %source%


TOC of the extracted CD

Track | Start | Length | Start sector | End sector
––––––––––––––––––––––––––––-
1 | 0:00.00 | 3:17.36 | 0 | 14810
2 | 3:17.36 | 8:54.63 | 14811 | 54923
3 | 12:12.24 | 9:43.04 | 54924 | 98652
4 | 21:55.28 | 6:17.20 | 98653 | 126947
5 | 28:12.48 | 5:48.16 | 126948 | 153063
6 | 34:00.64 | 11:59.74 | 153064 | 207062
7 | 46:00.63 | 4:38.00 | 207063 | 227912
8 | 50:38.63 | 11:05.05 | 227913 | 277792


Track 1

Filename G:\Veushka\TCP - Temporal Chaos (2016) [FLAC] {WATT 003}\01 - Torn Apart 1000 Sparks.wav

Pre-gap length 0:00:02.00

Peak level 97.9 %
Extraction speed 1.0 X
Track quality 100.0 %
Test CRC F1F7BCBA
Copy CRC F1F7BCBA
Accurately ripped (confidence 1) [2D0FD536] (AR v2)
Copy OK

Track 2

Filename G:\Veushka\TCP - Temporal Chaos (2016) [FLAC] {WATT 003}\02 - Forest of Lovelies.wav

Peak level 97.8 %
Extraction speed 1.3 X
Track quality 99.9 %
Test CRC FBDE1441
Copy CRC FBDE1441
Accurately ripped (confidence 1) [2E113EEF] (AR v2)
Copy OK

Track 3

Filename G:\Veushka\TCP - Temporal Chaos (2016) [FLAC] {WATT 003}\03 - Impetus.wav

Peak level 97.7 %
Extraction speed 1.6 X
Track quality 100.0 %
Test CRC 0B88049D
Copy CRC 0B88049D
Accurately ripped (confidence 1) [150CAC70] (AR v2)
Copy OK

Track 4

Filename G:\Veushka\TCP - Temporal Chaos (2016) [FLAC] {WATT 003}\04 - The Forces.wav

Peak level 97.6 %
Extraction speed 1.7 X
Track quality 100.0 %
Test CRC C26B1A33
Copy CRC C26B1A33
Accurately ripped (confidence 1) [84C37F1A] (AR v2)
Copy OK

Track 5

Filename G:\Veushka\TCP - Temporal Chaos (2016) [FLAC] {WATT 003}\05 - Chrysalis.wav

Peak level 98.8 %
Extraction speed 1.8 X
Track quality 100.0 %
Test CRC A63708AD
Copy CRC A63708AD
Accurately ripped (confidence 1) [9C6742AF] (AR v2)
Copy OK

Track 6

Filename G:\Veushka\TCP - Temporal Chaos (2016) [FLAC] {WATT 003}\06 - Fantasize,Into the Blue.wav

Peak level 100.0 %
Extraction speed 2.1 X
Track quality 100.0 %
Test CRC 7DDFA3D7
Copy CRC 7DDFA3D7
Accurately ripped (confidence 1) [43B9E73B] (AR v2)
Copy OK

Track 7

Filename G:\Veushka\TCP - Temporal Chaos (2016) [FLAC] {WATT 003}\07 - Third Eye Limited.wav

Peak level 98.1 %
Extraction speed 2.1 X
Track quality 100.0 %
Test CRC C73FBF5C
Copy CRC C73FBF5C
Accurately ripped (confidence 1) [368755DB] (AR v2)
Copy OK

Track 8

Filename G:\Veushka\TCP - Temporal Chaos (2016) [FLAC] {WATT 003}\08 - In the Flame.wav

Peak level 98.2 %
Extraction speed 2.4 X
Track quality 100.0 %
Test CRC 738F5EC1
Copy CRC 738F5EC1
Accurately ripped (confidence 1) [C137304E] (AR v2)
Copy OK


All tracks accurately ripped

No errors occurred

End of status report

–– CUETools DB Plugin V2.1.3

[CTDB TOCID: SsmsdF.0b_UaYHnTq7ohsyytg3M-] found, Submit result: already submitted
[89b2c05f] (4/4) Accurately ripped


==== Log checksum C574AC11212797895AD97E273279386E14EE69C121AB12181EC3FF61D54E4499 ====

[CUETools log; Date: 14.02.2018 22:51:36; Version: 2.1.4]
[CTDB TOCID: SsmsdF.0b_UaYHnTq7ohsyytg3M-] found.
Track | CTDB Status
1 | (4/4) Accurately ripped
2 | (4/4) Accurately ripped
3 | (4/4) Accurately ripped
4 | (4/4) Accurately ripped
5 | (4/4) Accurately ripped
6 | (4/4) Accurately ripped
7 | (4/4) Accurately ripped
8 | (4/4) Accurately ripped
[AccurateRip ID: 0011b7d1-0078c605-630e7708] found.
Track [ CRC | V2 ] Status
01 [a21c99e5|2d0fd536] (0+1/1) Accurately ripped
02 [c44d34bb|2e113eef] (0+1/1) Accurately ripped
03 [59fa0b08|150cac70] (0+1/1) Accurately ripped
04 [478fd137|84c37f1a] (0+1/1) Accurately ripped
05 [b7b2d867|9c6742af] (0+1/1) Accurately ripped
06 [21a0387b|43b9e73b] (0+1/1) Accurately ripped
07 [997f1f84|368755db] (0+1/1) Accurately ripped
08 [69b2f4fa|c137304e] (0+1/1) Accurately ripped

Track Peak [ CRC32 ] [W/O NULL] [ LOG ]
– 100,0 [5726AC3C] [2CBD74BF]
01 97,9 [F1F7BCBA] [BD8644F7] CRC32
02 97,8 [FBDE1441] [13DAD3B2] CRC32
03 97,7 [0B88049D] [A3DA5F5B] CRC32
04 97,6 [C26B1A33] [060F1DC6] CRC32
05 98,8 [A63708AD] [2389BC34] CRC32
06 100,0 [7DDFA3D7] [849BCD07] CRC32
07 98,1 [C73FBF5C] [D690644B] CRC32
08 98,2 [738F5EC1] [9317F86B] CRC32

Thanks to veushka

See also:
TCP - The Way (2009)