Subcategories
Tags
Language
Tags

The Accüsed - The Curse Of Martha Splatterhead (2009) {Southern Lord} **[RE-UP]**

Posted By: TestTickles
The Accüsed - The Curse Of Martha Splatterhead (2009) {Southern Lord} **[RE-UP]**

The Accüsed - The Curse Of Martha Splatterhead (2009) {Southern Lord}
EAC Rip | FLAC with CUE and log | scans | 266 mb
MP3 CBR 320kbps | RAR | 125 mb
Genre: indie rock, thrash punk, hardcore

The Curse Of Martha Splatterhead is the 2009 album by Seattle hardcore punk metal legends The Accüsed, with Tommy Niemeyer on guitar and Brad Mowen taking vocal duties. This was released by Southern Lord.

The Accüsed - The Curse Of Martha Splatterhead (2009) {Southern Lord} **[RE-UP]**

01. The Splatterbeast
02. Stomped To Death
03. Bodies Are Rising
04. Festival Of Flesh
05. Elijiah Black
06. Scotty Came Back
07. Hemline
08. Die Violently
09. By The Hook
10. Avenue Of The Dead
11. Fuck Sorry
12. Martha's Disciples
13. Seriously Dead
14. Splatter Rock II

Tommy Niemeyer-guitar
B.R.A.D. (Brad Mowen)-vocals
Pete Hodous-bass
Mike Peterson-drums

Produced by Billy Anderson & The Accüsed
Engineered by Billy Anderson

The Accüsed - The Curse Of Martha Splatterhead (2009) {Southern Lord} **[RE-UP]**


EAC extraction logfile from 28. June 2017, 6:23 for CD
The Accused / The Curse Of Martha Splatterhead

Used drive : TSSTcorpDVD+-RW TS-H653B Adapter: 2 ID: 0
Read mode : Secure with NO C2, accurate stream, disable cache
Read offset correction : 6
Overread into Lead-In and Lead-Out : No

Used output format : Internal WAV Routines
44.100 Hz; 16 Bit; Stereo

Other options :
Fill up missing offset samples with silence : Yes
Delete leading and trailing silent blocks : No
Native Win32 interface for Win NT & 2000


Track 1
Filename C:\Documents and Settings\cuntfist\Desktop\FLAC's\23\The Accused - The Curse Of Martha Splatterhead (2009) [FLAC] {Southern Lord}\01 - The Splatterbeast.wav

Pre-gap length 0:00:02.00

Peak level 98.8 %
Track quality 100.0 %
Test CRC 5D7A7EA7
Copy CRC 5D7A7EA7
Copy OK

Track 2
Filename C:\Documents and Settings\cuntfist\Desktop\FLAC's\23\The Accused - The Curse Of Martha Splatterhead (2009) [FLAC] {Southern Lord}\02 - Stomped To Death.wav

Peak level 98.8 %
Track quality 100.0 %
Test CRC C288F5E6
Copy CRC C288F5E6
Copy OK

Track 3
Filename C:\Documents and Settings\cuntfist\Desktop\FLAC's\23\The Accused - The Curse Of Martha Splatterhead (2009) [FLAC] {Southern Lord}\03 - Bodies Are Rising.wav

Peak level 98.8 %
Track quality 99.9 %
Test CRC 1869DB34
Copy CRC 1869DB34
Copy OK

Track 4
Filename C:\Documents and Settings\cuntfist\Desktop\FLAC's\23\The Accused - The Curse Of Martha Splatterhead (2009) [FLAC] {Southern Lord}\04 - Festival Of Flesh.wav

Peak level 98.8 %
Track quality 100.0 %
Test CRC F94CEBCA
Copy CRC F94CEBCA
Copy OK

Track 5
Filename C:\Documents and Settings\cuntfist\Desktop\FLAC's\23\The Accused - The Curse Of Martha Splatterhead (2009) [FLAC] {Southern Lord}\05 - Elijiah Black.wav

Peak level 98.8 %
Track quality 100.0 %
Test CRC 3660608A
Copy CRC 3660608A
Copy OK

Track 6
Filename C:\Documents and Settings\cuntfist\Desktop\FLAC's\23\The Accused - The Curse Of Martha Splatterhead (2009) [FLAC] {Southern Lord}\06 - Scotty Came Back.wav

Peak level 98.8 %
Track quality 100.0 %
Test CRC C55706E3
Copy CRC C55706E3
Copy OK

Track 7
Filename C:\Documents and Settings\cuntfist\Desktop\FLAC's\23\The Accused - The Curse Of Martha Splatterhead (2009) [FLAC] {Southern Lord}\07 - Hemline.wav

Peak level 98.8 %
Track quality 100.0 %
Test CRC 4221FFB0
Copy CRC 4221FFB0
Copy OK

Track 8
Filename C:\Documents and Settings\cuntfist\Desktop\FLAC's\23\The Accused - The Curse Of Martha Splatterhead (2009) [FLAC] {Southern Lord}\08 - Die Violently.wav

Peak level 98.8 %
Track quality 100.0 %
Test CRC 44CC97DD
Copy CRC 44CC97DD
Copy OK

Track 9
Filename C:\Documents and Settings\cuntfist\Desktop\FLAC's\23\The Accused - The Curse Of Martha Splatterhead (2009) [FLAC] {Southern Lord}\09 - By The Hook.wav

Peak level 98.8 %
Track quality 100.0 %
Test CRC BF3F3F92
Copy CRC BF3F3F92
Copy OK

Track 10
Filename C:\Documents and Settings\cuntfist\Desktop\FLAC's\23\The Accused - The Curse Of Martha Splatterhead (2009) [FLAC] {Southern Lord}\10 - Avenue Of The Dead.wav

Peak level 98.8 %
Track quality 100.0 %
Test CRC B66BA11E
Copy CRC B66BA11E
Copy OK

Track 11
Filename C:\Documents and Settings\cuntfist\Desktop\FLAC's\23\The Accused - The Curse Of Martha Splatterhead (2009) [FLAC] {Southern Lord}\11 - Fuck Sorry.wav

Peak level 98.8 %
Track quality 100.0 %
Test CRC EBA11D04
Copy CRC EBA11D04
Copy OK

Track 12
Filename C:\Documents and Settings\cuntfist\Desktop\FLAC's\23\The Accused - The Curse Of Martha Splatterhead (2009) [FLAC] {Southern Lord}\12 - Martha's Disciples.wav

Peak level 98.8 %
Track quality 100.0 %
Test CRC 32123A45
Copy CRC 32123A45
Copy OK

Track 13
Filename C:\Documents and Settings\cuntfist\Desktop\FLAC's\23\The Accused - The Curse Of Martha Splatterhead (2009) [FLAC] {Southern Lord}\13 - Seriously Dead.wav

Peak level 98.8 %
Track quality 100.0 %
Test CRC F41848F5
Copy CRC F41848F5
Copy OK

Track 14
Filename C:\Documents and Settings\cuntfist\Desktop\FLAC's\23\The Accused - The Curse Of Martha Splatterhead (2009) [FLAC] {Southern Lord}\14 - Splatter Rock II.wav

Peak level 98.8 %
Track quality 100.0 %
Test CRC 2CDE48A0
Copy CRC 2CDE48A0
Copy OK

No errors occured


End of status report


The Accüsed - The Curse Of Martha Splatterhead (2009) {Southern Lord} **[RE-UP]**