Tags
Language
Tags

The Spacewürm - Army Of God: Experiments In Intelligent Gabber (1997) {Vinyl Communications}

Posted By: TestTickles
The Spacewürm - Army Of God: Experiments In Intelligent Gabber (1997) {Vinyl Communications}

The Spacewürm - Army Of God: Experiments In Intelligent Gabber (1997) {Vinyl Communications}
EAC Rip | FLAC with CUE and LOG | scans | 266 mb
MP3 CBR 320 kbps | RAR | 87 mb
Genre: electronica, gabber

Army Of God: Experiments In Intelligent Gabber is the 1997 album by the short lived side project of Kid606's Miguel DePedro, The Spacewürm. This is part of the Vinyl Communications collection.

1. Army Of God > 2600 (4:21)
2. Inside The Egg (4:12)
3. Tetsuo (3:41)
4. Superdream Come Crashing (4:59)
5. Gabbernaut (4:42)
6. Army Of God > 5200 (6:36)
7. You My Friend Are The Animal (4:02)
8. Female: The Cell (9:16)

Exact Audio Copy V1.3 from 2. September 2016

EAC extraction logfile from 10. January 2018, 2:36

The Spacewürm / Army Of God, Experimentations In Intelligent Gabber

Used drive : ASUS DRW-24B1ST g Adapter: 1 ID: 1

Read mode : Secure
Utilize accurate stream : Yes
Defeat audio cache : Yes
Make use of C2 pointers : No

Read offset correction : 6
Overread into Lead-In and Lead-Out : No
Fill up missing offset samples with silence : Yes
Delete leading and trailing silent blocks : No
Null samples used in CRC calculations : Yes
Used interface : Native Win32 interface for Win NT & 2000
Gap handling : Appended to previous track

Used output format : Internal WAV Routines
Sample format : 44.100 Hz; 16 Bit; Stereo


TOC of the extracted CD

Track | Start | Length | Start sector | End sector
––––––––––––––––––––––––––––-
1 | 0:00.00 | 4:21.01 | 0 | 19575
2 | 4:21.01 | 4:12.38 | 19576 | 38513
3 | 8:33.39 | 3:41.27 | 38514 | 55115
4 | 12:14.66 | 4:59.13 | 55116 | 77553
5 | 17:14.04 | 4:42.51 | 77554 | 98754
6 | 21:56.55 | 6:36.37 | 98755 | 128491
7 | 28:33.17 | 4:02.38 | 128492 | 146679
8 | 32:35.55 | 9:16.27 | 146680 | 188406


Track 1

Filename C:\cuntfist\FLAC\The Spacewürm - Army Of God, Experiments In Intelligent Gabber (1997) [FLAC] {Vinyl Communications}\01 - Army Of God - 2600.wav

Pre-gap length 0:00:02.00

Peak level 99.9 %
Extraction speed 4.6 X
Track quality 100.0 %
Test CRC 160B09B9
Copy CRC 160B09B9
Accurately ripped (confidence 1) [90617EFB] (AR v1)
Copy OK

Track 2

Filename C:\cuntfist\FLAC\The Spacewürm - Army Of God, Experiments In Intelligent Gabber (1997) [FLAC] {Vinyl Communications}\02 - Inside The Egg.wav

Peak level 99.9 %
Extraction speed 5.0 X
Track quality 100.0 %
Test CRC AFDB5229
Copy CRC AFDB5229
Accurately ripped (confidence 1) [F4648384] (AR v1)
Copy OK

Track 3

Filename C:\cuntfist\FLAC\The Spacewürm - Army Of God, Experiments In Intelligent Gabber (1997) [FLAC] {Vinyl Communications}\03 - Tetsuo.wav

Peak level 100.0 %
Extraction speed 5.1 X
Track quality 100.0 %
Test CRC 5E21245C
Copy CRC 5E21245C
Accurately ripped (confidence 1) [6D43E0C0] (AR v1)
Copy OK

Track 4

Filename C:\cuntfist\FLAC\The Spacewürm - Army Of God, Experiments In Intelligent Gabber (1997) [FLAC] {Vinyl Communications}\04 - Superdream Come Crashing.wav

Peak level 99.9 %
Extraction speed 5.6 X
Track quality 100.0 %
Test CRC A18CFBE9
Copy CRC A18CFBE9
Accurately ripped (confidence 1) [1A4C9C65] (AR v1)
Copy OK

Track 5

Filename C:\cuntfist\FLAC\The Spacewürm - Army Of God, Experiments In Intelligent Gabber (1997) [FLAC] {Vinyl Communications}\05 - Gabbernaut.wav

Peak level 91.0 %
Extraction speed 5.9 X
Track quality 100.0 %
Test CRC 8D5C93CE
Copy CRC 8D5C93CE
Accurately ripped (confidence 1) [46A94E60] (AR v1)
Copy OK

Track 6

Filename C:\cuntfist\FLAC\The Spacewürm - Army Of God, Experiments In Intelligent Gabber (1997) [FLAC] {Vinyl Communications}\06 - Army Of God - 5200.wav

Peak level 99.9 %
Extraction speed 6.4 X
Track quality 100.0 %
Test CRC 78EA6A8A
Copy CRC 78EA6A8A
Accurately ripped (confidence 1) [74EC2615] (AR v1)
Copy OK

Track 7

Filename C:\cuntfist\FLAC\The Spacewürm - Army Of God, Experiments In Intelligent Gabber (1997) [FLAC] {Vinyl Communications}\07 - You My Friend Are The Animal.wav

Peak level 100.0 %
Extraction speed 6.3 X
Track quality 100.0 %
Test CRC D16A04A3
Copy CRC D16A04A3
Accurately ripped (confidence 1) [0DE2DBCD] (AR v1)
Copy OK

Track 8

Filename C:\cuntfist\FLAC\The Spacewürm - Army Of God, Experiments In Intelligent Gabber (1997) [FLAC] {Vinyl Communications}\08 - Female - The Cell.wav

Peak level 99.9 %
Extraction speed 7.2 X
Track quality 100.0 %
Test CRC 8CE84602
Copy CRC 8CE84602
Accurately ripped (confidence 1) [A298DCE6] (AR v1)
Copy OK


All tracks accurately ripped

No errors occurred

End of status report

–– CUETools DB Plugin V2.1.6

[CTDB TOCID: 9WrVlQssGiEYfi4Lxt2Jo1Hm5ec-] found
Submit result: already submitted
Track | CTDB Status
1 | (1/1) Accurately ripped
2 | (1/1) Accurately ripped
3 | (1/1) Accurately ripped
4 | (1/1) Accurately ripped
5 | (1/1) Accurately ripped
6 | (1/1) Accurately ripped
7 | (1/1) Accurately ripped
8 | (1/1) Accurately ripped


==== Log checksum 96B051F1742642C4DA42BD3DC23E63AC4177CA7C36AE88CEBC54512C25D0F4DC ====


The Spacewürm - Army Of God: Experiments In Intelligent Gabber (1997) {Vinyl Communications}


Thank you to the original uploader.