Subcategories

VA - The Best Of Summer Hits (2001) {Euro Trend}

Posted By: TestTickles
VA - The Best Of Summer Hits (2001) {Euro Trend}

VA - The Best Of Summer Hits (2001) {Euro Trend}
EAC Rip | FLAC with CUE and LOG | scans | 495 mb
MP3 CBR 320 kbps | RAR | 164 mb
Genre: pop, country pop, Latin pop, synth pop, disco, surf rock

The Best Of Summer Hits is a 2001 compilation of a diverse range of summer-friendly compositions. A few of these are the original songs by the original artists while others are far from being the originals or original versions. This comes from Euro Trend.

01. Shania Twain - Send It With Love (3:45)
02. Melanie & The Doobie Brothers - Long Train Runnin' (3:28)
03. Jose Feliciano - California Dreamin' (4:02)
04. Abba Revival Band - Mama Mia (Remix Version) (5:59)
05. Audrey Landers - Manuel Goodbye (Remix Version) (4:07)
06. Lucky - Sing C'est La Vie (4:12)
07. Goombay Dance Band - Sun Of Jamaica (Remix Version) (4:24)
08. Gloria Gaynor - I Will Survive (Spanish Remix Version) (3:36)
09. The Beach Boys - Surfin' (2:19)
10. Phil Carmen - On My Way To L.A. (4:03)
11. Juliana - Frederico (3:46)
12. The Trinidads - Jamaica Farewell (3:32)
13. The Darts - Daddy Cool (2:42)
14. Princess - American Pie (Remix Version) (4:26)
15. Steve Miller Band - Going To Mexico (4:07)
16. Shon Tee - My California Angel (5:05)
17. Elvis Aaron Presley Jr. - Blue Hawaii (2:45)
18. Christina Aguilera - Just Be Free (Extended Mix) (4:40)

Exact Audio Copy V0.99 prebeta 5 from 4. May 2009

EAC extraction logfile from 13. June 2012, 22:12

VA / The Best Of Summer Hits

Used drive : SONY DVD RW DRX-S70U Adapter: 2 ID: 0

Read mode : Secure
Utilize accurate stream : Yes
Defeat audio cache : Yes
Make use of C2 pointers : No

Read offset correction : 48
Overread into Lead-In and Lead-Out : No
Fill up missing offset samples with silence : Yes
Delete leading and trailing silent blocks : No
Null samples used in CRC calculations : Yes
Used interface : Native Win32 interface for Win NT & 2000
Used output format : Internal WAV Routines
Sample format : 44.100 Hz; 16 Bit; Stereo

TOC of the extracted CD

Track | Start | Length | Start sector | End sector
––––––––––––––––––––––––––––-
1 | 0:01.00 | 3:45.37 | 75 | 16986
2 | 3:46.37 | 3:28.51 | 16987 | 32637
3 | 7:15.13 | 4:02.21 | 32638 | 50808
4 | 11:17.34 | 5:59.05 | 50809 | 77738
5 | 17:16.39 | 4:07.26 | 77739 | 96289
6 | 21:23.65 | 4:12.67 | 96290 | 115256
7 | 25:36.57 | 4:24.32 | 115257 | 135088
8 | 30:01.14 | 3:36.38 | 135089 | 151326
9 | 33:37.52 | 2:19.67 | 151327 | 161818
10 | 35:57.44 | 4:03.06 | 161819 | 180049
11 | 40:00.50 | 3:46.47 | 180050 | 197046
12 | 43:47.22 | 3:32.64 | 197047 | 213010
13 | 47:20.11 | 2:42.70 | 213011 | 225230
14 | 50:03.06 | 4:26.60 | 225231 | 245240
15 | 54:29.66 | 4:07.20 | 245241 | 263785
16 | 58:37.11 | 5:05.45 | 263786 | 286705
17 | 63:42.56 | 2:45.15 | 286706 | 299095
18 | 66:27.71 | 4:40.64 | 299096 | 320159

Range status and errors

Selected range

Filename C:\cuntfist\FLAC\VA - The Best Of Summer Hits (2001) [FLAC] {Euro Trend}\VA - The Best Of Summer Hits.wav

Peak level 100.0 %
Range quality 100.0 %
Test CRC 13909678
Copy CRC 13909678
Copy OK

No errors occurred

AccurateRip summary

Track 1 not present in database
Track 2 not present in database
Track 3 not present in database
Track 4 not present in database
Track 5 not present in database
Track 6 not present in database
Track 7 not present in database
Track 8 not present in database
Track 9 not present in database
Track 10 not present in database
Track 11 not present in database
Track 12 not present in database
Track 13 not present in database
Track 14 not present in database
Track 15 not present in database
Track 16 not present in database
Track 17 not present in database
Track 18 not present in database

None of the tracks are present in the AccurateRip database

End of status report


VA - The Best Of Summer Hits (2001) {Euro Trend}


Thank you to the original uploader.