Subcategories

VA - The Best of The Classics Vol. 4 (Disc IV) (199x) {Madacy} **[RE-UP]**

Posted By: TestTickles
VA - The Best of The Classics Vol. 4 (Disc IV) (199x) {Madacy} **[RE-UP]**

VA - The Best of The Classics Vol. 4 (Disc IV) (199x) {Madacy}
EAC Rip | FLAC with CUE and log | scans | 234 mb
MP3 CBR 320kbps | RAR | 140 mb
Genre: classical

The Best of The Classics Vol. 4 (Disc IV) is a classical compilation CD released by the Madacy label of Canada. While the disc and packaging lacks a date of release, it seems to be of 1990's vintage. The CD also lacks artist and production credits, which means it could be a series of artists or one artist performing everything. Who is responsible for these tracks will remain unknown. Take a chance.

VA - The Best of The Classics Vol. 4 (Disc IV) (199x) {Madacy} **[RE-UP]**

01. Fur Elise (Ludwig Van Beethoven)
02. Rondo Alla Turca (Wolfgang Amadeus Mozart)
03. Barcarolle (F. Mendelssohn-Bartholdy)
04. Nocturne (Frederic Chopin)
05. Consolation (Franz Liszt)
06. Carmen Suite No. 1 (Georges Bizet)
07. Artists Life Waltz (Johann Strauss)
08. Vienna Bon Bons (Johann Strauss)
09. Prelude, Raindrop (Frederic Chopin)
10. Erotic (Grieg)
11. October: Autumn Song from "The Seasons" Op. 37a (Tchaikovsky)

Exact Audio Copy V1.1 from 23. June 2015

EAC extraction logfile from 29. November 2016, 8:14

Unknown Artist / The Best of The Classics Vol. 4 (Disc IV)

Used drive : TEAC DVD-ROM DV-28SW Adapter: 1 ID: 0

Read mode : Secure
Utilize accurate stream : Yes
Defeat audio cache : Yes
Make use of C2 pointers : No

Read offset correction : 6
Overread into Lead-In and Lead-Out : No
Fill up missing offset samples with silence : Yes
Delete leading and trailing silent blocks : No
Null samples used in CRC calculations : Yes
Used interface : Native Win32 interface for Win NT & 2000
Gap handling : Appended to previous track

Used output format : Internal WAV Routines
Sample format : 44.100 Hz; 16 Bit; Stereo


TOC of the extracted CD

Track | Start | Length | Start sector | End sector
––––––––––––––––––––––––––––-
1 | 0:00.32 | 2:50.70 | 32 | 12851
2 | 2:51.27 | 3:27.13 | 12852 | 28389
3 | 6:18.40 | 3:38.10 | 28390 | 44749
4 | 9:56.50 | 5:17.40 | 44750 | 68564
5 | 15:14.15 | 3:59.32 | 68565 | 86521
6 | 19:13.47 | 12:06.53 | 86522 | 141024
7 | 31:20.25 | 9:34.57 | 141025 | 184131
8 | 40:55.07 | 9:40.43 | 184132 | 227674
9 | 50:35.50 | 5:34.00 | 227675 | 252724
10 | 56:09.50 | 2:28.55 | 252725 | 263879
11 | 58:38.30 | 3:52.22 | 263880 | 281301


Track 1

Filename C:\My Documents\My FLAC\VA - The Best of The Classics Vol. 4 (Disc IV) (199-) [FLAC] {Madacy}\01 - Fur Elise (Ludwig Van Beethoven).wav

Pre-gap length 0:00:02.32

Peak level 48.5 %
Extraction speed 2.1 X
Track quality 100.0 %
Test CRC 93F38037
Copy CRC 93F38037
Accurately ripped (confidence 1) [7F04D505] (AR v2)
Copy OK

Track 2

Filename C:\My Documents\My FLAC\VA - The Best of The Classics Vol. 4 (Disc IV) (199-) [FLAC] {Madacy}\02 - Rondo Alla Turca (Wolfgang Amadeus Mozart).wav

Pre-gap length 0:00:01.07

Peak level 57.7 %
Extraction speed 2.4 X
Track quality 99.9 %
Test CRC 529224BE
Copy CRC 529224BE
Accurately ripped (confidence 1) [CF73A9DB] (AR v2)
Copy OK

Track 3

Filename C:\My Documents\My FLAC\VA - The Best of The Classics Vol. 4 (Disc IV) (199-) [FLAC] {Madacy}\03 - Barcarolle (F. Mendelssohn-Bartholdy).wav

Pre-gap length 0:00:01.25

Peak level 49.9 %
Extraction speed 2.7 X
Track quality 99.9 %
Test CRC 407B1943
Copy CRC 407B1943
Accurately ripped (confidence 1) [332ACA55] (AR v2)
Copy OK

Track 4

Filename C:\My Documents\My FLAC\VA - The Best of The Classics Vol. 4 (Disc IV) (199-) [FLAC] {Madacy}\04 - Nocturne (Frederic Chopin).wav

Pre-gap length 0:00:02.33

Peak level 52.5 %
Extraction speed 3.6 X
Track quality 100.0 %
Test CRC 769D7709
Copy CRC 769D7709
Accurately ripped (confidence 1) [1CC92EFB] (AR v2)
Copy OK

Track 5

Filename C:\My Documents\My FLAC\VA - The Best of The Classics Vol. 4 (Disc IV) (199-) [FLAC] {Madacy}\05 - Consolation (Franz Liszt).wav

Pre-gap length 0:00:01.25

Peak level 48.8 %
Extraction speed 3.8 X
Track quality 100.0 %
Test CRC 9953C387
Copy CRC 9953C387
Accurately ripped (confidence 1) [C8CC8938] (AR v2)
Copy OK

Track 6

Filename C:\My Documents\My FLAC\VA - The Best of The Classics Vol. 4 (Disc IV) (199-) [FLAC] {Madacy}\06 - Carmen Suite No. 1 (Georges Bizet).wav

Pre-gap length 0:00:04.07

Peak level 61.4 %
Extraction speed 4.4 X
Track quality 99.9 %
Test CRC B5155FCD
Copy CRC B5155FCD
Accurately ripped (confidence 1) [A38C958E] (AR v2)
Copy OK

Track 7

Filename C:\My Documents\My FLAC\VA - The Best of The Classics Vol. 4 (Disc IV) (199-) [FLAC] {Madacy}\07 - Artists Life Waltz (Johann Strauss).wav

Pre-gap length 0:00:05.48

Suspicious position 0:06:25
Suspicious position 0:06:51
Suspicious position 0:09:09

Peak level 64.1 %
Extraction speed 0.9 X
Track quality 99.5 %
Test CRC 5677ED50
Copy CRC 608FA278
Cannot be verified as accurate (confidence 1) [87D6EB24], AccurateRip returned [D8D9E2BD] (AR v2)
Copy finished

Track 8

Filename C:\My Documents\My FLAC\VA - The Best of The Classics Vol. 4 (Disc IV) (199-) [FLAC] {Madacy}\08 - Vienna Bon Bons (Johann Strauss).wav

Pre-gap length 0:00:03.70

Peak level 58.6 %
Extraction speed 0.7 X
Track quality 99.5 %
Test CRC AAA0DB79
Copy CRC CAAF81A6
Cannot be verified as accurate (confidence 1) [3F49725D], AccurateRip returned [C85F98CD] (AR v2)
Copy OK

Track 9

Filename C:\My Documents\My FLAC\VA - The Best of The Classics Vol. 4 (Disc IV) (199-) [FLAC] {Madacy}\09 - Prelude, Raindrop (Frederic Chopin).wav

Pre-gap length 0:00:06.35

Suspicious position 0:00:51

Peak level 56.6 %
Extraction speed 1.3 X
Track quality 99.7 %
Test CRC 6C666B07
Copy CRC D899CFE8
Cannot be verified as accurate (confidence 1) [E7843482], AccurateRip returned [5D77EA87] (AR v2)
Copy finished

Track 10

Filename C:\My Documents\My FLAC\VA - The Best of The Classics Vol. 4 (Disc IV) (199-) [FLAC] {Madacy}\10 - Erotic (Grieg).wav

Pre-gap length 0:00:04.15

Peak level 49.2 %
Extraction speed 4.0 X
Track quality 99.9 %
Test CRC AC1DCAE8
Copy CRC AC1DCAE8
Accurately ripped (confidence 1) [7B79F5A2] (AR v2)
Copy OK

Track 11

Filename C:\My Documents\My FLAC\VA - The Best of The Classics Vol. 4 (Disc IV) (199-) [FLAC] {Madacy}\11 - October- Autumn Song from ''The Seasons'' Op. 37a (Tchaikovsky).wav

Pre-gap length 0:00:05.18

Peak level 43.1 %
Extraction speed 5.6 X
Track quality 100.0 %
Test CRC CD01FEDC
Copy CRC CD01FEDC
Accurately ripped (confidence 1) [3B533730] (AR v2)
Copy OK


8 track(s) accurately ripped
3 track(s) could not be verified as accurate

Some tracks could not be verified as accurate

There were errors

End of status report

–– CUETools DB Plugin V2.1.6

[CTDB TOCID: FYGqC.MBU8yNgWVQka34o29qEAA-] found
Submit result: insufficient quality
Track | CTDB Status
1 | (4/4) Accurately ripped
2 | (4/4) Accurately ripped
3 | (4/4) Accurately ripped
4 | (4/4) Accurately ripped
5 | (4/4) Accurately ripped
6 | (4/4) Accurately ripped
7 | (4/4) Differs in 144 samples @06:25:46-06:25:47,06:51:60,09:09:45-09:09:46,09:11:59
8 | (4/4) Differs in 249 samples @00:00:62-00:00:63,00:26:19-00:26:20,02:40:01,02:55:19,06:57:70-06:57:71
9 | (4/4) Differs in 61 samples @00:51:61,00:52:40-00:52:41
10 | (4/4) Accurately ripped
11 | (4/4) Accurately ripped
If you are sure that your rip contains errors, you can use CUETools to repair it.


==== Log checksum 54488476248575E4E125455DF7261FD6B0C89D8B32AF6D7F0F0A94F67D5E41B1 ====


VA - The Best of The Classics Vol. 4 (Disc IV) (199x) {Madacy} **[RE-UP]**