The Fireworks - Switch Me On (2015) {Shelflife}

Posted By: TestTickles
The Fireworks - Switch Me On (2015) {Shelflife}

The Fireworks - Switch Me On (2015) {Shelflife}
EAC Rip | FLAC with CUE and log | scans | 280 mb
MP3 CBR 320kbps | RAR | 110 mb
Genre: indie pop

2015 is the year when The Fireworks released their album Switch Me On. Shelflife is the company that helped them release this.

The Fireworks - Switch Me On (2015) {Shelflife}

1. With My Heart (1:48)
2. Runaround (2:50)
3. Let You Know (3:19)
4. Tightrope (2:31)
5. Which Way To Go (2:28)
6. Took It All (2:47)
7. Switch Me On (3:45)
8. On And On (1:51)
9. Back To You (3:02)
10. Stay Here (2:44)
11. Corner Of My Mind (2:30)
12. Final Say (4:53)
13. In The Morning (2:32)

Matthew Rimell-vocals, guitar
Emma Hall-vocals, tambourine
Isabel Albiol-bass
Sharn Charman-drums, additional guitar

Recorded by David Holmes & Simon Trought

Exact Audio Copy V1.1 from 23. June 2015

EAC extraction logfile from 30. March 2017, 7:44

The Fireworks / Switch Me On

Used drive : TEAC DVD-ROM DV-28SW Adapter: 1 ID: 0

Read mode : Secure
Utilize accurate stream : Yes
Defeat audio cache : Yes
Make use of C2 pointers : No

Read offset correction : 6
Overread into Lead-In and Lead-Out : No
Fill up missing offset samples with silence : Yes
Delete leading and trailing silent blocks : No
Null samples used in CRC calculations : Yes
Used interface : Native Win32 interface for Win NT & 2000
Gap handling : Appended to previous track

Used output format : Internal WAV Routines
Sample format : 44.100 Hz; 16 Bit; Stereo


TOC of the extracted CD

Track | Start | Length | Start sector | End sector
––––––––––––––––––––––––––––-
1 | 0:00.00 | 1:50.31 | 0 | 8280
2 | 1:50.31 | 2:53.08 | 8281 | 21263
3 | 4:43.39 | 3:20.13 | 21264 | 36276
4 | 8:03.52 | 2:33.52 | 36277 | 47803
5 | 10:37.29 | 2:30.65 | 47804 | 59118
6 | 13:08.19 | 2:49.20 | 59119 | 71813
7 | 15:57.39 | 3:48.60 | 71814 | 88973
8 | 19:46.24 | 1:53.17 | 88974 | 97465
9 | 21:39.41 | 3:04.19 | 97466 | 111284
10 | 24:43.60 | 2:46.23 | 111285 | 123757
11 | 27:30.08 | 2:33.02 | 123758 | 135234
12 | 30:03.10 | 5:13.47 | 135235 | 158756
13 | 35:16.57 | 2:32.51 | 158757 | 170207


Track 1

Filename C:\My Documents\My FLAC\The Fireworks - Switch Me On (2015) [FLAC] {Shelflife}\01 - With My Heart.wav

Pre-gap length 0:00:02.00

Peak level 99.4 %
Extraction speed 1.4 X
Track quality 100.0 %
Test CRC 81A37BBA
Copy CRC 81A37BBA
Accurately ripped (confidence 2) [49B77724] (AR v2)
Copy OK

Track 2

Filename C:\My Documents\My FLAC\The Fireworks - Switch Me On (2015) [FLAC] {Shelflife}\02 - Runaround.wav

Pre-gap length 0:00:02.00

Peak level 99.9 %
Extraction speed 1.8 X
Track quality 100.0 %
Test CRC BB06EF01
Copy CRC BB06EF01
Accurately ripped (confidence 2) [D0EC2803] (AR v2)
Copy OK

Track 3

Filename C:\My Documents\My FLAC\The Fireworks - Switch Me On (2015) [FLAC] {Shelflife}\03 - Let You Know.wav

Pre-gap length 0:00:02.00

Peak level 100.0 %
Extraction speed 1.7 X
Track quality 99.9 %
Test CRC F08AABD4
Copy CRC F08AABD4
Accurately ripped (confidence 2) [1B7DEB7E] (AR v2)
Copy OK

Track 4

Filename C:\My Documents\My FLAC\The Fireworks - Switch Me On (2015) [FLAC] {Shelflife}\04 - Tightrope.wav

Pre-gap length 0:00:01.00

Peak level 100.0 %
Extraction speed 1.7 X
Track quality 99.9 %
Test CRC 14A07877
Copy CRC 14A07877
Accurately ripped (confidence 2) [84E7E995] (AR v2)
Copy OK

Track 5

Filename C:\My Documents\My FLAC\The Fireworks - Switch Me On (2015) [FLAC] {Shelflife}\05 - Which Way To Go.wav

Pre-gap length 0:00:02.00

Peak level 100.0 %
Extraction speed 2.2 X
Track quality 100.0 %
Test CRC 299230CF
Copy CRC 299230CF
Accurately ripped (confidence 2) [7A3833EE] (AR v2)
Copy OK

Track 6

Filename C:\My Documents\My FLAC\The Fireworks - Switch Me On (2015) [FLAC] {Shelflife}\06 - Took It All.wav

Pre-gap length 0:00:02.00

Peak level 99.4 %
Extraction speed 2.3 X
Track quality 100.0 %
Test CRC B6600572
Copy CRC B6600572
Accurately ripped (confidence 2) [F51C39CC] (AR v2)
Copy OK

Track 7

Filename C:\My Documents\My FLAC\The Fireworks - Switch Me On (2015) [FLAC] {Shelflife}\07 - Switch Me On.wav

Pre-gap length 0:00:02.00

Peak level 100.0 %
Extraction speed 2.5 X
Track quality 100.0 %
Test CRC 08F88926
Copy CRC 08F88926
Accurately ripped (confidence 2) [2DA3DBB7] (AR v2)
Copy OK

Track 8

Filename C:\My Documents\My FLAC\The Fireworks - Switch Me On (2015) [FLAC] {Shelflife}\08 - On And On.wav

Pre-gap length 0:00:03.00

Peak level 100.0 %
Extraction speed 1.8 X
Track quality 99.9 %
Test CRC 175D3C1E
Copy CRC 175D3C1E
Accurately ripped (confidence 2) [DBCF4584] (AR v2)
Copy OK

Track 9

Filename C:\My Documents\My FLAC\The Fireworks - Switch Me On (2015) [FLAC] {Shelflife}\09 - Back To You.wav

Pre-gap length 0:00:02.00

Peak level 100.0 %
Extraction speed 2.2 X
Track quality 99.9 %
Test CRC 17FF306C
Copy CRC 17FF306C
Accurately ripped (confidence 2) [E915CB1B] (AR v2)
Copy OK

Track 10

Filename C:\My Documents\My FLAC\The Fireworks - Switch Me On (2015) [FLAC] {Shelflife}\10 - Stay Here.wav

Pre-gap length 0:00:02.00

Peak level 100.0 %
Extraction speed 2.2 X
Track quality 99.9 %
Test CRC DB1A602D
Copy CRC DB1A602D
Accurately ripped (confidence 2) [3BA002DE] (AR v2)
Copy OK

Track 11

Filename C:\My Documents\My FLAC\The Fireworks - Switch Me On (2015) [FLAC] {Shelflife}\11 - Corner Of My Mind.wav

Pre-gap length 0:00:02.00

Peak level 100.0 %
Extraction speed 2.2 X
Track quality 99.9 %
Test CRC C28A8786
Copy CRC C28A8786
Accurately ripped (confidence 2) [D1C2F354] (AR v2)
Copy OK

Track 12

Filename C:\My Documents\My FLAC\The Fireworks - Switch Me On (2015) [FLAC] {Shelflife}\12 - Final Say.wav

Pre-gap length 0:00:02.00

Peak level 99.9 %
Extraction speed 3.1 X
Track quality 100.0 %
Test CRC BAC4781F
Copy CRC BAC4781F
Accurately ripped (confidence 2) [BC2019A9] (AR v2)
Copy OK

Track 13

Filename C:\My Documents\My FLAC\The Fireworks - Switch Me On (2015) [FLAC] {Shelflife}\13 - In The Morning.wav

Pre-gap length 0:00:20.00

Peak level 100.0 %
Extraction speed 2.9 X
Track quality 100.0 %
Test CRC A0D6FFE8
Copy CRC A0D6FFE8
Accurately ripped (confidence 2) [D3B0A02D] (AR v2)
Copy OK


All tracks accurately ripped

No errors occurred

End of status report

–– CUETools DB Plugin V2.1.6

[CTDB TOCID: 6qdlW60oorhoCOyqiXik838zEqc-] found
Submit result: 6qdlW60oorhoCOyqiXik838zEqc- has been confirmed
Track | CTDB Status
1 | (3/3) Accurately ripped
2 | (3/3) Accurately ripped
3 | (3/3) Accurately ripped
4 | (3/3) Accurately ripped
5 | (3/3) Accurately ripped
6 | (3/3) Accurately ripped
7 | (3/3) Accurately ripped
8 | (3/3) Accurately ripped
9 | (3/3) Accurately ripped
10 | (3/3) Accurately ripped
11 | (3/3) Accurately ripped
12 | (3/3) Accurately ripped
13 | (3/3) Accurately ripped


==== Log checksum 3DE55EB5736BB88A4381AEAFBB936EE14E2F13796BDC6FD6C57A3BDF5F15DEBA ====


The Fireworks - Switch Me On (2015) {Shelflife}