Subcategories
Tags
Language
Tags

The Justified Ancients Of Mu Mu - 1987: What The Fuck's Going On (1987) {1991 B&M Productions}

Posted By: TestTickles
The Justified Ancients Of Mu Mu - 1987: What The Fuck's Going On (1987) {1991 B&M Productions}

The Justified Ancients Of Mu Mu - 1987: What The Fuck's Going On (1987) {1991 B&M Productions}
EAC Rip | FLAC with CUE and LOG | scans | 262 mb
MP3 CBR 320 kbps | RAR | 88 mb
Genre: electronic, leftfield, rap

1987: What The Fuck's Going On is the 1987 debut album by The Justified Ancients Of Mu Mu. The British duo would become better known as The JAMS, who would also become known as The Timelords, who later became better known as The KLF, among other smaller monikers. This is the album that was released and banned due to unauthorized samples. This was then released on compact disc a number of times but it remains unknown if they were released secretly by the Mu Mu crew or if it was illegally pressed. This pressing released in 1991 by B&M Productions flips each side of the record so so tracks 1-3 were meant to be Side 2 of the original album while tracks 4-7 are meant to be Side 1 so many who first listened to this album heard it with reversed sides.

The Justified Ancients Of Mu Mu - 1987: What The Fuck's Going On (1987) {1991 B&M Productions}

1. Me Ru Con
2. The Queen I
3. All You Need Is Love
4. Next
5. Hey Hey We Are Not The Monkees
6. Don't Take Five (Take What You Want)
7. Rockman Rock (Parts 2 And 3)

Exact Audio Copy V1.0 beta 6 from 9. April 2015

EAC extraction logfile from 23. July 2020, 0:38

The Justified Ancients Of Mu Mu / 1987: What The Fuck's Going On?

Used drive : TSSTcorpDVD+-RW TS-L633C Adapter: 1 ID: 0

Read mode : Secure
Utilize accurate stream : Yes
Defeat audio cache : Yes
Make use of C2 pointers : No

Read offset correction : 6
Overread into Lead-In and Lead-Out : No
Fill up missing offset samples with silence : Yes
Delete leading and trailing silent blocks : No
Null samples used in CRC calculations : Yes
Used interface : Native Win32 interface for Win NT & 2000
Gap handling : Appended to previous track

Used output format : Internal WAV Routines
Sample format : 44.100 Hz; 16 Bit; Stereo


TOC of the extracted CD

Track | Start | Length | Start sector | End sector
––––––––––––––––––––––––––––-
1 | 0:00.00 | 2:23.27 | 0 | 10751
2 | 2:23.27 | 7:31.45 | 10752 | 44621
3 | 9:54.72 | 4:51.60 | 44622 | 66506
4 | 14:46.57 | 7:04.14 | 66507 | 98320
5 | 21:50.71 | 7:07.15 | 98321 | 130360
6 | 28:58.11 | 3:58.01 | 130361 | 148211
7 | 32:56.12 | 6:50.42 | 148212 | 179003


Track 1

Filename C:\My Documents\My FLAC\The Justified Ancients Of Mu Mu - 1987, What The Fuck's Going On (1987) [FLAC] {1991 B&M Productions}\01 - Me Ru Con.wav

Pre-gap length 0:00:02.00

Peak level 90.3 %
Extraction speed 2.4 X
Track quality 100.0 %
Test CRC 912CF3C9
Copy CRC 912CF3C9
Track not present in AccurateRip database
Copy OK

Track 2

Filename C:\My Documents\My FLAC\The Justified Ancients Of Mu Mu - 1987, What The Fuck's Going On (1987) [FLAC] {1991 B&M Productions}\02 - The Queen I.wav

Peak level 91.2 %
Extraction speed 3.2 X
Track quality 100.0 %
Test CRC 311FB8C7
Copy CRC 311FB8C7
Track not present in AccurateRip database
Copy OK

Track 3

Filename C:\My Documents\My FLAC\The Justified Ancients Of Mu Mu - 1987, What The Fuck's Going On (1987) [FLAC] {1991 B&M Productions}\03 - All You Need Is Love.wav

Peak level 88.8 %
Extraction speed 2.9 X
Track quality 99.9 %
Test CRC 07F47B77
Copy CRC 07F47B77
Track not present in AccurateRip database
Copy OK

Track 4

Filename C:\My Documents\My FLAC\The Justified Ancients Of Mu Mu - 1987, What The Fuck's Going On (1987) [FLAC] {1991 B&M Productions}\04 - Next.wav

Peak level 89.6 %
Extraction speed 3.8 X
Track quality 100.0 %
Test CRC E8C268AD
Copy CRC E8C268AD
Track not present in AccurateRip database
Copy OK

Track 5

Filename C:\My Documents\My FLAC\The Justified Ancients Of Mu Mu - 1987, What The Fuck's Going On (1987) [FLAC] {1991 B&M Productions}\05 - Hey Hey We Are Not The Monkees.wav

Peak level 99.9 %
Extraction speed 3.8 X
Track quality 100.0 %
Test CRC AE6850C4
Copy CRC AE6850C4
Track not present in AccurateRip database
Copy OK

Track 6

Filename C:\My Documents\My FLAC\The Justified Ancients Of Mu Mu - 1987, What The Fuck's Going On (1987) [FLAC] {1991 B&M Productions}\06 - Don't Take Five (Take What You Want).wav

Peak level 95.6 %
Extraction speed 3.2 X
Track quality 99.9 %
Test CRC 63767C3D
Copy CRC 63767C3D
Track not present in AccurateRip database
Copy OK

Track 7

Filename C:\My Documents\My FLAC\The Justified Ancients Of Mu Mu - 1987, What The Fuck's Going On (1987) [FLAC] {1991 B&M Productions}\07 - Rockman Rock (Parts 2 And 3).wav

Peak level 96.9 %
Extraction speed 4.4 X
Track quality 100.0 %
Test CRC E6F9626E
Copy CRC E6F9626E
Track not present in AccurateRip database
Copy OK


None of the tracks are present in the AccurateRip database

No errors occurred

End of status report

–– CUETools DB Plugin V2.1.6

[CTDB TOCID: yBrm72JWTq8dE1tWttGxvt4xBOk-] disk not present in database
Submit result: yBrm72JWTq8dE1tWttGxvt4xBOk- has been uploaded


==== Log checksum 73E0ADB96DFF0D9D0EBF463B3B35F10AD74F541E2315C533A0CC37BAE64F3511 ====


The Justified Ancients Of Mu Mu - 1987: What The Fuck's Going On (1987) {1991 B&M Productions}