Subcategories
Tags
Language
Tags

The Meters - Look-Ka Py Py (1970) {1999 Sundazed} **[RE-UP]**

Posted By: TestTickles
The Meters - Look-Ka Py Py (1970) {1999 Sundazed} **[RE-UP]**

The Meters - Look-Ka Py Py (1970) {1999 Sundazed}
EAC Rip | FLAC with CUE and log | scans | 222 mb
MP3 CBR 320kbps | RAR | 96 mb
Genre: soul, R&B, funk

Look-Ka Py Py is the second album by New Orleans band The Meters. As influential as their debut, the title track and their cover of "Oh, Calcutta!" is considered major standouts. It features the original 12-song album plus two songs previously unreleased songs. This was remastered and reissued by Sundazed.

The Meters - Look-Ka Py Py (1970) {1999 Sundazed} **[RE-UP]**

01. Look-Ka Py Py
02. Rigor Mortis
03. Pungee
04. Thinking
05. This Is My Last Affair
06. Funky Miracle
07. Yeah, You're Right
08. Little Old Money Maker
09. Oh, Calcutta!
10. The Mob
11. 9 'Til 5
12. Dry Spell
13. Grass (Bonus Track)
14. Borro (Bonus Track)

EAC extraction logfile from 9. November 2005, 17:12 for CD
Meters, The / Look-Ka Py Py

Used drive : LITE-ON DVDRW SOHW-1633S Adapter: 0 ID: 0
Read mode : Secure with NO C2, accurate stream, disable cache
Read offset correction : 12
Overread into Lead-In and Lead-Out : No

Used output format : Internal WAV Routines
44.100 Hz; 16 Bit; Stereo

Other options :
Fill up missing offset samples with silence : Yes
Delete leading and trailing silent blocks : No
Installed external ASPI interface


Track 1
Filename C:\FLAC\The Meters\The Meters - Look-Ka Py Py (1970) [FLAC]\01 - Look-Ka Py Py.wav

Pre-gap length 0:00:02.00

Peak level 98.8 %
Track quality 100.0 %
Test CRC B8EBC157
Copy CRC B8EBC157
Copy OK

Track 2
Filename C:\FLAC\The Meters\The Meters - Look-Ka Py Py (1970) [FLAC]\02 - Rigor Mortis.wav

Pre-gap length 0:00:03.40

Peak level 98.8 %
Track quality 100.0 %
Test CRC AC21F27B
Copy CRC AC21F27B
Copy OK

Track 3
Filename C:\FLAC\The Meters\The Meters - Look-Ka Py Py (1970) [FLAC]\03 - Pungee.wav

Pre-gap length 0:00:02.55

Peak level 98.8 %
Track quality 100.0 %
Test CRC 2482272D
Copy CRC 2482272D
Copy OK

Track 4
Filename C:\FLAC\The Meters\The Meters - Look-Ka Py Py (1970) [FLAC]\04 - Thinking.wav

Pre-gap length 0:00:02.55

Peak level 98.8 %
Track quality 100.0 %
Test CRC C1C5B21A
Copy CRC C1C5B21A
Copy OK

Track 5
Filename C:\FLAC\The Meters\The Meters - Look-Ka Py Py (1970) [FLAC]\05 - This Is My Last Affair.wav

Pre-gap length 0:00:02.55

Peak level 98.8 %
Track quality 100.0 %
Test CRC 481191A7
Copy CRC 481191A7
Copy OK

Track 6
Filename C:\FLAC\The Meters\The Meters - Look-Ka Py Py (1970) [FLAC]\06 - Funky Miracle.wav

Pre-gap length 0:00:02.55

Peak level 98.8 %
Track quality 100.0 %
Test CRC E9544E84
Copy CRC E9544E84
Copy OK

Track 7
Filename C:\FLAC\The Meters\The Meters - Look-Ka Py Py (1970) [FLAC]\07 - Yeah, You're Right.wav

Pre-gap length 0:00:03.20

Peak level 98.8 %
Track quality 100.0 %
Test CRC 80882730
Copy CRC 80882730
Copy OK

Track 8
Filename C:\FLAC\The Meters\The Meters - Look-Ka Py Py (1970) [FLAC]\08 - Little Old Money Maker.wav

Pre-gap length 0:00:02.55

Peak level 98.8 %
Track quality 100.0 %
Test CRC D6103B93
Copy CRC D6103B93
Copy OK

Track 9
Filename C:\FLAC\The Meters\The Meters - Look-Ka Py Py (1970) [FLAC]\09 - Oh, Calcutta!.wav

Pre-gap length 0:00:02.54

Peak level 98.8 %
Track quality 100.0 %
Test CRC 7C3C2ACA
Copy CRC 7C3C2ACA
Copy OK

Track 10
Filename C:\FLAC\The Meters\The Meters - Look-Ka Py Py (1970) [FLAC]\10 - The Mob.wav

Pre-gap length 0:00:02.54

Peak level 98.8 %
Track quality 100.0 %
Test CRC B47292A0
Copy CRC B47292A0
Copy OK

Track 11
Filename C:\FLAC\The Meters\The Meters - Look-Ka Py Py (1970) [FLAC]\11 - 9 'Til 5.wav

Pre-gap length 0:00:02.55

Peak level 83.0 %
Track quality 100.0 %
Test CRC B3901391
Copy CRC B3901391
Copy OK

Track 12
Filename C:\FLAC\The Meters\The Meters - Look-Ka Py Py (1970) [FLAC]\12 - Dry Spell.wav

Pre-gap length 0:00:02.55

Peak level 98.8 %
Track quality 100.0 %
Test CRC 6D9A9F73
Copy CRC 6D9A9F73
Copy OK

Track 13
Filename C:\FLAC\The Meters\The Meters - Look-Ka Py Py (1970) [FLAC]\13 - Grass.wav

Pre-gap length 0:00:04.54

Peak level 98.8 %
Track quality 100.0 %
Test CRC 091C6F43
Copy CRC 091C6F43
Copy OK

Track 14
Filename C:\FLAC\The Meters\The Meters - Look-Ka Py Py (1970) [FLAC]\14 - Borro.wav

Pre-gap length 0:00:02.55

Peak level 98.8 %
Track quality 100.0 %
Test CRC 64333BF0
Copy CRC 64333BF0
Copy OK

No errors occured


End of status report


The Meters - Look-Ka Py Py (1970) {1999 Sundazed} **[RE-UP]**