Subcategories
Tags
Language
Tags

The Meters - s/t (1969) {1999 Sundazed} **[RE-UP]**

Posted By: TestTickles
The Meters - s/t (1969) {1999 Sundazed} **[RE-UP]**

The Meters - s/t (1969) {1999 Sundazed}
EAC Rip | FLAC with CUE and log | scans | 263 mb
MP3 CBR 320kbps | RAR | 110 mb
Genre: soul, R&B, funk

The Meters is the 1969 eponymous debut album by New Orleans band The Meters. This is one of the most influential recordings not only in soul and funk but also in hip-hop. It features the original 12-song album plus two songs previously unreleased songs. This was remastered and reissued by Sundazed.

The Meters - s/t (1969) {1999 Sundazed} **[RE-UP]**

01. Cissy Strut
02. Here Comes The Meter Man
03. Cardova
04. Live Wire
05. Art
06. Sophisticated Cissy
07. Ease Back
08. 6V6 LA
09. Sehorn's Farm
10. Ann
11. Stormy
12. Sing A Simple Song
13. The Look Of Love (Bonus Track)
14. Soul Machine (Bonus Track)

The Meters - s/t (1969) {1999 Sundazed} **[RE-UP]**


EAC extraction logfile from 9. November 2005, 15:43 for CD
The Meters / The Meters

Used drive : LITE-ON DVDRW SOHW-1633S Adapter: 0 ID: 0
Read mode : Secure with NO C2, accurate stream, disable cache
Read offset correction : 12
Overread into Lead-In and Lead-Out : No

Used output format : Internal WAV Routines
44.100 Hz; 16 Bit; Stereo

Other options :
Fill up missing offset samples with silence : Yes
Delete leading and trailing silent blocks : No
Installed external ASPI interface


Track 1
Filename C:\FLAC\The Meters\The Meters - s-t (1969) [FLAC]\01 - Cissy Strut.wav

Pre-gap length 0:00:02.00

Peak level 98.8 %
Track quality 100.0 %
Test CRC A17FE96A
Copy CRC A17FE96A
Copy OK

Track 2
Filename C:\FLAC\The Meters\The Meters - s-t (1969) [FLAC]\02 - Here Comes The Meter Man.wav

Pre-gap length 0:00:02.60

Peak level 98.8 %
Track quality 100.0 %
Test CRC F031EA99
Copy CRC F031EA99
Copy OK

Track 3
Filename C:\FLAC\The Meters\The Meters - s-t (1969) [FLAC]\03 - Cardova.wav

Pre-gap length 0:00:01.57

Peak level 98.8 %
Track quality 99.9 %
Test CRC 6CFE41A1
Copy CRC 6CFE41A1
Copy OK

Track 4
Filename C:\FLAC\The Meters\The Meters - s-t (1969) [FLAC]\04 - Live Wire.wav

Pre-gap length 0:00:02.55

Peak level 98.8 %
Track quality 100.0 %
Test CRC 99FF9444
Copy CRC 99FF9444
Copy OK

Track 5
Filename C:\FLAC\The Meters\The Meters - s-t (1969) [FLAC]\05 - Art.wav

Pre-gap length 0:00:02.55

Peak level 98.8 %
Track quality 100.0 %
Test CRC 78D3E183
Copy CRC 78D3E183
Copy OK

Track 6
Filename C:\FLAC\The Meters\The Meters - s-t (1969) [FLAC]\06 - Sophisticated Cissy.wav

Pre-gap length 0:00:04.30

Peak level 98.8 %
Track quality 100.0 %
Test CRC CB8B510B
Copy CRC CB8B510B
Copy OK

Track 7
Filename C:\FLAC\The Meters\The Meters - s-t (1969) [FLAC]\07 - Ease Back.wav

Pre-gap length 0:00:02.55

Peak level 96.6 %
Track quality 100.0 %
Test CRC 3B243AA9
Copy CRC 3B243AA9
Copy OK

Track 8
Filename C:\FLAC\The Meters\The Meters - s-t (1969) [FLAC]\08 - 6V6 LA.wav

Pre-gap length 0:00:02.55

Peak level 98.8 %
Track quality 99.9 %
Test CRC 5595434C
Copy CRC 5595434C
Copy OK

Track 9
Filename C:\FLAC\The Meters\The Meters - s-t (1969) [FLAC]\09 - Sehorn's Farm.wav

Pre-gap length 0:00:02.55

Peak level 98.8 %
Track quality 100.0 %
Test CRC D217B00F
Copy CRC D217B00F
Copy OK

Track 10
Filename C:\FLAC\The Meters\The Meters - s-t (1969) [FLAC]\10 - Ann.wav

Pre-gap length 0:00:02.53

Peak level 98.8 %
Track quality 100.0 %
Test CRC 3629A965
Copy CRC 3629A965
Copy OK

Track 11
Filename C:\FLAC\The Meters\The Meters - s-t (1969) [FLAC]\11 - Stormy.wav

Pre-gap length 0:00:02.55

Peak level 90.1 %
Track quality 100.0 %
Test CRC 4054038D
Copy CRC 4054038D
Copy OK

Track 12
Filename C:\FLAC\The Meters\The Meters - s-t (1969) [FLAC]\12 - Sing A Simple Song.wav

Pre-gap length 0:00:02.55

Peak level 98.8 %
Track quality 100.0 %
Test CRC EF867FA5
Copy CRC EF867FA5
Copy OK

Track 13
Filename C:\FLAC\The Meters\The Meters - s-t (1969) [FLAC]\13 - The Look Of Love.wav

Pre-gap length 0:00:04.54

Peak level 98.8 %
Track quality 100.0 %
Test CRC 4094A561
Copy CRC 4094A561
Copy OK

Track 14
Filename C:\FLAC\The Meters\The Meters - s-t (1969) [FLAC]\14 - Soul Machine.wav

Pre-gap length 0:00:02.55

Peak level 98.8 %
Track quality 100.0 %
Test CRC BC81172D
Copy CRC BC81172D
Copy OK

No errors occured


End of status report


The Meters - s/t (1969) {1999 Sundazed} **[RE-UP]**