Subcategories

The Paupers - Dig Deep (1966-1968) (1999) {Mercury Canada}

Posted By: TestTickles
The Paupers - Dig Deep (1966-1968) (1999) {Mercury Canada}

The Paupers - Dig Deep (1966-1968) (1999) {Mercury Canada}
EAC Rip | FLAC with CUE and log | scans | 471 mb
MP3 CBR 320kbps | RAR | 170 mb
Genre: rock'n'roll

Dig Deep (1966-1968) is a 1999 compilation CD by The Paupers. It focuses on their music from the late 1960's, many of which were hit singles. This comes courtesy of Mercury in Canada.

The Paupers - Dig Deep (1966-1968) (1999) {Mercury Canada}

01. Magic People
02. It's Your Mind
03. Black Thank You Package
04. Let Me Be
05. Think I Care
06. One Rainy Day
07. Tudor Impressions
08. Simple Deed
09. My Love Hides From Your View
10. You and Me
11. If I Call You By Some Name
12. Copper Penny
13. White Song
14. South Down Road
15. Cairo Hotel
16. Another Man's Hair on My Razor
17. Numbers
18. Oh That She Might
19. Ask Her Again
20. Julliana

EAC extraction logfile from 18. October 2005, 17:06 for CD
The Paupers / Dig Deep 1966-1968

Used drive : AOPEN DUW1608/ARR Adapter: 2 ID: 0
Read mode : Secure with NO C2, accurate stream, disable cache
Read offset correction : 91
Overread into Lead-In and Lead-Out : No

Used output format : Internal WAV Routines
44.100 Hz; 16 Bit; Stereo

Other options :
Fill up missing offset samples with silence : Yes
Delete leading and trailing silent blocks : No
Installed external ASPI interface


Track 1
Filename C:\The Paupers - Dig Deep (1966-1968) (1999) [FLAC] {Mercury Canada}\01 - Magic People.wav

Pre-gap length 0:00:02.00

Peak level 96.1 %
Track quality 100.0 %
Test CRC 42917479
Copy CRC 42917479
Copy OK

Track 2
Filename C:\The Paupers - Dig Deep (1966-1968) (1999) [FLAC] {Mercury Canada}\02 - It's Your Mind.wav

Peak level 97.5 %
Track quality 100.0 %
Test CRC AF8022B6
Copy CRC AF8022B6
Copy OK

Track 3
Filename C:\The Paupers - Dig Deep (1966-1968) (1999) [FLAC] {Mercury Canada}\03 - Black Thank You Package.wav

Peak level 98.4 %
Track quality 100.0 %
Test CRC 053401CD
Copy CRC 053401CD
Copy OK

Track 4
Filename C:\The Paupers - Dig Deep (1966-1968) (1999) [FLAC] {Mercury Canada}\04 - Let Me Be.wav

Pre-gap length 0:00:02.20

Peak level 95.8 %
Track quality 100.0 %
Test CRC F8D1047F
Copy CRC F8D1047F
Copy OK

Track 5
Filename C:\The Paupers - Dig Deep (1966-1968) (1999) [FLAC] {Mercury Canada}\05 - Think I Care.wav

Peak level 97.0 %
Track quality 100.0 %
Test CRC 89AA4F28
Copy CRC 89AA4F28
Copy OK

Track 6
Filename C:\The Paupers - Dig Deep (1966-1968) (1999) [FLAC] {Mercury Canada}\06 - One Rainy Day.wav

Peak level 96.6 %
Track quality 100.0 %
Test CRC 6FA5A120
Copy CRC 6FA5A120
Copy OK

Track 7
Filename C:\The Paupers - Dig Deep (1966-1968) (1999) [FLAC] {Mercury Canada}\07 - Tudor Impressions.wav

Peak level 97.2 %
Track quality 100.0 %
Test CRC 40AD9615
Copy CRC 40AD9615
Copy OK

Track 8
Filename C:\The Paupers - Dig Deep (1966-1968) (1999) [FLAC] {Mercury Canada}\08 - Simple Deed.wav

Pre-gap length 0:00:01.24

Peak level 96.0 %
Track quality 100.0 %
Test CRC 18114369
Copy CRC 18114369
Copy OK

Track 9
Filename C:\The Paupers - Dig Deep (1966-1968) (1999) [FLAC] {Mercury Canada}\09 - My Love Hides From Your View.wav

Peak level 94.7 %
Track quality 100.0 %
Test CRC 74994EA2
Copy CRC 74994EA2
Copy OK

Track 10
Filename C:\The Paupers - Dig Deep (1966-1968) (1999) [FLAC] {Mercury Canada}\10 - You and Me.wav

Peak level 95.8 %
Track quality 100.0 %
Test CRC CE8833AF
Copy CRC CE8833AF
Copy OK

Track 11
Filename C:\The Paupers - Dig Deep (1966-1968) (1999) [FLAC] {Mercury Canada}\11 - If I Call You By Some Name.wav

Pre-gap length 0:00:01.00

Peak level 95.0 %
Track quality 100.0 %
Test CRC 707852ED
Copy CRC 707852ED
Copy OK

Track 12
Filename C:\The Paupers - Dig Deep (1966-1968) (1999) [FLAC] {Mercury Canada}\12 - Copper Penny.wav

Peak level 95.1 %
Track quality 100.0 %
Test CRC 14FF172A
Copy CRC 14FF172A
Copy OK

Track 13
Filename C:\The Paupers - Dig Deep (1966-1968) (1999) [FLAC] {Mercury Canada}\13 - White Song.wav

Pre-gap length 0:00:01.26

Peak level 94.0 %
Track quality 100.0 %
Test CRC 0F6A13ED
Copy CRC 0F6A13ED
Copy OK

Track 14
Filename C:\The Paupers - Dig Deep (1966-1968) (1999) [FLAC] {Mercury Canada}\14 - South Down Road.wav

Pre-gap length 0:00:01.00

Peak level 99.1 %
Track quality 100.0 %
Test CRC 6D0792ED
Copy CRC 6D0792ED
Copy OK

Track 15
Filename C:\The Paupers - Dig Deep (1966-1968) (1999) [FLAC] {Mercury Canada}\15 - Cairo Hotel.wav

Peak level 96.7 %
Track quality 100.0 %
Test CRC 4FCCDA39
Copy CRC 4FCCDA39
Copy OK

Track 16
Filename C:\The Paupers - Dig Deep (1966-1968) (1999) [FLAC] {Mercury Canada}\16 - Another Man's Hair on My Razor.wav

Peak level 100.0 %
Track quality 100.0 %
Test CRC 44536946
Copy CRC 44536946
Copy OK

Track 17
Filename C:\The Paupers - Dig Deep (1966-1968) (1999) [FLAC] {Mercury Canada}\17 - Numbers.wav

Pre-gap length 0:00:00.26

Peak level 100.0 %
Track quality 99.9 %
Test CRC 78DCE66D
Copy CRC 78DCE66D
Copy OK

Track 18
Filename C:\The Paupers - Dig Deep (1966-1968) (1999) [FLAC] {Mercury Canada}\18 - Oh That She Might.wav

Peak level 100.0 %
Track quality 100.0 %
Test CRC EA7159E4
Copy CRC EA7159E4
Copy OK

Track 19
Filename C:\The Paupers - Dig Deep (1966-1968) (1999) [FLAC] {Mercury Canada}\19 - Ask Her Again.wav

Peak level 95.5 %
Track quality 100.0 %
Test CRC C683DCC9
Copy CRC C683DCC9
Copy OK

Track 20
Filename C:\The Paupers - Dig Deep (1966-1968) (1999) [FLAC] {Mercury Canada}\20 - Julliana.wav

Peak level 100.0 %
Track quality 100.0 %
Test CRC 08D53CCB
Copy CRC 08D53CCB
Copy OK

No errors occured


End of status report


The Paupers - Dig Deep (1966-1968) (1999) {Mercury Canada}


Thank you to the original uploader.