Subcategories

The Residents - Meet The Residents (1974) {1988 ESD} **[RE-UP]**

Posted By: TestTickles
The Residents - Meet The Residents (1974) {1988 ESD} **[RE-UP]**

The Residents - Meet The Residents (1974) {1988 ESD}
EAC Rip | FLAC with CUE and log | scans | 257 mb
MP3 CBR 320kbps | RAR | 124 mb
Genre: avant-garde pop, experimental pop

Meet The Residents is the 1974 debut album by San Francisco group The Residents. Originally from Louisiana, they traveled and found themselves lost in Northern California, which they called home. This edition was released by East Side Digital in 1988 and also features one of their first releases, the 4-song holiday double 7" record Santa Dog, where each song is performed by a different band even though they are all one and the same.

The Residents - Meet The Residents (1974) {1988 ESD} **[RE-UP]**

1. Boots (1:39)
2. Numb Erone (1:06)
3. Guylum Bardot (1:20)
4. Breath and Length (1:45)
5. Consuelo's Departure (1:45)
6. Smelly Tongues (1:47)
7. Rest Aria (5:07)
8. Skratz (1:44)
9. Spotted Pinto Bean (6:36)
10. Infant Tango (5:58)
11. Seasoned Greetings (5:07)
12. N-er-gee (Crisis Blues) (9:42)

Santa Dog (1972) (bonus tracks)
13. Ivory & The Brain Eaters - Fire (1:45)
14. Delta Nudes - Lightning (2:19)
15. The College Walkers - Explosion (3:20)
16. Arf & Omega featuring The Singing Lawn Chairs - Aircraft Damage (3:54)

The Residents - Meet The Residents (1974) {1988 ESD} **[RE-UP]**


Exact Audio Copy V1.1 from 23. June 2015

EAC extraction logfile from 20. November 2016, 12:49

The Residents / Meet The Residents

Used drive : TEAC DVD-ROM DV-28SW Adapter: 1 ID: 0

Read mode : Secure
Utilize accurate stream : Yes
Defeat audio cache : Yes
Make use of C2 pointers : No

Read offset correction : 6
Overread into Lead-In and Lead-Out : No
Fill up missing offset samples with silence : Yes
Delete leading and trailing silent blocks : No
Null samples used in CRC calculations : Yes
Used interface : Native Win32 interface for Win NT & 2000
Gap handling : Appended to previous track

Used output format : Internal WAV Routines
Sample format : 44.100 Hz; 16 Bit; Stereo


TOC of the extracted CD

Track | Start | Length | Start sector | End sector
––––––––––––––––––––––––––––-
1 | 0:00.37 | 1:38.33 | 37 | 7419
2 | 1:38.70 | 1:06.17 | 7420 | 12386
3 | 2:45.12 | 1:19.65 | 12387 | 18376
4 | 4:05.02 | 1:45.00 | 18377 | 26251
5 | 5:50.02 | 1:44.18 | 26252 | 34069
6 | 7:34.20 | 1:47.02 | 34070 | 42096
7 | 9:21.22 | 5:06.63 | 42097 | 65109
8 | 14:28.10 | 1:44.17 | 65110 | 72926
9 | 16:12.27 | 6:35.43 | 72927 | 102594
10 | 22:47.70 | 5:57.70 | 102595 | 129439
11 | 28:45.65 | 5:06.50 | 129440 | 152439
12 | 33:52.40 | 9:41.45 | 152440 | 196059
13 | 43:34.10 | 1:45.12 | 196060 | 203946
14 | 45:19.22 | 2:18.38 | 203947 | 214334
15 | 47:37.60 | 3:20.22 | 214335 | 229356
16 | 50:58.07 | 3:53.50 | 229357 | 246881


Track 1

Filename C:\My Documents\My FLAC\The Residents - Meet The Residents (1974) [FLAC] {1988 ESD}\01 - Boots.wav

Pre-gap length 0:00:02.37

Peak level 77.1 %
Extraction speed 2.2 X
Track quality 100.0 %
Test CRC AD7B11D0
Copy CRC AD7B11D0
Accurately ripped (confidence 4) [E880F3DE] (AR v2)
Copy OK

Track 2

Filename C:\My Documents\My FLAC\The Residents - Meet The Residents (1974) [FLAC] {1988 ESD}\02 - Numb Erone.wav

Peak level 76.9 %
Extraction speed 2.0 X
Track quality 100.0 %
Test CRC ADE62D96
Copy CRC ADE62D96
Accurately ripped (confidence 4) [3273810C] (AR v2)
Copy OK

Track 3

Filename C:\My Documents\My FLAC\The Residents - Meet The Residents (1974) [FLAC] {1988 ESD}\03 - Guylum Bardot.wav

Peak level 83.1 %
Extraction speed 2.0 X
Track quality 100.0 %
Test CRC 12CF94D2
Copy CRC 12CF94D2
Accurately ripped (confidence 4) [A44F3683] (AR v2)
Copy OK

Track 4

Filename C:\My Documents\My FLAC\The Residents - Meet The Residents (1974) [FLAC] {1988 ESD}\04 - Breath And Length.wav

Peak level 85.6 %
Extraction speed 2.5 X
Track quality 100.0 %
Test CRC 03544F86
Copy CRC 03544F86
Accurately ripped (confidence 4) [86B3FD11] (AR v2)
Copy OK

Track 5

Filename C:\My Documents\My FLAC\The Residents - Meet The Residents (1974) [FLAC] {1988 ESD}\05 - Consuelo's Departure.wav

Peak level 92.7 %
Extraction speed 1.4 X
Track quality 99.8 %
Test CRC 2F69EAD2
Copy CRC 2F69EAD2
Accurately ripped (confidence 4) [DBD54061] (AR v2)
Copy OK

Track 6

Filename C:\My Documents\My FLAC\The Residents - Meet The Residents (1974) [FLAC] {1988 ESD}\06 - Smelly Tongues.wav

Peak level 100.0 %
Extraction speed 2.4 X
Track quality 100.0 %
Test CRC 0E2A68CA
Copy CRC 0E2A68CA
Accurately ripped (confidence 4) [08F768DB] (AR v2)
Copy OK

Track 7

Filename C:\My Documents\My FLAC\The Residents - Meet The Residents (1974) [FLAC] {1988 ESD}\07 - Rest Aria.wav

Peak level 90.6 %
Extraction speed 3.4 X
Track quality 100.0 %
Test CRC FF27A708
Copy CRC FF27A708
Accurately ripped (confidence 4) [4BA34071] (AR v2)
Copy OK

Track 8

Filename C:\My Documents\My FLAC\The Residents - Meet The Residents (1974) [FLAC] {1988 ESD}\08 - Skratz.wav

Peak level 84.4 %
Extraction speed 2.2 X
Track quality 99.8 %
Test CRC BDE42B8B
Copy CRC BDE42B8B
Accurately ripped (confidence 4) [856A99A0] (AR v2)
Copy OK

Track 9

Filename C:\My Documents\My FLAC\The Residents - Meet The Residents (1974) [FLAC] {1988 ESD}\09 - Spotted Pinto Bean.wav

Peak level 100.0 %
Extraction speed 3.9 X
Track quality 100.0 %
Test CRC 16C35D3D
Copy CRC 16C35D3D
Accurately ripped (confidence 4) [97A30D97] (AR v2)
Copy OK

Track 10

Filename C:\My Documents\My FLAC\The Residents - Meet The Residents (1974) [FLAC] {1988 ESD}\10 - Infant Tango.wav

Peak level 93.3 %
Extraction speed 4.2 X
Track quality 100.0 %
Test CRC 352124D1
Copy CRC 352124D1
Accurately ripped (confidence 4) [0ED66671] (AR v2)
Copy OK

Track 11

Filename C:\My Documents\My FLAC\The Residents - Meet The Residents (1974) [FLAC] {1988 ESD}\11 - Seasoned Greetings.wav

Peak level 93.3 %
Extraction speed 3.8 X
Track quality 100.0 %
Test CRC 92F27861
Copy CRC 92F27861
Accurately ripped (confidence 4) [087DD502] (AR v2)
Copy OK

Track 12

Filename C:\My Documents\My FLAC\The Residents - Meet The Residents (1974) [FLAC] {1988 ESD}\12 - N-er-gee (Crisis Blues).wav

Peak level 100.0 %
Extraction speed 4.0 X
Track quality 100.0 %
Test CRC 7714CE66
Copy CRC 7714CE66
Accurately ripped (confidence 3) [EC74708B] (AR v2)
Copy OK

Track 13

Filename C:\My Documents\My FLAC\The Residents - Meet The Residents (1974) [FLAC] {1988 ESD}\13 - Fire.wav

Peak level 85.6 %
Extraction speed 3.6 X
Track quality 100.0 %
Test CRC BAC3D918
Copy CRC BAC3D918
Accurately ripped (confidence 4) [8C4D4E39] (AR v2)
Copy OK

Track 14

Filename C:\My Documents\My FLAC\The Residents - Meet The Residents (1974) [FLAC] {1988 ESD}\14 - Lightning.wav

Peak level 81.2 %
Extraction speed 4.1 X
Track quality 100.0 %
Test CRC DB360812
Copy CRC DB360812
Accurately ripped (confidence 4) [D511DC14] (AR v2)
Copy OK

Track 15

Filename C:\My Documents\My FLAC\The Residents - Meet The Residents (1974) [FLAC] {1988 ESD}\15 - Explosion.wav

Peak level 78.4 %
Extraction speed 0.5 X
Track quality 100.0 %
Test CRC C1F78D01
Copy CRC C1F78D01
Accurately ripped (confidence 4) [05F6D3AE] (AR v2)
Copy OK

Track 16

Filename C:\My Documents\My FLAC\The Residents - Meet The Residents (1974) [FLAC] {1988 ESD}\16 - Aircraft Damage.wav

Peak level 96.4 %
Extraction speed 4.5 X
Track quality 100.0 %
Test CRC C790806C
Copy CRC C790806C
Accurately ripped (confidence 4) [C1F34EE2] (AR v2)
Copy OK


All tracks accurately ripped

No errors occurred

End of status report

–– CUETools DB Plugin V2.1.6

[CTDB TOCID: D6N.BdLe.Wktq2iOWjLLqr3JgPM-] found
Submit result: D6N.BdLe.Wktq2iOWjLLqr3JgPM- has been confirmed
Track | CTDB Status
1 | (6/6) Accurately ripped
2 | (6/6) Accurately ripped
3 | (6/6) Accurately ripped
4 | (6/6) Accurately ripped
5 | (6/6) Accurately ripped
6 | (6/6) Accurately ripped
7 | (6/6) Accurately ripped
8 | (6/6) Accurately ripped
9 | (6/6) Accurately ripped
10 | (6/6) Accurately ripped
11 | (6/6) Accurately ripped
12 | (6/6) Accurately ripped
13 | (6/6) Accurately ripped
14 | (6/6) Accurately ripped
15 | (6/6) Accurately ripped
16 | (6/6) Accurately ripped


==== Log checksum F573DDBC5C3287ABDD6F09B07E7C118F448E1A9AEF7250A11BA8F8B9F7BC2A64 ====


The Residents - Meet The Residents (1974) {1988 ESD} **[RE-UP]**