Subcategories

VA - That Thing You Do! (Soundtrack) (1996)

Posted By: TestTickles
VA - That Thing You Do! (Soundtrack) (1996)

VA - That Thing You Do! (Soundtrack) (1996)
EAC Rip | FLAC with CUE and log | scans | 342 mb
MP3 CBR 320kbps | RAR | 130 mb
Genre: soundtrack, pop rock

That Thing You Do! is a 1996 movie directed, written by and starring Tom Hanks and this is its soundtrack. The film is a mockumentary about a pop band from the early 1960's called The Wonders, who had one hit song and nothing else. The soundtrack features all of the songs by The Wonders plus songs by groups they battled for their short time for stardom. The soundtrack was released on 24 September, 1996 through Play-Tone/Epic Soundtrax.
This is the soundtrack to the Tom Hanks-written and -directed movie about a fictional rock & roll band from Erie, PA (the Wonders), who luck into their one and only hit record in 1964. As a souvenir of the movie, this soundtrack more than fills the bill. But as a collection of great songs, it more than stands on its own as well. The tunes and performances perfectly evoke that cusp of time in rock history when one era was ending and another was beginning, while the production values are retro and yet modern, clean, and sharp. If you're a fan of mid-'60s British pop, here's a new recording that adds some more great songs and performances to that genre.

VA - That Thing You Do! (Soundtrack) (1996)

01. The Norm Wooster Singers - Lovin' You Lots And Lots
02. The Wonders - That Thing You Do
03. The Wonders - Little Wild One
04. The Wonders - Dance With Me Tonight
05. The Wonders - All My Only Dreams
06. The Wonders - I Need You (That Thing You Do)
07. The Heardsmen - She Knows It
08. Freddy Fredrickson - Mr. Downtown
09. The Chantrellines - Hold My Hand, Hold My Heart
10. The Saturn - Voyage Around The Moon
11. Diane Dane - My World Is Over
12. The Vicksburgs - Drive Faster
13. Cap'n Geech & The Shrimp Shack Shooters - Shrimp Shack
14. Del Paxton - Time To Blow
15. The Wonders - That Thing You Do (Live)
–-
Produced by Tom Hanks and Gar Goetzman

EAC extraction logfile from 9. September 2006, 20:15 for CD
Various / That Thing You Do! (Soundtrack)

Used drive : LITE-ON DVDRW SOHW-1633S Adapter: 0 ID: 0
Read mode : Secure with NO C2, accurate stream, disable cache
Read offset correction : 12
Overread into Lead-In and Lead-Out : No

Used output format : Internal WAV Routines
44.100 Hz; 16 Bit; Stereo

Other options :
Fill up missing offset samples with silence : Yes
Delete leading and trailing silent blocks : No
Installed external ASPI interface


Track 1
Filename D:\FLAC\VA - That Thing You Do! (Soundtrack) (1996) [FLAC]\01 - The Norm Wooster Singers - Lovin' You Lots And Lots.wav

Pre-gap length 0:00:02.00

Peak level 99.5 %
Track quality 100.0 %
Test CRC 7251C51A
Copy CRC 7251C51A
Copy OK

Track 2
Filename D:\FLAC\VA - That Thing You Do! (Soundtrack) (1996) [FLAC]\02 - The Wonders - That Thing You Do.wav

Peak level 97.4 %
Track quality 100.0 %
Test CRC FF2CC7AC
Copy CRC FF2CC7AC
Copy OK

Track 3
Filename D:\FLAC\VA - That Thing You Do! (Soundtrack) (1996) [FLAC]\03 - The Wonders - Little Wild One.wav

Peak level 100.0 %
Track quality 100.0 %
Test CRC 00CC91B6
Copy CRC 00CC91B6
Copy OK

Track 4
Filename D:\FLAC\VA - That Thing You Do! (Soundtrack) (1996) [FLAC]\04 - The Wonders - Dance With Me Tonight.wav

Peak level 97.2 %
Track quality 100.0 %
Test CRC 1CF502A5
Copy CRC 1CF502A5
Copy OK

Track 5
Filename D:\FLAC\VA - That Thing You Do! (Soundtrack) (1996) [FLAC]\05 - The Wonders - All My Only Dreams.wav

Peak level 99.7 %
Track quality 100.0 %
Test CRC 05CA4E1E
Copy CRC 05CA4E1E
Copy OK

Track 6
Filename D:\FLAC\VA - That Thing You Do! (Soundtrack) (1996) [FLAC]\06 - The Wonders - I Need You (That Thing You Do).wav

Peak level 99.9 %
Track quality 100.0 %
Test CRC 1F67A44C
Copy CRC 1F67A44C
Copy OK

Track 7
Filename D:\FLAC\VA - That Thing You Do! (Soundtrack) (1996) [FLAC]\07 - The Heardsmen - She Knows It.wav

Peak level 100.0 %
Track quality 100.0 %
Test CRC F6DC66E0
Copy CRC F6DC66E0
Copy OK

Track 8
Filename D:\FLAC\VA - That Thing You Do! (Soundtrack) (1996) [FLAC]\08 - Freddy Fredrickson - Mr. Downtown.wav

Peak level 100.0 %
Track quality 100.0 %
Test CRC F8BECF35
Copy CRC F8BECF35
Copy OK

Track 9
Filename D:\FLAC\VA - That Thing You Do! (Soundtrack) (1996) [FLAC]\09 - The Chantrellines - Hold My Hand, Hold My Heart.wav

Peak level 100.0 %
Track quality 100.0 %
Test CRC 2CFB3C48
Copy CRC 2CFB3C48
Copy OK

Track 10
Filename D:\FLAC\VA - That Thing You Do! (Soundtrack) (1996) [FLAC]\10 - The Saturn - Voyage Around The Moon.wav

Peak level 95.5 %
Track quality 99.9 %
Test CRC A7F682E8
Copy CRC A7F682E8
Copy OK

Track 11
Filename D:\FLAC\VA - That Thing You Do! (Soundtrack) (1996) [FLAC]\11 - Diane Dane - My World Is Over.wav

Peak level 94.8 %
Track quality 100.0 %
Test CRC 4C85ED38
Copy CRC 4C85ED38
Copy OK

Track 12
Filename D:\FLAC\VA - That Thing You Do! (Soundtrack) (1996) [FLAC]\12 - The Vicksburgs - Drive Faster.wav

Peak level 94.4 %
Track quality 99.9 %
Test CRC 4B9E0D2A
Copy CRC 4B9E0D2A
Copy OK

Track 13
Filename D:\FLAC\VA - That Thing You Do! (Soundtrack) (1996) [FLAC]\13 - Cap'n Geech & The Shrimp Shack Shooters - Shrimp Shack.wav

Peak level 100.0 %
Track quality 100.0 %
Test CRC 1F5350C6
Copy CRC 1F5350C6
Copy OK

Track 14
Filename D:\FLAC\VA - That Thing You Do! (Soundtrack) (1996) [FLAC]\14 - Del Paxton - Time To Blow.wav

Peak level 100.0 %
Track quality 100.0 %
Test CRC B59D9712
Copy CRC B59D9712
Copy OK

Track 15
Filename D:\FLAC\VA - That Thing You Do! (Soundtrack) (1996) [FLAC]\15 - The Wonders - That Thing You Do (Live).wav

Peak level 98.4 %
Track quality 100.0 %
Test CRC 973B7A5F
Copy CRC 973B7A5F
Copy OK

No errors occured


End of status report


VA - That Thing You Do! (Soundtrack) (1996)