Subcategories

THP Orchestra: Early Riser (1976) & Two Hot For Love (1977) [2013, Harmless, DRCCDX013]

Posted By: v3122
THP Orchestra: Early Riser (1976) & Two Hot For Love (1977) [2013, Harmless, DRCCDX013]

THP Orchestra: Early Riser (1976) & Two Hot For Love (1977)
EAC | Flac(Image) + Cue + Log & M4A(Tracks) & MP3 CBR 320Kbps
2CD | 2013 | Harmless, DRCCDX013 | ~ 829 or 847 or 317 Mb | Scans(png, 300dpi) -> 74 Mb
Disco / Funk / Soul | Remastered

2013 two CD set. The THP Orchestra was the brainchild of one of Canada's most prolific Disco songwriting/production duos, the prolific Ian Guenther and Will Morrison. Disco Recharge is happy to bring you a special edition of the their first two albums, both of which are bursting with bonus material. Neither album has been released on CD before, so this is the definitive package. Disc One features not only the complete original 1976 album Early Riser but also various edits of the main tracks as well as the very first THP release `Fightin' On The Side Of Love' (with vocals from Wayne St John). Disc Two contains the hit follow-up album. `Two Hot For Love' is a genuine North American Disco classic - a 16 minute marathon epic that was a huge club hit around the world. As often happened the single became so big the record company demanded an album. With no back up tracks ready they decided to re-use some of the cuts from the `Early Riser' album (albeit different versions) which had only been released in Canada.

~ cduniverse
THP Orchestra: Early Riser (1976) & Two Hot For Love (1977) :

THP Orchestra: Early Riser (1976) & Two Hot For Love (1977) [2013, Harmless, DRCCDX013]

Tracklist CD1 - Early Riser (1976):

01. Theme From S.W.A.T. 03:51
02. More 04:25
03. Sugar, Sugar 04:23
04. Dawn Patrol 04:21
05. Early Riser 04:53
06. Crazy, Crazy 03:09
07. Manha De Carnival 04:49
08. Shadow Of Your Smile 04:57
09. Sleepwalk 03:27

Bonus Tracks:

10. Theme From S.W.A.T. (Original 7' Mix) 02:46
11. Early Riser (Original 12' Mix) 05:51
12. Early Riser (Original 7' Mix) 03:11
13. Manha De Carnival (7' Edit) 03:15
14. Fightin' On The Side Of Love (Original 12' Mix) Featuring Wayne St. John 06:32
15. Fightin' On The Side Of Love (Instrumental 12' Mix) 06:34
16. Fightin' On The Side Of Love (Original 7' Mix) Featuring Wayne St. John 03:17
17. Fightin' On The Side Of Love (Instrumental 7' Mix) 03:21

Exact Audio Copy V1.0 beta 3 from 29. August 2011

EAC extraction logfile from 19. April 2013, 21:09

THP Orchestra / Disco Recharge: Early Riser/Two Hot For Love Special Edition CD 1

Used drive : _NEC DVD_RW ND-3520AW Adapter: 0 ID: 0

Read mode : Secure
Utilize accurate stream : Yes
Defeat audio cache : Yes
Make use of C2 pointers : No

Read offset correction : 48
Overread into Lead-In and Lead-Out : No
Fill up missing offset samples with silence : Yes
Delete leading and trailing silent blocks : No
Null samples used in CRC calculations : Yes
Used interface : Native Win32 interface for Win NT & 2000
Gap handling : Appended to previous track

Used output format : User Defined Encoder
Selected bitrate : 1024 kBit/s
Quality : High
Add ID3 tag : No
Command line compressor : C:\Program Files (x86)\FLAC\flac.exe
Additional command line options : -8 -V -T "ARTIST=%artist%" -T "TITLE=%title%" -T "ALBUM=%albumtitle%" -T "DATE=%year%" -T "TRACKNUMBER=%tracknr%" -T "GENRE=%genre%" -T "PERFORMER=%albuminterpret%" -T "COMPOSER=%composer%" %haslyrics%–tag-from-file=LYRICS="%lyricsfile%"%haslyrics% -T "ALBUMARTIST=%albumartist%" -T "ALBUM ARTIST=%albumartist%" -T "DISCNUMBER=%cdnumber%" -T "TOTALDISCS=%totalcds%" -T "TOTALTRACKS=%numtracks%" -T "COMMENT=%comment%" %source% -o %dest%


TOC of the extracted CD

Track | Start | Length | Start sector | End sector
––––––––––––––––––––––––––––-
1 | 0:00.00 | 3:51.53 | 0 | 17377
2 | 3:51.53 | 4:25.42 | 17378 | 37294
3 | 8:17.20 | 4:23.59 | 37295 | 57078
4 | 12:41.04 | 4:21.39 | 57079 | 76692
5 | 17:02.43 | 4:53.02 | 76693 | 98669
6 | 21:55.45 | 3:09.54 | 98670 | 112898
7 | 25:05.24 | 4:49.44 | 112899 | 134617
8 | 29:54.68 | 4:57.69 | 134618 | 156961
9 | 34:52.62 | 3:27.29 | 156962 | 172515
10 | 38:20.16 | 2:46.69 | 172516 | 185034
11 | 41:07.10 | 5:51.15 | 185035 | 211374
12 | 46:58.25 | 3:11.36 | 211375 | 225735
13 | 50:09.61 | 3:15.19 | 225736 | 240379
14 | 53:25.05 | 6:32.57 | 240380 | 269836
15 | 59:57.62 | 6:34.19 | 269837 | 299405
16 | 66:32.06 | 3:17.63 | 299406 | 314243
17 | 69:49.69 | 3:21.11 | 314244 | 329329


Track 1

Filename C:\THP Orchestra\Disco Recharge - Early Riser, Two Hot For Love Special Edition\CD 1\01. THP Orchestra - Theme From S.W.A.T..wav

Pre-gap length 0:00:02.00

Peak level 99.4 %
Extraction speed 3.2 X
Track quality 99.9 %
Test CRC 5A44625F
Copy CRC 5A44625F
Track not present in AccurateRip database
Copy OK

Track 2

Filename C:\THP Orchestra\Disco Recharge - Early Riser, Two Hot For Love Special Edition\CD 1\02. THP Orchestra - More.wav

Pre-gap length 0:00:00.62

Peak level 99.4 %
Extraction speed 3.0 X
Track quality 99.9 %
Test CRC B9A7BA41
Copy CRC B9A7BA41
Track not present in AccurateRip database
Copy OK

Track 3

Filename C:\THP Orchestra\Disco Recharge - Early Riser, Two Hot For Love Special Edition\CD 1\03. THP Orchestra - Sugar, Sugar.wav

Pre-gap length 0:00:00.50

Peak level 99.4 %
Extraction speed 4.6 X
Track quality 100.0 %
Test CRC E03F4985
Copy CRC E03F4985
Track not present in AccurateRip database
Copy OK

Track 4

Filename C:\THP Orchestra\Disco Recharge - Early Riser, Two Hot For Love Special Edition\CD 1\04. THP Orchestra - Dawn Patrol.wav

Pre-gap length 0:00:01.04

Peak level 99.4 %
Extraction speed 4.9 X
Track quality 100.0 %
Test CRC 690722B6
Copy CRC 690722B6
Track not present in AccurateRip database
Copy OK

Track 5

Filename C:\THP Orchestra\Disco Recharge - Early Riser, Two Hot For Love Special Edition\CD 1\05. THP Orchestra - Early Riser.wav

Pre-gap length 0:00:01.44

Peak level 99.4 %
Extraction speed 5.3 X
Track quality 100.0 %
Test CRC 042FAC9D
Copy CRC 042FAC9D
Track not present in AccurateRip database
Copy OK

Track 6

Filename C:\THP Orchestra\Disco Recharge - Early Riser, Two Hot For Love Special Edition\CD 1\06. THP Orchestra - Crazy, Crazy.wav

Pre-gap length 0:00:00.48

Peak level 99.4 %
Extraction speed 5.2 X
Track quality 100.0 %
Test CRC 3758F6F1
Copy CRC 3758F6F1
Track not present in AccurateRip database
Copy OK

Track 7

Filename C:\THP Orchestra\Disco Recharge - Early Riser, Two Hot For Love Special Edition\CD 1\07. THP Orchestra - Manha De Carnival.wav

Pre-gap length 0:00:00.45

Peak level 99.4 %
Extraction speed 5.8 X
Track quality 100.0 %
Test CRC 31444F38
Copy CRC 31444F38
Track not present in AccurateRip database
Copy OK

Track 8

Filename C:\THP Orchestra\Disco Recharge - Early Riser, Two Hot For Love Special Edition\CD 1\08. THP Orchestra - Shadow Of Your Smile.wav

Pre-gap length 0:00:01.00

Peak level 99.4 %
Extraction speed 6.1 X
Track quality 100.0 %
Test CRC 2929A16D
Copy CRC 2929A16D
Track not present in AccurateRip database
Copy OK

Track 9

Filename C:\THP Orchestra\Disco Recharge - Early Riser, Two Hot For Love Special Edition\CD 1\09. THP Orchestra - Sleepwalk.wav

Pre-gap length 0:00:01.13

Peak level 99.4 %
Extraction speed 6.0 X
Track quality 100.0 %
Test CRC 2BB28265
Copy CRC 2BB28265
Track not present in AccurateRip database
Copy OK

Track 10

Filename C:\THP Orchestra\Disco Recharge - Early Riser, Two Hot For Love Special Edition\CD 1\10. THP Orchestra - Theme From S.W.A.T. (Original 7'' Mix).wav

Pre-gap length 0:00:01.26

Peak level 99.4 %
Extraction speed 5.9 X
Track quality 100.0 %
Test CRC FB81EE87
Copy CRC FB81EE87
Track not present in AccurateRip database
Copy OK

Track 11

Filename C:\THP Orchestra\Disco Recharge - Early Riser, Two Hot For Love Special Edition\CD 1\11. THP Orchestra - Early Riser (Original 12'' Mix).wav

Pre-gap length 0:00:00.72

Peak level 94.8 %
Extraction speed 6.7 X
Track quality 100.0 %
Test CRC 9DD39CE2
Copy CRC 9DD39CE2
Track not present in AccurateRip database
Copy OK

Track 12

Filename C:\THP Orchestra\Disco Recharge - Early Riser, Two Hot For Love Special Edition\CD 1\12. THP Orchestra - Early Riser (Original 7'' Mix).wav

Pre-gap length 0:00:01.06

Peak level 99.4 %
Extraction speed 6.4 X
Track quality 100.0 %
Test CRC 98BEB5B8
Copy CRC 98BEB5B8
Track not present in AccurateRip database
Copy OK

Track 13

Filename C:\THP Orchestra\Disco Recharge - Early Riser, Two Hot For Love Special Edition\CD 1\13. THP Orchestra - Manha De Carnival (7'' Edit).wav

Pre-gap length 0:00:00.28

Peak level 99.4 %
Extraction speed 6.6 X
Track quality 100.0 %
Test CRC DC52C802
Copy CRC DC52C802
Track not present in AccurateRip database
Copy OK

Track 14

Filename C:\THP Orchestra\Disco Recharge - Early Riser, Two Hot For Love Special Edition\CD 1\14. THP Orchestra - Fightin' On The Side Of Love (Original 12'' Mix) Featuring Wayne St. John.wav

Pre-gap length 0:00:01.37

Peak level 99.4 %
Extraction speed 6.5 X
Track quality 99.9 %
Test CRC 49B8F857
Copy CRC 49B8F857
Track not present in AccurateRip database
Copy OK

Track 15

Filename C:\THP Orchestra\Disco Recharge - Early Riser, Two Hot For Love Special Edition\CD 1\15. THP Orchestra - Fightin' On The Side Of Love (Instrumental 12'' Mix).wav

Pre-gap length 0:00:01.25

Peak level 99.4 %
Extraction speed 7.7 X
Track quality 100.0 %
Test CRC 48DE1161
Copy CRC 48DE1161
Track not present in AccurateRip database
Copy OK

Track 16

Filename C:\THP Orchestra\Disco Recharge - Early Riser, Two Hot For Love Special Edition\CD 1\16. THP Orchestra - Fightin' On The Side Of Love (Original 7'' Mix) Featuring Wayne St. John.wav

Pre-gap length 0:00:00.49

Peak level 99.4 %
Extraction speed 5.8 X
Track quality 99.9 %
Test CRC DBB73FC8
Copy CRC DBB73FC8
Track not present in AccurateRip database
Copy OK

Track 17

Filename C:\THP Orchestra\Disco Recharge - Early Riser, Two Hot For Love Special Edition\CD 1\17. THP Orchestra - Fightin' On The Side Of Love (Instrumental 7'' Mix).wav

Pre-gap length 0:00:00.96

Peak level 99.4 %
Extraction speed 5.0 X
Track quality 99.8 %
Test CRC B39F928E
Copy CRC B39F928E
Track not present in AccurateRip database
Copy OK


None of the tracks are present in the AccurateRip database

No errors occurred

End of status report

foobar2000 1.2.9 / Dynamic Range Meter 1.1.1
log date: 2014-02-19 14:20:33

––––––––––––––––––––––––––––––––––––––––
Analyzed: THP Orchestra / Disco Recharge: Early Riser
––––––––––––––––––––––––––––––––––––––––

DR Peak RMS Duration Track
––––––––––––––––––––––––––––––––––––––––
DR12 -0.05 dB -13.60 dB 3:52 01-Theme From S.W.A.T.
DR12 -0.05 dB -13.81 dB 4:26 02-More
DR13 -0.05 dB -14.51 dB 4:24 03-Sugar, Sugar
DR13 -0.05 dB -14.67 dB 4:22 04-Dawn Patrol
DR13 -0.05 dB -14.03 dB 4:53 05-Early Riser
DR13 -0.05 dB -15.09 dB 3:10 06-Crazy, Crazy
DR14 -0.05 dB -15.50 dB 4:50 07-Manha De Carnival
DR13 -0.05 dB -14.90 dB 4:58 08-Shadow Of Your Smile
DR12 -0.05 dB -14.73 dB 3:27 09-Sleepwalk
DR12 -0.05 dB -12.66 dB 2:47 10-Theme From S.W.A.T. (Original 7' Mix)
DR13 -0.46 dB -15.28 dB 5:51 11-Early Riser (Original 12' Mix)
DR13 -0.05 dB -14.50 dB 3:11 12-Early Riser (Original 7' Mix)
DR13 -0.05 dB -14.84 dB 3:15 13-Manha De Carnival (7' Edit)
DR12 -0.05 dB -13.56 dB 6:33 14-Fightin' On The Side Of Love (Original 12' Mix) Featuring Wayne St. John
DR12 -0.05 dB -13.90 dB 6:34 15-Fightin' On The Side Of Love (Instrumental 12' Mix)
DR11 -0.05 dB -12.97 dB 3:18 16-Fightin' On The Side Of Love (Original 7' Mix) Featuring Wayne St. John
DR12 -0.05 dB -13.76 dB 3:21 17-Fightin' On The Side Of Love (Instrumental 7' Mix)
––––––––––––––––––––––––––––––––––––––––

Number of tracks: 17
Official DR value: DR13

Samplerate: 44100 Hz
Channels: 2
Bits per sample: 16
Bitrate: 864 kbps
Codec: FLAC

THP Orchestra: Early Riser (1976) & Two Hot For Love (1977) [2013, Harmless, DRCCDX013]

Tracklist CD2 - Two Hot For Love (1977):

01. Two Hot For Love 15:56
I. Four Play
II. Excitement pt.1
III. Excitement pt.2
IV. Climax
V. Resolution
02. Early Riser 04:54
03. Manha De Carnival (Theme From Black Orpheus) 05:02
04. Dawn Patrol 04:29
05. Crazy, Crazy 03:19

Bonus Tracks:

06. Two Hot For Love (RCA 12' Mix) 06:52
07. Two Hot For Love (7' Mix) 02:49
08. Two Hot For Love (7' B Side) 05:01
09. Two Hot For Love (Pete Waterman 12' Edit) 09:16
10. Two Hot For Love (US 7' Mix) 03:16

Exact Audio Copy V1.0 beta 3 from 29. August 2011

EAC extraction logfile from 1. May 2013, 13:07

THP Orchestra / Disco Recharge: Early Riser/Two Hot For Love Special Edition CD 2

Used drive : _NEC DVD_RW ND-3520AW Adapter: 0 ID: 0

Read mode : Secure
Utilize accurate stream : Yes
Defeat audio cache : Yes
Make use of C2 pointers : No

Read offset correction : 48
Overread into Lead-In and Lead-Out : No
Fill up missing offset samples with silence : Yes
Delete leading and trailing silent blocks : No
Null samples used in CRC calculations : Yes
Used interface : Native Win32 interface for Win NT & 2000
Gap handling : Appended to previous track

Used output format : User Defined Encoder
Selected bitrate : 1024 kBit/s
Quality : High
Add ID3 tag : No
Command line compressor : C:\Program Files (x86)\FLAC\flac.exe
Additional command line options : -8 -V -T "ARTIST=%artist%" -T "TITLE=%title%" -T "ALBUM=%albumtitle%" -T "DATE=%year%" -T "TRACKNUMBER=%tracknr%" -T "GENRE=%genre%" -T "PERFORMER=%albuminterpret%" -T "COMPOSER=%composer%" %haslyrics%–tag-from-file=LYRICS="%lyricsfile%"%haslyrics% -T "ALBUMARTIST=%albumartist%" -T "ALBUM ARTIST=%albumartist%" -T "DISCNUMBER=%cdnumber%" -T "TOTALDISCS=%totalcds%" -T "TOTALTRACKS=%numtracks%" -T "COMMENT=%comment%" %source% -o %dest%


TOC of the extracted CD

Track | Start | Length | Start sector | End sector
––––––––––––––––––––––––––––-
1 | 0:00.00 | 15:56.71 | 0 | 71770
2 | 15:56.71 | 4:54.73 | 71771 | 93893
3 | 20:51.69 | 5:02.18 | 93894 | 116561
4 | 25:54.12 | 4:29.54 | 116562 | 136790
5 | 30:23.66 | 3:19.70 | 136791 | 151785
6 | 33:43.61 | 6:52.36 | 151786 | 182721
7 | 40:36.22 | 2:49.21 | 182722 | 195417
8 | 43:25.43 | 5:01.55 | 195418 | 218047
9 | 48:27.23 | 9:16.06 | 218048 | 259753
10 | 57:43.29 | 3:16.18 | 259754 | 274471


Track 1

Filename C:\THP Orchestra\Disco Recharge - Early Riser, Two Hot For Love Special Edition\CD 2\01. THP Orchestra - Two Hot For Love.wav

Pre-gap length 0:00:02.00

Peak level 99.4 %
Extraction speed 4.8 X
Track quality 100.0 %
Test CRC E654CB05
Copy CRC E654CB05
Track not present in AccurateRip database
Copy OK

Track 2

Filename C:\THP Orchestra\Disco Recharge - Early Riser, Two Hot For Love Special Edition\CD 2\02. THP Orchestra - Early Riser.wav

Pre-gap length 0:00:01.40

Peak level 99.4 %
Extraction speed 5.3 X
Track quality 100.0 %
Test CRC 36B8F8F3
Copy CRC 36B8F8F3
Track not present in AccurateRip database
Copy OK

Track 3

Filename C:\THP Orchestra\Disco Recharge - Early Riser, Two Hot For Love Special Edition\CD 2\03. THP Orchestra - Manha De Carnival (Theme From Black Orpheus).wav

Pre-gap length 0:00:01.12

Peak level 99.4 %
Extraction speed 5.7 X
Track quality 100.0 %
Test CRC 25092177
Copy CRC 25092177
Track not present in AccurateRip database
Copy OK

Track 4

Filename C:\THP Orchestra\Disco Recharge - Early Riser, Two Hot For Love Special Edition\CD 2\04. THP Orchestra - Dawn Patrol.wav

Pre-gap length 0:00:01.32

Peak level 99.4 %
Extraction speed 5.9 X
Track quality 100.0 %
Test CRC FA944869
Copy CRC FA944869
Track not present in AccurateRip database
Copy OK

Track 5

Filename C:\THP Orchestra\Disco Recharge - Early Riser, Two Hot For Love Special Edition\CD 2\05. THP Orchestra - Crazy, Crazy.wav

Pre-gap length 0:00:00.81

Peak level 99.4 %
Extraction speed 5.8 X
Track quality 100.0 %
Test CRC C85D1170
Copy CRC C85D1170
Track not present in AccurateRip database
Copy OK

Track 6

Filename C:\THP Orchestra\Disco Recharge - Early Riser, Two Hot For Love Special Edition\CD 2\06. THP Orchestra - Two Hot For Love (RCA 12'' Mix).wav

Pre-gap length 0:00:00.86

Peak level 99.4 %
Extraction speed 6.8 X
Track quality 100.0 %
Test CRC ABCA11E9
Copy CRC ABCA11E9
Track not present in AccurateRip database
Copy OK

Track 7

Filename C:\THP Orchestra\Disco Recharge - Early Riser, Two Hot For Love Special Edition\CD 2\07. THP Orchestra - Two Hot For Love (7'' Mix).wav

Pre-gap length 0:00:01.09

Peak level 93.3 %
Extraction speed 4.7 X
Track quality 99.9 %
Test CRC 6EABD8DC
Copy CRC 6EABD8DC
Track not present in AccurateRip database
Copy OK

Track 8

Filename C:\THP Orchestra\Disco Recharge - Early Riser, Two Hot For Love Special Edition\CD 2\08. THP Orchestra - Two Hot For Love (7'' B Side).wav

Pre-gap length 0:00:01.08

Peak level 99.4 %
Extraction speed 5.0 X
Track quality 99.9 %
Test CRC D286D7E3
Copy CRC D286D7E3
Track not present in AccurateRip database
Copy OK

Track 9

Filename C:\THP Orchestra\Disco Recharge - Early Riser, Two Hot For Love Special Edition\CD 2\09. THP Orchestra - Two Hot For Love (Pete Waterman 12'' Edit).wav

Pre-gap length 0:00:00.64

Peak level 93.3 %
Extraction speed 7.1 X
Track quality 99.9 %
Test CRC 9B6A3BD5
Copy CRC 9B6A3BD5
Track not present in AccurateRip database
Copy OK

Track 10

Filename C:\THP Orchestra\Disco Recharge - Early Riser, Two Hot For Love Special Edition\CD 2\10. THP Orchestra - Two Hot For Love (US 7'' Mix).wav

Pre-gap length 0:00:00.88

Peak level 99.4 %
Extraction speed 5.6 X
Track quality 99.9 %
Test CRC 96173805
Copy CRC 96173805
Track not present in AccurateRip database
Copy OK


None of the tracks are present in the AccurateRip database

No errors occurred

End of status report

foobar2000 1.2.9 / Dynamic Range Meter 1.1.1
log date: 2014-02-19 14:20:55

––––––––––––––––––––––––––––––––––––––––
Analyzed: THP Orchestra / Disco Recharge: Two Hot For Love
––––––––––––––––––––––––––––––––––––––––

DR Peak RMS Duration Track
––––––––––––––––––––––––––––––––––––––––
DR13 -0.05 dB -15.23 dB 15:57 01-Two Hot For Love
DR14 -0.05 dB -15.12 dB 4:55 02-Early Riser
DR14 -0.05 dB -16.46 dB 5:02 03-Manha De Carnival (Theme From Black Orpheus)
DR13 -0.05 dB -15.17 dB 4:30 04-Dawn Patrol
DR15 -0.05 dB -16.69 dB 3:20 05-Crazy, Crazy
DR12 -0.05 dB -14.30 dB 6:52 06-Two Hot For Love (RCA 12' Mix)
DR11 -0.60 dB -13.73 dB 2:49 07-Two Hot For Love (7' Mix)
DR11 -0.05 dB -13.60 dB 5:02 08-Two Hot For Love (7' B Side)
DR13 -0.60 dB -15.33 dB 9:16 09-Two Hot For Love (Pete Waterman 12' Edit)
DR11 -0.05 dB -13.48 dB 3:16 10-Two Hot For Love (US 7' Mix)
––––––––––––––––––––––––––––––––––––––––

Number of tracks: 10
Official DR value: DR13

Samplerate: 44100 Hz
Channels: 2
Bits per sample: 16
Bitrate: 831 kbps
Codec: FLAC

THP Orchestra: Early Riser (1976) & Two Hot For Love (1977) [2013, Harmless, DRCCDX013]

All thanks go to the original releaser