VA - Trademark Of Quality (1992) {US Warner Bros./Reprise sampler}

Posted By: TestTickles
VA - Trademark Of Quality (1992) {US Warner Bros./Reprise sampler}

VA - Trademark Of Quality (1992) {US Warner Bros./Reprise sampler}
EAC Rip | FLAC with CUE and log | scans | 466 mb
MP3 CBR 320kbps | RAR | 172 mb
Genre: grunge, alternative, folk pop

Trademark Of Quality is a 1992 promotional sampler disc put together by Warner Bros/Reprise. The title and cover art is in honor of the bootleg record label Trademark Of Quality (TMOQ) and it features songs from their "alternative" department, including a few things that hadn't been publicly released or was in limited edition. Warner Bros./Reprise released a new Trademark Of Quality disc once a year for a few years, this one is the first.

VA - Trademark Of Quality (1992) {US Warner Bros./Reprise sampler}

1. The Carl Stalling Project - The Carl Stalling Project Intro (0:18)
2. Mudhoney - Dialogue (Matt Lukin)/Fix Me/Dialogue (Steve Turner) (1:00)
3. Babes In Toyland - Bruise Violet (Alternate Version) (3:05)
4. Poster Children - Iris (4:00)
5. Ronnie Barnett/The Muffs - Dialogue/Lucky Guy (3:08)
6. Jane's Addiction/Body Count - Don't Call Me Nigger, Whitey (4:36)
7. The Flaming Lips - My Two Days Driving An Ambulance (Jets Part 2)/Dialogue (4:05)
8. Gallon Drunk - Ruby (4:11)
9. American Music Club - Love Connection N.Y.C. (4:04)
10. Daniel Lanois - Collection Of Marie Claire (6:23)
11. Bomb - Nineteen (3:20)
12. David Lynch - The Pink Room (6:42)
13. R.E.M. - Half A World Away (Live On Rockline) (3:25)
14. John Wesley Harding - Your New Clothes (4:30)
15. Brian Eno - Tutti Forgetti (5:23)
16. Scorpio Rising - The Strangest Things Turn You On/Dialogue (6:24)
17. Sister Double Happiness - Tough (2:48)
18. Medicine - The Power (3:41)
19. The Wolfgang Press - Birmingham (Howard Gray Remix) (5:04)
20. The Carl Stalling Project - The Carl Stalling Project Outro (0:19)

Exact Audio Copy V1.1 from 23. June 2015

EAC extraction logfile from 15. April 2017, 10:42

Various Artists / Trademark Of Quality

Used drive : TEAC DVD-ROM DV-28SW Adapter: 1 ID: 0

Read mode : Secure
Utilize accurate stream : Yes
Defeat audio cache : Yes
Make use of C2 pointers : No

Read offset correction : 6
Overread into Lead-In and Lead-Out : No
Fill up missing offset samples with silence : Yes
Delete leading and trailing silent blocks : No
Null samples used in CRC calculations : Yes
Used interface : Native Win32 interface for Win NT & 2000
Gap handling : Appended to previous track

Used output format : Internal WAV Routines
Sample format : 44.100 Hz; 16 Bit; Stereo


TOC of the extracted CD

Track | Start | Length | Start sector | End sector
––––––––––––––––––––––––––––-
1 | 0:00.33 | 0:19.20 | 33 | 1477
2 | 0:19.53 | 1:00.20 | 1478 | 5997
3 | 1:19.73 | 3:05.02 | 5998 | 19874
4 | 4:25.00 | 4:01.08 | 19875 | 37957
5 | 8:26.08 | 3:08.00 | 37958 | 52057
6 | 11:34.08 | 4:19.15 | 52058 | 71497
7 | 15:53.23 | 4:05.32 | 71498 | 89904
8 | 19:58.55 | 4:11.05 | 89905 | 108734
9 | 24:09.60 | 4:04.28 | 108735 | 127062
10 | 28:14.13 | 6:27.32 | 127063 | 156119
11 | 34:41.45 | 3:21.45 | 156120 | 171239
12 | 38:03.15 | 6:43.73 | 171240 | 201537
13 | 44:47.13 | 3:26.50 | 201538 | 217037
14 | 48:13.63 | 4:30.52 | 217038 | 237339
15 | 52:44.40 | 5:24.65 | 237340 | 261704
16 | 58:09.30 | 6:24.23 | 261705 | 290527
17 | 64:33.53 | 2:48.52 | 290528 | 303179
18 | 67:22.30 | 3:41.25 | 303180 | 319779
19 | 71:03.55 | 5:04.43 | 319780 | 342622
20 | 76:08.23 | 0:19.05 | 342623 | 344052


Track 1

Filename C:\My Documents\My FLAC\VA - Trademark Of Quality (1992) [FLAC] {US Warner Bros., Reprise sampler}\01 - The Carl Stalling Project - The Carl Stalling Project Intro.wav

Pre-gap length 0:00:02.33

Peak level 60.2 %
Extraction speed 0.2 X
Track quality 99.4 %
Test CRC F769B02B
Copy CRC F769B02B
Accurately ripped (confidence 6) [865879A8] (AR v2)
Copy OK

Track 2

Filename C:\My Documents\My FLAC\VA - Trademark Of Quality (1992) [FLAC] {US Warner Bros., Reprise sampler}\02 - Mudhoney - Dialogue,Fix Me,Dialogue.wav

Pre-gap length 0:00:00.05

Peak level 88.9 %
Extraction speed 0.8 X
Track quality 100.0 %
Test CRC 95768128
Copy CRC 95768128
Accurately ripped (confidence 4) [B2EBF45C] (AR v2)
Copy OK

Track 3

Filename C:\My Documents\My FLAC\VA - Trademark Of Quality (1992) [FLAC] {US Warner Bros., Reprise sampler}\03 - Babes In Toyland - Bruise Violet (Alternate Version).wav

Peak level 66.9 %
Extraction speed 1.1 X
Track quality 100.0 %
Test CRC BB1A403B
Copy CRC BB1A403B
Accurately ripped (confidence 4) [33C112DE] (AR v2)
Copy OK

Track 4

Filename C:\My Documents\My FLAC\VA - Trademark Of Quality (1992) [FLAC] {US Warner Bros., Reprise sampler}\04 - Poster Children - Isis.wav

Peak level 67.1 %
Extraction speed 1.3 X
Track quality 100.0 %
Test CRC 3ACEF163
Copy CRC 3ACEF163
Accurately ripped (confidence 4) [AB9A7F25] (AR v2)
Copy OK

Track 5

Filename C:\My Documents\My FLAC\VA - Trademark Of Quality (1992) [FLAC] {US Warner Bros., Reprise sampler}\05 - The Muffs - Dialogue,Lucky Guy.wav

Peak level 73.8 %
Extraction speed 1.3 X
Track quality 100.0 %
Test CRC 8D401539
Copy CRC 8D401539
Accurately ripped (confidence 4) [4B1947C6] (AR v2)
Copy OK

Track 6

Filename C:\My Documents\My FLAC\VA - Trademark Of Quality (1992) [FLAC] {US Warner Bros., Reprise sampler}\06 - Jane's Addiction,Body Count - Don't Call Me Nigger, Whitey.wav

Peak level 88.6 %
Extraction speed 1.4 X
Track quality 100.0 %
Test CRC 022B5D6F
Copy CRC 022B5D6F
Accurately ripped (confidence 4) [C06871E3] (AR v2)
Copy OK

Track 7

Filename C:\My Documents\My FLAC\VA - Trademark Of Quality (1992) [FLAC] {US Warner Bros., Reprise sampler}\07 - The Flaming Lips - My Two Days As An Ambulance Driver (Jets Part 2),Dialogue.wav

Pre-gap length 0:00:01.38

Peak level 70.7 %
Extraction speed 0.5 X
Track quality 100.0 %
Test CRC D65EF477
Copy CRC D65EF477
Accurately ripped (confidence 5) [EAC0C97F] (AR v2)
Copy OK

Track 8

Filename C:\My Documents\My FLAC\VA - Trademark Of Quality (1992) [FLAC] {US Warner Bros., Reprise sampler}\08 - Gallon Drunk - Ruby.wav

Pre-gap length 0:00:00.27

Peak level 90.2 %
Extraction speed 1.6 X
Track quality 100.0 %
Test CRC 9CF39245
Copy CRC 9CF39245
Accurately ripped (confidence 4) [4EBE9385] (AR v2)
Copy OK

Track 9

Filename C:\My Documents\My FLAC\VA - Trademark Of Quality (1992) [FLAC] {US Warner Bros., Reprise sampler}\09 - American Music Club - Love Connection N.Y.C..wav

Pre-gap length 0:00:00.10

Peak level 98.8 %
Extraction speed 1.5 X
Track quality 99.9 %
Test CRC 0D83CB25
Copy CRC 0D83CB25
Accurately ripped (confidence 4) [D32482CA] (AR v2)
Copy OK

Track 10

Filename C:\My Documents\My FLAC\VA - Trademark Of Quality (1992) [FLAC] {US Warner Bros., Reprise sampler}\10 - Daniel Lanois - Collection Of Marie Claire.wav

Peak level 98.8 %
Extraction speed 1.8 X
Track quality 99.9 %
Test CRC 3023A034
Copy CRC 3023A034
Accurately ripped (confidence 5) [D21029D3] (AR v2)
Copy OK

Track 11

Filename C:\My Documents\My FLAC\VA - Trademark Of Quality (1992) [FLAC] {US Warner Bros., Reprise sampler}\11 - Bomb - Nineteen.wav

Pre-gap length 0:00:00.07

Peak level 69.3 %
Extraction speed 1.8 X
Track quality 100.0 %
Test CRC 3BDDC18A
Copy CRC 3BDDC18A
Accurately ripped (confidence 4) [450AE763] (AR v2)
Copy OK

Track 12

Filename C:\My Documents\My FLAC\VA - Trademark Of Quality (1992) [FLAC] {US Warner Bros., Reprise sampler}\12 - David Lynch - The Pink Room.wav

Pre-gap length 0:00:00.60

Peak level 98.8 %
Extraction speed 2.1 X
Track quality 100.0 %
Test CRC 20357E4A
Copy CRC 20357E4A
Accurately ripped (confidence 5) [4A021E56] (AR v2)
Copy OK

Track 13

Filename C:\My Documents\My FLAC\VA - Trademark Of Quality (1992) [FLAC] {US Warner Bros., Reprise sampler}\13 - R.E.M. - Half A World Away (Live On Rockline).wav

Pre-gap length 0:00:01.43

Peak level 69.4 %
Extraction speed 2.0 X
Track quality 100.0 %
Test CRC 4AF1859F
Copy CRC 4AF1859F
Accurately ripped (confidence 6) [83F12CDB] (AR v2)
Copy OK

Track 14

Filename C:\My Documents\My FLAC\VA - Trademark Of Quality (1992) [FLAC] {US Warner Bros., Reprise sampler}\14 - John Wesley Harding - Your New Clothes.wav

Pre-gap length 0:00:01.60

Peak level 94.0 %
Extraction speed 2.2 X
Track quality 100.0 %
Test CRC 57946DF6
Copy CRC 57946DF6
Accurately ripped (confidence 5) [D822D398] (AR v2)
Copy OK

Track 15

Filename C:\My Documents\My FLAC\VA - Trademark Of Quality (1992) [FLAC] {US Warner Bros., Reprise sampler}\15 - Brian Eno - Tutti Forgetti.wav

Pre-gap length 0:00:00.02

Peak level 93.7 %
Extraction speed 2.3 X
Track quality 100.0 %
Test CRC ED2907ED
Copy CRC ED2907ED
Accurately ripped (confidence 5) [2D469BF7] (AR v2)
Copy OK

Track 16

Filename C:\My Documents\My FLAC\VA - Trademark Of Quality (1992) [FLAC] {US Warner Bros., Reprise sampler}\16 - Scorpio Rising - The Strangest Things Turn You On,Dialogue.wav

Pre-gap length 0:00:01.02

Peak level 92.1 %
Extraction speed 2.4 X
Track quality 100.0 %
Test CRC B4FE7847
Copy CRC B4FE7847
Accurately ripped (confidence 4) [2B37F84A] (AR v2)
Copy OK

Track 17

Filename C:\My Documents\My FLAC\VA - Trademark Of Quality (1992) [FLAC] {US Warner Bros., Reprise sampler}\17 - Sister Double Happiness - Tough.wav

Peak level 83.7 %
Extraction speed 2.2 X
Track quality 100.0 %
Test CRC 079D5292
Copy CRC 079D5292
Accurately ripped (confidence 4) [A6F65505] (AR v2)
Copy OK

Track 18

Filename C:\My Documents\My FLAC\VA - Trademark Of Quality (1992) [FLAC] {US Warner Bros., Reprise sampler}\18 - Medicine - The Power.wav

Peak level 66.5 %
Extraction speed 2.3 X
Track quality 100.0 %
Test CRC 87B56355
Copy CRC 87B56355
Accurately ripped (confidence 4) [050AD865] (AR v2)
Copy OK

Track 19

Filename C:\My Documents\My FLAC\VA - Trademark Of Quality (1992) [FLAC] {US Warner Bros., Reprise sampler}\19 - The Wolfgang Press - Birmingham (Howard Grey Remix).wav

Pre-gap length 0:00:01.02

Peak level 84.2 %
Extraction speed 2.5 X
Track quality 100.0 %
Test CRC C8D20E8D
Copy CRC C8D20E8D
Accurately ripped (confidence 5) [D37B7867] (AR v2)
Copy OK

Track 20

Filename C:\My Documents\My FLAC\VA - Trademark Of Quality (1992) [FLAC] {US Warner Bros., Reprise sampler}\20 - The Carl Stalling Project - The Carl Stalling Project Outro.wav

Peak level 82.1 %
Extraction speed 0.9 X
Track quality 100.0 %
Test CRC FC5CC565
Copy CRC FC5CC565
Accurately ripped (confidence 5) [081DABCE] (AR v2)
Copy OK


All tracks accurately ripped

No errors occurred

End of status report

–– CUETools DB Plugin V2.1.6

[CTDB TOCID: Vn4X_fOo7wYfPRu68QKi3rMgEn0-] found
Submit result: Vn4X_fOo7wYfPRu68QKi3rMgEn0- has been confirmed
Track | CTDB Status
1 | (3/3) Accurately ripped
2 | (3/3) Accurately ripped
3 | (3/3) Accurately ripped
4 | (3/3) Accurately ripped
5 | (3/3) Accurately ripped
6 | (3/3) Accurately ripped
7 | (3/3) Accurately ripped
8 | (3/3) Accurately ripped
9 | (3/3) Accurately ripped
10 | (3/3) Accurately ripped
11 | (3/3) Accurately ripped
12 | (3/3) Accurately ripped
13 | (3/3) Accurately ripped
14 | (3/3) Accurately ripped
15 | (3/3) Accurately ripped
16 | (3/3) Accurately ripped
17 | (3/3) Accurately ripped
18 | (3/3) Accurately ripped
19 | (3/3) Accurately ripped
20 | (3/3) Accurately ripped


==== Log checksum 22A3FBD64F819D31DDCD8E8F0D98B1CB2AC04BBE77247565B17BA811AFAB79F9 ====


VA - Trademark Of Quality (1992) {US Warner Bros./Reprise sampler}