Subcategories

Trek Life & Oddisee - New Money (2009) {Mello Music Group} **[RE-UP]**

Posted By: TestTickles
Trek Life & Oddisee - New Money (2009) {Mello Music Group} **[RE-UP]**

Trek Life & Oddisee - New Money (2009) {Mello Music Group}
EAC Rip | FLAC with CUE and log | scans | 308 mb
MP3 CBR 320kbps | RAR | 127 mb
Genre: hip-hop, rap

New Money is the 2009 collaborative album by Reginald Bruner and Amir Mohamed el Khalifa, better known as rapper Trek Life and producer Oddisee. This was released by Mello Music Group.

Trek Life & Oddisee - New Money (2009) {Mello Music Group} **[RE-UP]**

1. Intro
2. Black Music (featuring J Bizness)
3. Hard Work
4. Hold Me Down (featuring Champ MC)
5. Big Picture
6. Long Time Coming
7. One Idea (featuring J Bizness)
8. I'm Gone
9. We Still Here (featuring Silo)
10. Price I've Paid
11. Last Joint
12. Enjoy Yourself
13. All Times (Bonus Track)
14. Good God (Bonus Track)
15. Some Help (Bonus Track)

Produced by Oddisee
Additional instrumentation by Ralph Real

Exact Audio Copy V1.1 from 23. June 2015

EAC extraction logfile from 11. November 2016, 19:46

Trek Life & Oddisee / New Money

Used drive : TEAC DVD-ROM DV-28SW Adapter: 1 ID: 0

Read mode : Secure
Utilize accurate stream : Yes
Defeat audio cache : Yes
Make use of C2 pointers : No

Read offset correction : 6
Overread into Lead-In and Lead-Out : No
Fill up missing offset samples with silence : Yes
Delete leading and trailing silent blocks : No
Null samples used in CRC calculations : Yes
Used interface : Native Win32 interface for Win NT & 2000
Gap handling : Appended to previous track

Used output format : Internal WAV Routines
Sample format : 44.100 Hz; 16 Bit; Stereo


TOC of the extracted CD

Track | Start | Length | Start sector | End sector
––––––––––––––––––––––––––––-
1 | 0:00.00 | 1:14.03 | 0 | 5552
2 | 1:14.03 | 3:55.58 | 5553 | 23235
3 | 5:09.61 | 5:11.58 | 23236 | 46618
4 | 10:21.44 | 4:54.51 | 46619 | 68719
5 | 15:16.20 | 3:58.71 | 68720 | 86640
6 | 19:15.16 | 3:38.66 | 86641 | 103056
7 | 22:54.07 | 2:49.47 | 103057 | 115778
8 | 25:43.54 | 4:39.59 | 115779 | 136762
9 | 30:23.38 | 4:41.67 | 136763 | 157904
10 | 35:05.30 | 5:12.20 | 157905 | 181324
11 | 40:17.50 | 5:04.29 | 181325 | 204153
12 | 45:22.04 | 3:35.30 | 204154 | 220308
13 | 48:57.34 | 3:08.04 | 220309 | 234412
14 | 52:05.38 | 3:23.27 | 234413 | 249664
15 | 55:28.65 | 2:25.09 | 249665 | 260548


Track 1

Filename C:\My Documents\My FLAC\Trek Life & Oddisee - New Money (2009) [FLAC] {Mello Music Group}\01 - Intro.wav

Pre-gap length 0:00:02.00

Peak level 85.9 %
Extraction speed 1.0 X
Track quality 99.8 %
Test CRC 5877FCD1
Copy CRC 5877FCD1
Accurately ripped (confidence 1) [053813F9] (AR v1)
Copy OK

Track 2

Filename C:\My Documents\My FLAC\Trek Life & Oddisee - New Money (2009) [FLAC] {Mello Music Group}\02 - Black Music.wav

Peak level 88.1 %
Extraction speed 1.9 X
Track quality 100.0 %
Test CRC FFF10618
Copy CRC FFF10618
Accurately ripped (confidence 1) [D7A3360D] (AR v1)
Copy OK

Track 3

Filename C:\My Documents\My FLAC\Trek Life & Oddisee - New Money (2009) [FLAC] {Mello Music Group}\03 - Hard Work.wav

Peak level 100.0 %
Extraction speed 2.8 X
Track quality 99.9 %
Test CRC 5AE140E4
Copy CRC 5AE140E4
Accurately ripped (confidence 1) [69BB112F] (AR v1)
Copy OK

Track 4

Filename C:\My Documents\My FLAC\Trek Life & Oddisee - New Money (2009) [FLAC] {Mello Music Group}\04 - Hold Me Down.wav

Peak level 83.6 %
Extraction speed 3.4 X
Track quality 100.0 %
Test CRC 2199455E
Copy CRC 2199455E
Accurately ripped (confidence 1) [CC918829] (AR v1)
Copy OK

Track 5

Filename C:\My Documents\My FLAC\Trek Life & Oddisee - New Money (2009) [FLAC] {Mello Music Group}\05 - Big Picture.wav

Peak level 92.2 %
Extraction speed 3.7 X
Track quality 100.0 %
Test CRC 621E6B85
Copy CRC 621E6B85
Accurately ripped (confidence 1) [1DD8825C] (AR v1)
Copy OK

Track 6

Filename C:\My Documents\My FLAC\Trek Life & Oddisee - New Money (2009) [FLAC] {Mello Music Group}\06 - Long Time Coming.wav

Peak level 91.2 %
Extraction speed 3.8 X
Track quality 100.0 %
Test CRC B0218879
Copy CRC B0218879
Accurately ripped (confidence 1) [1879F481] (AR v1)
Copy OK

Track 7

Filename C:\My Documents\My FLAC\Trek Life & Oddisee - New Money (2009) [FLAC] {Mello Music Group}\07 - One Idea.wav

Peak level 95.5 %
Extraction speed 2.7 X
Track quality 99.9 %
Test CRC FDE6A17F
Copy CRC FDE6A17F
Accurately ripped (confidence 1) [3CD63F48] (AR v1)
Copy OK

Track 8

Filename C:\My Documents\My FLAC\Trek Life & Oddisee - New Money (2009) [FLAC] {Mello Music Group}\08 - I'm Gone.wav

Peak level 77.5 %
Extraction speed 4.0 X
Track quality 100.0 %
Test CRC 88E7CD74
Copy CRC 88E7CD74
Accurately ripped (confidence 1) [66F55BA5] (AR v1)
Copy OK

Track 9

Filename C:\My Documents\My FLAC\Trek Life & Oddisee - New Money (2009) [FLAC] {Mello Music Group}\09 - We Still Here.wav

Peak level 83.5 %
Extraction speed 4.2 X
Track quality 100.0 %
Test CRC B6363B2E
Copy CRC B6363B2E
Accurately ripped (confidence 1) [C608A245] (AR v1)
Copy OK

Track 10

Filename C:\My Documents\My FLAC\Trek Life & Oddisee - New Money (2009) [FLAC] {Mello Music Group}\10 - Price I've Paid.wav

Peak level 90.7 %
Extraction speed 4.9 X
Track quality 100.0 %
Test CRC BCEFE412
Copy CRC BCEFE412
Accurately ripped (confidence 1) [B440937B] (AR v1)
Copy OK

Track 11

Filename C:\My Documents\My FLAC\Trek Life & Oddisee - New Money (2009) [FLAC] {Mello Music Group}\11 - Last Joint.wav

Peak level 83.5 %
Extraction speed 5.1 X
Track quality 100.0 %
Test CRC AF502EE9
Copy CRC AF502EE9
Accurately ripped (confidence 1) [2AE8B0CE] (AR v1)
Copy OK

Track 12

Filename C:\My Documents\My FLAC\Trek Life & Oddisee - New Money (2009) [FLAC] {Mello Music Group}\12 - Enjoy Yourself.wav

Peak level 91.1 %
Extraction speed 5.0 X
Track quality 100.0 %
Test CRC 5F6B0ACF
Copy CRC 5F6B0ACF
Accurately ripped (confidence 1) [1E0C8302] (AR v1)
Copy OK

Track 13

Filename C:\My Documents\My FLAC\Trek Life & Oddisee - New Money (2009) [FLAC] {Mello Music Group}\13 - All Times (Bonus Track).wav

Peak level 95.3 %
Extraction speed 4.9 X
Track quality 100.0 %
Test CRC ED4944D0
Copy CRC ED4944D0
Accurately ripped (confidence 1) [342F05C8] (AR v1)
Copy OK

Track 14

Filename C:\My Documents\My FLAC\Trek Life & Oddisee - New Money (2009) [FLAC] {Mello Music Group}\14 - Good God (Bonus Track).wav

Peak level 87.5 %
Extraction speed 0.5 X
Track quality 100.0 %
Test CRC 8C07064A
Copy CRC 8C07064A
Accurately ripped (confidence 1) [0FEC0099] (AR v1)
Copy OK

Track 15

Filename C:\My Documents\My FLAC\Trek Life & Oddisee - New Money (2009) [FLAC] {Mello Music Group}\15 - Some Help (Bonus Track).wav

Peak level 100.0 %
Extraction speed 3.8 X
Track quality 99.9 %
Test CRC DECC92DB
Copy CRC DECC92DB
Accurately ripped (confidence 1) [B9A1A292] (AR v1)
Copy OK


All tracks accurately ripped

No errors occurred

End of status report

–– CUETools DB Plugin V2.1.6

[CTDB TOCID: BZaUOrRr2Ek.KfQrX3vMpWW03H0-] disk not present in database
Submit result: BZaUOrRr2Ek.KfQrX3vMpWW03H0- has been uploaded


==== Log checksum CD0DCE641F358F54F14BEFAF28B7FDCDC81DA35B9F2F4A52DBDE1657DD386C49 ====


Trek Life & Oddisee - New Money (2009) {Mello Music Group} **[RE-UP]**