Subcategories

T-Connection - T-Connection (1978) [2014, Japan]

Posted By: BlondStyle
T-Connection - T-Connection (1978) [2014, Japan]

T-Connection - T-Connection (1978) [2014, Japan]
R&B, Soul/Funk, Disco | EAC Rip | FLAC, Tracks+CUE+LOG+Scans (JPEG) | 36:35 | 376,70 Mb
Label: Parlophone/Warner Music Japan Inc. (Japan) | Cat.# WPCR-27743 | Released: 2014-02-26 (1978)
T-Connection - T-Connection (1978) [2014, Japan]

T-Connection was willing to try anything for a hit, and though previous albums were hit-and-miss affairs, this one is even more so. It has the six-piece band emulating the Commodores on some songs, especially "Don't Stop the Music," which sounds like "Too Hot to Trot." The best track "At Midnight" features timbales and steel drums, and has more to do with T-Connection's Bahamian roots. The other tracks are more rock-oriented. If nothing else, this self-titled album displays their versatility.
~Review by Andrew Hamilton

T-Connection - T-Connection (1978) [2014, Japan]

T-Connection - T-Connection (1978) [2014, Japan]




Release of this album: 1978 [LP Dash, Cat.# DASH 30009, USA]
Release of this CD: 2014, February, 26 [CD Warner Music Japan Inc. (Japan), Cat.# WPCR-27743 / EAN: 4943674165285]
℗© 1978 Parlophone Records Ltd., a Warner Music Group Company.
Manufactured and Distributed by Warner Music Japan Inc.,
a Warner Music Group Company.
Made in Japan


Note: Remastered Reissue, Limited Edition.

Credits:

Engineer – Gary Vandy
Engineer [Assistant] – Jimmy Ayala, Mike Guerra
Engineer [Technical Assistant] – Steven Cuiffo
Mastered By – Ted Jensen
Mixed By – Cory Wade, T-Connection
Producer – Cory Wade


Tracklist:

01. Funkannection (05:10)
02. Coming Back For More (03:32)
03. Funky Lady (04:00)
04. Don't Stop The Music (04:37)
05. Saturday Night (04:30)
06. At Midnight (05:09)
07. Midnight Train (04:34)
08. Love Supreme (05:03)

Exact Audio Copy V1.0 beta 2 from 29. April 2011

Отчёт EAC об извлечении, выполненном 6. мая 2019, 12:32

T-Connection / T-Connection

Дисковод: ASUS DRW-24D5MT Adapter: 0 ID: 1

Режим чтения : Достоверность
Использование точного потока : Да
Отключение кэша аудио : Да
Использование указателей C2 : Нет

Коррекция смещения при чтении : 6
Способность читать области Lead-in и Lead-out : Нет
Заполнение пропущенных сэмплов тишиной : Да
Удаление блоков с тишиной в начале и конце : Нет
При вычислениях CRC использовались нулевые сэмплы : Да
Интерфейс : Встроенный Win32-интерфейс для Win NT/2000
Обработка зазоров : Добавлено к предыдущему треку

Выходной формат : Пользовательский кодировщик
Выбранный битрейт : 128 kBit/s
Качество : Высокий
Добавление ID3-тега : Нет
Утилита сжатия : C:\Program Files\Exact Audio Copy\FLAC\FLAC.EXE
Дополнительные параметры : -8 -V -T "ARTIST=%artist%" -T "TITLE=%title%" -T "ALBUM=%albumtitle%" -T "DATE=%year%" -T "TRACKNUMBER=%tracknr%" -T "GENRE=%genre%" -T "COMMENT=%comment%" -T "BAND=%albuminterpret%" -T "COMPOSER=%composer%" %haslyrics%–tag-from-


TOC извлечённого CD

Трек | Старт | Длительность | Начальный сектор | Конечный сектор
––––––––––––––––––––––––––––––––––-
1 | 0:00.00 | 5:10.35 | 0 | 23284
2 | 5:10.35 | 3:32.35 | 23285 | 39219
3 | 8:42.70 | 3:59.71 | 39220 | 57215
4 | 12:42.66 | 4:36.55 | 57216 | 77970
5 | 17:19.46 | 4:30.11 | 77971 | 98231
6 | 21:49.57 | 5:08.66 | 98232 | 121397
7 | 26:58.48 | 4:34.10 | 121398 | 141957
8 | 31:32.58 | 5:02.38 | 141958 | 164645


Трек 1

Имя файла D:\FLAC\01 Funkannection.wav

Длина предзазора 0:00:02.00

Пиковый уровень 100.0 %
Скорость извлечения 4.2 X
Качество трека 100.0 %
CRC теста 60C305C5
CRC копии 60C305C5
Точное извлечение (достоверность 4) [B5101684] (AR v2)
Копирование… OK

Трек 2

Имя файла D:\FLAC\02 Coming Back For More.wav

Длина предзазора 0:00:01.45

Пиковый уровень 100.0 %
Скорость извлечения 4.1 X
Качество трека 99.9 %
CRC теста 129C5DF7
CRC копии 129C5DF7
Точное извлечение (достоверность 4) [C589AE88] (AR v2)
Копирование… OK

Трек 3

Имя файла D:\FLAC\03 Funky Lady.wav

Длина предзазора 0:00:02.02

Пиковый уровень 100.0 %
Скорость извлечения 5.1 X
Качество трека 100.0 %
CRC теста 27C3E262
CRC копии 27C3E262
Точное извлечение (достоверность 4) [ECC44A27] (AR v2)
Копирование… OK

Трек 4

Имя файла D:\FLAC\04 Don't Stop The Music.wav

Длина предзазора 0:00:01.33

Пиковый уровень 100.0 %
Скорость извлечения 5.6 X
Качество трека 100.0 %
CRC теста 82C1C663
CRC копии 82C1C663
Точное извлечение (достоверность 4) [310AEB8C] (AR v2)
Копирование… OK

Трек 5

Имя файла D:\FLAC\05 Saturday Night.wav

Длина предзазора 0:00:02.42

Пиковый уровень 100.0 %
Скорость извлечения 5.9 X
Качество трека 100.0 %
CRC теста 8A114FCA
CRC копии 8A114FCA
Точное извлечение (достоверность 4) [0A950007] (AR v2)
Копирование… OK

Трек 6

Имя файла D:\FLAC\06 At Midnight.wav

Длина предзазора 0:00:01.42

Пиковый уровень 100.0 %
Скорость извлечения 6.5 X
Качество трека 100.0 %
CRC теста BF826704
CRC копии BF826704
Точное извлечение (достоверность 4) [49977664] (AR v2)
Копирование… OK

Трек 7

Имя файла D:\FLAC\07 Midnight Train.wav

Длина предзазора 0:00:01.36

Пиковый уровень 100.0 %
Скорость извлечения 6.7 X
Качество трека 100.0 %
CRC теста 86741A1E
CRC копии 86741A1E
Точное извлечение (достоверность 4) [6FAA8F00] (AR v2)
Копирование… OK

Трек 8

Имя файла D:\FLAC\08 Love Supreme.wav

Длина предзазора 0:00:00.40

Пиковый уровень 100.0 %
Скорость извлечения 7.0 X
Качество трека 100.0 %
CRC теста C8D688A2
CRC копии C8D688A2
Точное извлечение (достоверность 4) [F1ED2803] (AR v2)
Копирование… OK


Все треки извлечены точно

Ошибок не произошло

Конец отчёта

–– CUETools DB Plugin V2.1.4

[CTDB TOCID: Ngpqc7rYs4FiGO9SPH8HOXjwCok-] found
Submit result: Ngpqc7rYs4FiGO9SPH8HOXjwCok- has been confirmed
Track | CTDB Status
1 | (6/6) Accurately ripped
2 | (6/6) Accurately ripped
3 | (6/6) Accurately ripped
4 | (6/6) Accurately ripped
5 | (6/6) Accurately ripped
6 | (6/6) Accurately ripped
7 | (6/6) Accurately ripped
8 | (6/6) Accurately ripped


==== Контрольная сумма отчёта 0C33B051A421763ABE369B332869A22E1E6C229350991F614E79BCECD7D279B1 ====

––––––––––––––––––––––––––––––––––––––––
Analyzed: T-Connection / T-Connection
––––––––––––––––––––––––––––––––––––––––

DR Peak RMS Duration Track
––––––––––––––––––––––––––––––––––––––––
DR11 0.00 dB -13.18 dB 5:10 01-Funkannection
DR10 0.00 dB -11.30 dB 3:32 02-Coming Back For More
DR11 0.00 dB -12.14 dB 4:00 03-Funky Lady
DR11 0.00 dB -11.91 dB 4:37 04-Don't Stop The Music
DR10 0.00 dB -11.41 dB 4:30 05-Saturday Night
DR11 0.00 dB -12.97 dB 5:09 06-At Midnight
DR11 0.00 dB -12.72 dB 4:34 07-Midnight Train
DR11 0.00 dB -12.86 dB 5:03 08-Love Supreme
––––––––––––––––––––––––––––––––––––––––

Number of tracks: 8
Official DR value: DR11

Samplerate: 44100 Hz
Channels: 2
Bits per sample: 16
Bitrate: 1015 kbps
Codec: FLAC
================================================================================

Thanks to index123458

See also:
T-Connection - Magic (1977) [2019, Japan]
T-Connection - On Fire (1977) [2019, Japan]
T-Connection - T-Connection (1978) & Magic (1977) [1998, Reissue]
T-Connection - Totally Connected (1979) [2014, Japan]
T-Connection - Pure & Natural (1982) [2004, Remastered Reissue]

♫~Welcome To My Blog~♫

password: BlondStyle