Subcategories

Talking Heads - Albums Collection 1977-1986 (7CD) Japanese Remastered Releases [Re-Up]

Posted By: Designol
Talking Heads - Albums Collection 1977-1986 (7CD) Japanese Remastered Releases [Re-Up]

Talking Heads - Albums Collection 1977-1986 (7CD) Japanese Remastered Releases
EAC | FLAC | Image (Cue&Log) ~ 2.15 Gb | Mp3 (CBR320) ~ 780 Mb | Scans ~ 350 Mb
New Wave, Post-Punk, Art Punk, Dance Rock, Experimental Rock | Time: 05:29:52

Collection includes: 'Talking Heads 77' (1977); 'More Songs About Buildings And Food' (1978); 'Fear Of Music' (1979); 'Remain In Light' (1980); 'Speaking In Tongues' (1983); 'Stop Making Sense' (1984); 'True Stories' (1986).

At the start of their career, Talking Heads were all nervous energy, detached emotion, and subdued minimalism. When they released their last album about 12 years later, the band had recorded everything from art-funk to polyrhythmic worldbeat explorations and simple, melodic guitar pop. Between their first album in 1977 and their last in 1988, Talking Heads became one of the most critically acclaimed bands of the '80s, while managing to earn several pop hits. While some of their music can seem too self-consciously experimental, clever, and intellectual for its own good, at their best Talking Heads represent everything good about art-school punks.

And they were literally art-school punks. Guitarist/vocalist David Byrne, drummer Chris Frantz, and bassist Tina Weymouth met at the Rhode Island School of Design in the early '70s; they decided to move to New York in 1974 to concentrate on making music. The next year, the band won a spot opening for the Ramones at the seminal New York punk club CBGB. In 1976, keyboardist Jerry Harrison, a former member of Jonathan Richman's Modern Lovers, was added to the lineup. By 1977, the band had signed to Sire Records and released its first album, Talking Heads: 77. It received a considerable amount of acclaim for its stripped-down rock & roll, particularly Byrne's geeky, overly intellectual lyrics and uncomfortable, jerky vocals.

For their next album, 1978's More Songs About Buildings and Food, the band worked with producer Brian Eno, recording a set of carefully constructed, arty pop songs, distinguished by extensive experimenting with combined acoustic and electronic instruments, as well as touches of surprisingly credible funk. On their next album, the Eno-produced Fear of Music, Talking Heads began to rely heavily on their rhythm section, adding flourishes of African-styled polyrhythms. This approach came to a full fruition with 1980's Remain in Light, which was again produced by Eno. Talking Heads added several sidemen, including a horn section, leaving them free to explore their dense amalgam of African percussion, funk bass and keyboards, pop songs, and electronics.

After a long tour, the band concentrated on solo projects for a couple of years. By the time of 1983's Speaking in Tongues, the band had severed its ties with Eno; the result was an album that still relied on the rhythmic innovations of Remain in Light, except within a more rigid pop-song structure. After its release, Talking Heads embarked on another extensive tour, which was captured on the Jonathan Demme-directed concert film Stop Making Sense. After releasing the straightforward pop album Little Creatures in 1985, Byrne directed his first movie, True Stories, the following year; the band's next album featured songs from the film. Two years later, Talking Heads released Naked, which marked a return to their worldbeat explorations, although it sometimes suffered from Byrne's lyrical pretensions.

After its release, Talking Heads were put on "hiatus"; Byrne pursued some solo projects, as did Harrison, and Frantz and Weymouth continued with their side project, Tom Tom Club. In 1991, the band issued an announcement that they had broken up. Shortly thereafter, Harrison's production took off with successful albums by Live and Crash Test Dummies. In 1996, the original lineup minus Byrne reunited for the album No Talking Just Head; Byrne sued Frantz, Weymouth, and Harrison for attempting to record and perform as Talking Heads, so the trio went by the Heads. In 1999, all four worked together to promote a 15th-anniversary edition of Stop Making Sense, and they also performed at the 2002 induction ceremony for their entrance into the Rock and Roll Hall of Fame. Through the 2010s, Byrne released a number of solo and collaborative projects. Tom Tom Club continued to tour, while Harrison produced albums for the likes of No Doubt, the Von Bondies, and Hockey.

Stephen Thomas Erlewine, Allmusic.com

Talking Heads - Albums Collection 1977-1986 (7CD) Japanese Remastered Releases [Re-Up]





Talking Heads - Albums Collection 1977-1986 (7CD) Japanese Remastered Releases [Re-Up]

Talking Heads - Talking Heads 77 (1977) Japanese Remastered 2006
EAC | FLAC | Image (Cue&Log) ~ 255 Mb | Mp3 (CBR320) ~ 93 Mb | Scans ~ 52 Mb
Label: Sire/Warner Music Japan | # WPCR-75151 | Time: 00:39:00

Though they were the most highly touted new wave band to emerge from the CBGB's scene in New York, it was not clear at first whether Talking Heads' Lower East Side art rock approach could make the subway ride to the midtown pop mainstream successfully. The leadoff track of the debut album, Talking Heads: 77, "Uh-Oh, Love Comes to Town," was a pop song that emphasized the group's unlikely roots in late-'60s bubblegum, Motown, and Caribbean music. But the "Uh-Oh" gave away the group's game early, with its nervous, disconnected lyrics and David Byrne's strained voice. All pretenses of normality were abandoned by the second track, as Talking Heads finally started to sound on record the way they did downtown: the staggered rhythms and sudden tempo changes, the odd guitar tunings and rhythmic, single-note patterns, the non-rhyming, non-linear lyrics that came across like odd remarks overheard from a psychiatrist's couch, and that voice, singing above its normal range, its falsetto leaps and strangled cries resembling a madman trying desperately to sound normal. Talking Heads threw you off balance, but grabbed your attention with a sound that seemed alternately threatening and goofy. The music was undeniably catchy, even at its most ominous, especially on "Psycho Killer," Byrne's supreme statement of demented purpose. Amazingly, that song made the singles chart for a few weeks, evidence of the group's quirky appeal, but the album was not a big hit, and it remained unclear whether Talking Heads spoke only the secret language of the urban arts types or whether that could be translated into the more common tongue of hip pop culture. In any case, they had succeeded as artists, using existing elements in an unusual combination to create something new that still managed to be oddly familiar. And that made Talking Heads: 77 a landmark album.

William Ruhlmann, Allmusic.com

Tracklist:

01. Uh-Oh, Love Comes To Town (02:49)
02. New Feeling (03:07)
03. Tentative Decisions (03:05)
04. Happy Day (03:55)
05. Who Is It? (01:43)
06. No Compassion (04:48)
07. The Book I Read (04:08)
08. Don't Worry About The Government (03:01)
09. First Week/Last Week… Carefree (03:19)
10. Psycho Killer (04:19)
11. Pulled Up (04:30)


Exact Audio Copy V1.0 beta 3 from 29. August 2011

EAC extraction logfile from 1. June 2014, 19:05

Talking Heads / Talking Heads: 77 (WPCR-75151)

Used drive : PLEXTOR DVDR PX-891SA Adapter: 3 ID: 0

Read mode : Secure
Utilize accurate stream : Yes
Defeat audio cache : Yes
Make use of C2 pointers : No

Read offset correction : 6
Overread into Lead-In and Lead-Out : No
Fill up missing offset samples with silence : Yes
Delete leading and trailing silent blocks : No
Null samples used in CRC calculations : Yes
Used interface : Native Win32 interface for Win NT & 2000

Used output format : User Defined Encoder
Selected bitrate : 1024 kBit/s
Quality : High
Add ID3 tag : No
Command line compressor : C:\Program Files\Exact Audio Copy\Flac\flac.exe
Additional command line options : -V -8 -T "Genre=%genre%" -T "Artist=%artist%" -T "Title=%title%" -T "Album=%albumtitle%" -T "Date=%year%" -T "Tracknumber=%tracknr%" -T "Comment=%comment%" %source%


TOC of the extracted CD

Track | Start | Length | Start sector | End sector
––––––––––––––––––––––––––––-
1 | 0:00.00 | 2:49.65 | 0 | 12739
2 | 2:49.65 | 3:09.18 | 12740 | 26932
3 | 5:59.08 | 3:08.22 | 26933 | 41054
4 | 9:07.30 | 3:55.25 | 41055 | 58704
5 | 13:02.55 | 1:44.03 | 58705 | 66507
6 | 14:46.58 | 4:49.40 | 66508 | 88222
7 | 19:36.23 | 4:10.07 | 88223 | 106979
8 | 23:46.30 | 3:01.50 | 106980 | 120604
9 | 26:48.05 | 3:21.10 | 120605 | 135689
10 | 30:09.15 | 4:20.45 | 135690 | 155234
11 | 34:29.60 | 4:30.00 | 155235 | 175484


Range status and errors

Selected range

Filename H:\dafnaplus\Talking Heads\1977 Talking Heads 77\Talking Heads - Talking Heads- 77 (WPCR-75151).wav

Peak level 100.0 %
Extraction speed 8.0 X
Range quality 100.0 %
Test CRC 3CB89889
Copy CRC 3CB89889
Copy OK

No errors occurred


AccurateRip summary

Track 1 accurately ripped (confidence 2) [1AD2F3A0] (AR v1)
Track 2 accurately ripped (confidence 2) [D62208D1] (AR v1)
Track 3 accurately ripped (confidence 1) [A2F9C10F] (AR v2)
Track 4 accurately ripped (confidence 2) [4D2F1ADA] (AR v1)
Track 5 accurately ripped (confidence 2) [6C64ED7E] (AR v1)
Track 6 accurately ripped (confidence 2) [0EBD6F7B] (AR v1)
Track 7 accurately ripped (confidence 2) [5E111C72] (AR v1)
Track 8 accurately ripped (confidence 2) [8F1F5A1F] (AR v1)
Track 9 accurately ripped (confidence 2) [5A2641F7] (AR v1)
Track 10 accurately ripped (confidence 2) [A54037B5] (AR v1)
Track 11 accurately ripped (confidence 1) [9A0CCC4F] (AR v2)

All tracks accurately ripped

End of status report

==== Log checksum EA99565EAB22F51401929F9B41A3E04D3F8CF8E445520A72001863A6AB117EEE ====

foobar2000 1.2 / Dynamic Range Meter 1.1.1
log date: 2014-06-19 18:01:44

––––––––––––––––––––––––––––––––––––––––
Analyzed: Talking Heads / Talking Heads: 77 (WPCR-75151)
––––––––––––––––––––––––––––––––––––––––

DR Peak RMS Duration Track
––––––––––––––––––––––––––––––––––––––––
DR10 0.00 dB -11.97 dB 2:50 01-Uh-Oh, Love Comes To Town
DR12 0.00 dB -13.34 dB 3:09 02-New Feeling
DR10 0.00 dB -11.89 dB 3:08 03-Tentative Decisions
DR12 0.00 dB -14.29 dB 3:55 04-Happy Day
DR11 0.00 dB -13.12 dB 1:44 05-Who Is It?
DR12 0.00 dB -13.18 dB 4:50 06-No Compassion
DR11 0.00 dB -13.03 dB 4:10 07-The Book I Read
DR12 0.00 dB -13.57 dB 3:02 08-Don't Worry About The Government
DR11 0.00 dB -12.63 dB 3:21 09-First Week/Last Week… Carefree
DR11 0.00 dB -12.42 dB 4:21 10-Psycho Killer
DR12 0.00 dB -13.35 dB 4:30 11-Pulled Up
––––––––––––––––––––––––––––––––––––––––

Number of tracks: 11
Official DR value: DR11

Samplerate: 44100 Hz
Channels: 2
Bits per sample: 16
Bitrate: 898 kbps
Codec: FLAC
================================================================================




Talking Heads - Albums Collection 1977-1986 (7CD) Japanese Remastered Releases [Re-Up]

Talking Heads - More Songs About Buildings And Food (1978) Japanese Remastered 2006
EAC | FLAC | Image (Cue&Log) ~ 297 Mb | Mp3 (CBR320) ~ 100 Mb | Scans ~ 38 mb
Label: Sire/Warner Music Japan | # WPCR-75152 | Time: 00:41:47

The title of Talking Heads' second album, More Songs About Buildings and Food, slyly addressed the sophomore record syndrome, in which songs not used on a first LP are mixed with hastily written new material. If the band's sound seems more conventional, the reason simply may be that one had encountered the odd song structures, staccato rhythms, strained vocals, and impressionistic lyrics once before. Another was that new co-producer Brian Eno brought a musical unity that tied the album together, especially in terms of the rhythm section, the sequencing, the pacing, and the mixing. Where Talking Heads had largely been about David Byrne's voice and words, Eno moved the emphasis to the bass-and-drums team of Tina Weymouth and Chris Frantz; all the songs were danceable, and there were only short breaks between them. Byrne held his own, however, and he continued to explore the eccentric, if not demented persona first heard on 77, whether he was adding to his observations on boys and girls or turning his "Psycho Killer" into an artist in "Artists Only." Through the first nine tracks, More Songs was the successor to 77, which would not have earned it landmark status or made it the commercial breakthrough it became. It was the last two songs that pushed the album over those hurdles. First there was an inspired cover of Al Green's "Take Me to the River"; released as a single, it made the Top 40 and pushed the album to gold-record status. Second was the album closer, "The Big Country," Byrne's country-tinged reflection on flying over middle America; it crystallized his artist-vs.-ordinary people perspective in unusually direct and dismissive terms, turning the old Chuck Berry patriotic travelogue theme of rock & roll on its head and employing a great hook in the process.

William Ruhlmann, Allmusic.com

Tracklist:

01. Thank You For Sending Me An Angel (02:12)
02. With Our Love (03:31)
03. The Good Thing (03:03)
04. Warning Sign (03:54)
05. The Girls Want To Be With The Girls (02:38)
06. Found A Job (04:59)
07. Artists Only (02:45)
08. I'm Not In Love (04:35)
09. Stay Hungry (02:40)
10. Take Me To The River (05:03)
11. The Big Country (05:33)


Exact Audio Copy V1.0 beta 3 from 29. August 2011

EAC extraction logfile from 1. June 2014, 18:38

Talking Heads / More Songs About Buildings And Food (WPCR-75152)

Used drive : PLEXTOR DVDR PX-891SA Adapter: 3 ID: 0

Read mode : Secure
Utilize accurate stream : Yes
Defeat audio cache : Yes
Make use of C2 pointers : No

Read offset correction : 6
Overread into Lead-In and Lead-Out : No
Fill up missing offset samples with silence : Yes
Delete leading and trailing silent blocks : No
Null samples used in CRC calculations : Yes
Used interface : Native Win32 interface for Win NT & 2000

Used output format : User Defined Encoder
Selected bitrate : 1024 kBit/s
Quality : High
Add ID3 tag : No
Command line compressor : C:\Program Files\Exact Audio Copy\Flac\flac.exe
Additional command line options : -V -8 -T "Genre=%genre%" -T "Artist=%artist%" -T "Title=%title%" -T "Album=%albumtitle%" -T "Date=%year%" -T "Tracknumber=%tracknr%" -T "Comment=%comment%" %source%


TOC of the extracted CD

Track | Start | Length | Start sector | End sector
––––––––––––––––––––––––––––-
1 | 0:00.00 | 2:12.18 | 0 | 9917
2 | 2:12.18 | 3:31.20 | 9918 | 25762
3 | 5:43.38 | 3:03.57 | 25763 | 39544
4 | 8:47.20 | 3:54.48 | 39545 | 57142
5 | 12:41.68 | 2:38.30 | 57143 | 69022
6 | 15:20.23 | 4:59.12 | 69023 | 91459
7 | 20:19.35 | 3:35.48 | 91460 | 107632
8 | 23:55.08 | 4:35.15 | 107633 | 128272
9 | 28:30.23 | 2:40.40 | 128273 | 140312
10 | 31:10.63 | 5:03.45 | 140313 | 163082
11 | 36:14.33 | 5:33.10 | 163083 | 188067


Range status and errors

Selected range

Filename H:\dafnaplus\Talking Heads\1978 More Songs About Buildings And Food\Talking Heads - More Songs About Buildings And Food (WPCR-75152).wav

Peak level 100.0 %
Extraction speed 8.1 X
Range quality 99.9 %
Test CRC 6C720747
Copy CRC 6C720747
Copy OK

No errors occurred


AccurateRip summary

Track 1 accurately ripped (confidence 2) [ED763112] (AR v1)
Track 2 accurately ripped (confidence 2) [05EF073B] (AR v1)
Track 3 accurately ripped (confidence 2) [E99A4769] (AR v1)
Track 4 accurately ripped (confidence 2) [21FF573A] (AR v1)
Track 5 accurately ripped (confidence 2) [AA86947A] (AR v1)
Track 6 accurately ripped (confidence 2) [7861D4DD] (AR v1)
Track 7 accurately ripped (confidence 2) [E65B8EB3] (AR v1)
Track 8 accurately ripped (confidence 2) [082B4550] (AR v1)
Track 9 accurately ripped (confidence 2) [3E627FF1] (AR v1)
Track 10 accurately ripped (confidence 1) [7304301F] (AR v2)
Track 11 accurately ripped (confidence 2) [906B05E0] (AR v1)

All tracks accurately ripped

End of status report

==== Log checksum 51BB4956F618FF3D60495ED488813A99B5ABB8004AA81FB365C049FFF911695D ====

foobar2000 1.2 / Dynamic Range Meter 1.1.1
log date: 2014-06-19 18:01:57

––––––––––––––––––––––––––––––––––––––––
Analyzed: Talking Heads / More Songs About Buildings And Food (WPCR-75152)
––––––––––––––––––––––––––––––––––––––––

DR Peak RMS Duration Track
––––––––––––––––––––––––––––––––––––––––
DR9 0.00 dB -10.57 dB 2:12 01-Thank You For Sending Me An Angel
DR12 0.00 dB -12.82 dB 3:31 02-With Our Love
DR10 0.00 dB -11.28 dB 3:04 03-The Good Thing
DR10 0.00 dB -11.73 dB 3:55 04-Warning Sign
DR11 0.00 dB -12.11 dB 2:38 05-The Girls Want To Be With The Girls
DR9 0.00 dB -10.92 dB 4:59 06-Found A Job
DR10 0.00 dB -11.06 dB 3:36 07-Artists Only
DR10 0.00 dB -12.53 dB 4:35 08-I'm Not In Love
DR9 0.00 dB -10.01 dB 2:41 09-Stay Hungry
DR10 0.00 dB -12.04 dB 5:04 10-Take Me To The River
DR11 0.00 dB -12.28 dB 5:33 11-The Big Country
––––––––––––––––––––––––––––––––––––––––

Number of tracks: 11
Official DR value: DR10

Samplerate: 44100 Hz
Channels: 2
Bits per sample: 16
Bitrate: 980 kbps
Codec: FLAC
================================================================================




Talking Heads - Albums Collection 1977-1986 (7CD) Japanese Remastered Releases [Re-Up]

Talking Heads - Fear Of Music (1979) Japanese Remastered 2006
EAC | FLAC | Image (Cue&Log) ~ 276 Mb | Mp3 (CBR320) ~ 96 Mb | Scans ~ 35 Mb
Label: Sire/Warner Music Japan | # WPCR-75153 | Time: 00:40:42

By titling their third album Fear of Music and opening it with the African rhythmic experiment "I Zimbra," complete with nonsense lyrics by poet Hugo Ball, Talking Heads make the record seem more of a departure than it is. Though Fear of Music is musically distinct from its predecessors, it's mostly because of the use of minor keys that give the music a more ominous sound. Previously, David Byrne's offbeat observations had been set off by an overtly humorous tone; on Fear of Music, he is still odd, but no longer so funny. At the same time, however, the music has become even more compelling. Worked up from jams (though Byrne received sole songwriter's credit), the music is becoming denser and more driving, notably on the album's standout track, "Life During Wartime," with lyrics that match the music's power. "This ain't no party," declares Byrne, "this ain't no disco, this ain't no fooling around." The other key song, "Heaven," extends the dismissal Byrne had expressed for the U.S. in "The Big Country" to paradise itself: "Heaven is a place where nothing ever happens." It's also the album's most melodic song. Those are the highlights. What keeps Fear of Music from being as impressive an album as Talking Heads' first two is that much of it seems to repeat those earlier efforts, while the few newer elements seem so risky and exciting. It's an uneven, transitional album, though its better songs are as good as any Talking Heads ever did.

William Ruhlmann, Allmusic.com

Tracklist:

01. I Zimbra (03:07)
02. Mind (04:11)
03. Paper (02:36)
04. Cities (04:05)
05. Life During Wartime (03:40)
06. Memories Can't Wait (03:29)
07. Air (03:32)
08. Heaven (04:00)
09. Animals (03:30)
10. Electric Guitar (03:00)
11. Drugs (05:11)


Exact Audio Copy V1.0 beta 3 from 29. August 2011

EAC extraction logfile from 1. June 2014, 17:53

Talking Heads / Fear Of Music (WPCR-75153)

Used drive : PLEXTOR DVDR PX-891SA Adapter: 3 ID: 0

Read mode : Secure
Utilize accurate stream : Yes
Defeat audio cache : Yes
Make use of C2 pointers : No

Read offset correction : 6
Overread into Lead-In and Lead-Out : No
Fill up missing offset samples with silence : Yes
Delete leading and trailing silent blocks : No
Null samples used in CRC calculations : Yes
Used interface : Native Win32 interface for Win NT & 2000

Used output format : User Defined Encoder
Selected bitrate : 1024 kBit/s
Quality : High
Add ID3 tag : No
Command line compressor : C:\Program Files\Exact Audio Copy\Flac\flac.exe
Additional command line options : -V -8 -T "Genre=%genre%" -T "Artist=%artist%" -T "Title=%title%" -T "Album=%albumtitle%" -T "Date=%year%" -T "Tracknumber=%tracknr%" -T "Comment=%comment%" %source%


TOC of the extracted CD

Track | Start | Length | Start sector | End sector
––––––––––––––––––––––––––––-
1 | 0:00.00 | 3:09.25 | 0 | 14199
2 | 3:09.25 | 4:12.55 | 14200 | 33154
3 | 7:22.05 | 2:39.33 | 33155 | 45112
4 | 10:01.38 | 4:10.22 | 45113 | 63884
5 | 14:11.60 | 3:41.05 | 63885 | 80464
6 | 17:52.65 | 3:30.00 | 80465 | 96214
7 | 21:22.65 | 3:34.13 | 96215 | 112277
8 | 24:57.03 | 4:00.55 | 112278 | 130332
9 | 28:57.58 | 3:30.17 | 130333 | 146099
10 | 32:28.00 | 3:02.58 | 146100 | 159807
11 | 35:30.58 | 5:11.10 | 159808 | 183142


Range status and errors

Selected range

Filename H:\dafnaplus\Talking Heads\1979 Fear Of Music\Talking Heads - Fear Of Music (WPCR-75153).wav

Peak level 100.0 %
Extraction speed 8.1 X
Range quality 100.0 %
Test CRC 935573DF
Copy CRC 935573DF
Copy OK

No errors occurred


AccurateRip summary

Track 1 accurately ripped (confidence 2) [E429857B] (AR v2)
Track 2 accurately ripped (confidence 2) [BC33C84A] (AR v1)
Track 3 accurately ripped (confidence 2) [DEBF4D22] (AR v1)
Track 4 accurately ripped (confidence 2) [A3DB11F6] (AR v1)
Track 5 accurately ripped (confidence 2) [2E28DC67] (AR v1)
Track 6 accurately ripped (confidence 2) [960B5CBC] (AR v1)
Track 7 accurately ripped (confidence 2) [A5D894C5] (AR v1)
Track 8 accurately ripped (confidence 2) [BE31D653] (AR v1)
Track 9 accurately ripped (confidence 2) [985DEEB4] (AR v1)
Track 10 accurately ripped (confidence 2) [248D813C] (AR v1)
Track 11 accurately ripped (confidence 2) [250A3747] (AR v1)

All tracks accurately ripped

End of status report

==== Log checksum 5CE944FA43AADB9CDE3C4CAA2A90D912C2C255C39D15EE6C9A4057030F6864DB ====

foobar2000 1.2 / Dynamic Range Meter 1.1.1
log date: 2014-06-19 18:02:09

––––––––––––––––––––––––––––––––––––––––
Analyzed: Talking Heads / Fear Of Music (WPCR-75153)
––––––––––––––––––––––––––––––––––––––––

DR Peak RMS Duration Track
––––––––––––––––––––––––––––––––––––––––
DR13 0.00 dB -14.78 dB 3:09 01-I Zimbra
DR11 0.00 dB -13.24 dB 4:13 02-Mind
DR11 0.00 dB -12.20 dB 2:39 03-Paper
DR12 0.00 dB -13.42 dB 4:10 04-Cities
DR13 0.00 dB -14.24 dB 3:41 05-Life During Wartime
DR10 0.00 dB -11.00 dB 3:30 06-Memories Can't Wait
DR9 0.00 dB -11.07 dB 3:34 07-Air
DR10 0.00 dB -12.17 dB 4:01 08-Heaven
DR8 0.00 dB -11.16 dB 3:30 09-Animals
DR12 0.00 dB -13.84 dB 3:03 10-Electric Guitar
DR13 0.00 dB -16.36 dB 5:11 11-Drugs
––––––––––––––––––––––––––––––––––––––––

Number of tracks: 11
Official DR value: DR11

Samplerate: 44100 Hz
Channels: 2
Bits per sample: 16
Bitrate: 938 kbps
Codec: FLAC
================================================================================




Talking Heads - Albums Collection 1977-1986 (7CD) Japanese Remastered Releases [Re-Up]

Talking Heads - Remain In Light (1980) Japanese Remastered 2006
EAC | FLAC | Image (Cue&Log) ~ 250 Mb | Mp3 (CBR320) ~ 95 Mb | Scans ~ 42 Mb
Label: Sire/Warner Music Japan | # WPCR-75154 | Time: 00:40:10

The musical transition that seemed to have just begun with Fear of Music came to fruition on Talking Heads' fourth album, Remain in Light. "I Zimbra" and "Life During Wartime" from the earlier album served as the blueprints for a disc on which the group explored African polyrhythms on a series of driving groove tracks, over which David Byrne chanted and sang his typically disconnected lyrics. Remain in Light had more words than any previous Heads record, but they counted for less than ever in the sweep of the music. The album's single, "Once in a Lifetime," flopped upon release, but over the years it became an audience favorite due to a striking video, its inclusion in the band's 1984 concert film Stop Making Sense, and its second single release (in the live version) because of its use in the 1986 movie Down and Out in Beverly Hills, when it became a minor chart entry. Byrne sounded typically uncomfortable in the verses ("And you may find yourself in a beautiful house, with a beautiful wife/And you may ask yourself, well, how did I get here?"), which were undercut by the reassuring chorus ("Letting the days go by"). Even without a single, Remain in Light was a hit, indicating that Talking Heads were connecting with an audience ready to follow their musical evolution, and the album was so inventive and influential, it was no wonder. As it turned out, however, it marked the end of one aspect of the group's development and was their last new music for three years.

William Ruhlmann, Allmusic.com

Tracklist:

01. Born Under Punches (The Heat Goes On) (05:48)
02. Crosseyed And Painless (04:44)
03. The Great Curve (06:25)
04. Once In A Lifetime (04:20)
05. Houses In Motion (04:31)
06. Seen And Not Seen (03:22)
07. Listening Wind (04:42)
08. The Overload (06:01)


Exact Audio Copy V1.0 beta 3 from 29. August 2011

EAC extraction logfile from 1. June 2014, 17:33

Talking Heads / Remain In Light (WPCR-75154)

Used drive : PLEXTOR DVDR PX-891SA Adapter: 3 ID: 0

Read mode : Secure
Utilize accurate stream : Yes
Defeat audio cache : Yes
Make use of C2 pointers : No

Read offset correction : 6
Overread into Lead-In and Lead-Out : No
Fill up missing offset samples with silence : Yes
Delete leading and trailing silent blocks : No
Null samples used in CRC calculations : Yes
Used interface : Native Win32 interface for Win NT & 2000

Used output format : User Defined Encoder
Selected bitrate : 1024 kBit/s
Quality : High
Add ID3 tag : No
Command line compressor : C:\Program Files\Exact Audio Copy\Flac\flac.exe
Additional command line options : -V -8 -T "Genre=%genre%" -T "Artist=%artist%" -T "Title=%title%" -T "Album=%albumtitle%" -T "Date=%year%" -T "Tracknumber=%tracknr%" -T "Comment=%comment%" %source%


TOC of the extracted CD

Track | Start | Length | Start sector | End sector
––––––––––––––––––––––––––––-
1 | 0:00.00 | 5:49.48 | 0 | 26222
2 | 5:49.48 | 4:47.62 | 26223 | 47809
3 | 10:37.35 | 6:27.40 | 47810 | 76874
4 | 17:05.00 | 4:22.45 | 76875 | 96569
5 | 21:27.45 | 4:33.15 | 96570 | 117059
6 | 26:00.60 | 3:24.40 | 117060 | 132399
7 | 29:25.25 | 4:43.03 | 132400 | 153627
8 | 34:08.28 | 6:01.62 | 153628 | 180764


Range status and errors

Selected range

Filename H:\dafnaplus\Talking Heads\1980 Remain In Light\Talking Heads - Remain In Light (WPCR-75154).wav

Peak level 100.0 %
Extraction speed 8.1 X
Range quality 100.0 %
Test CRC 867790EB
Copy CRC 867790EB
Copy OK

No errors occurred


AccurateRip summary

Track 1 accurately ripped (confidence 5) [753232E6] (AR v2)
Track 2 accurately ripped (confidence 5) [283E7873] (AR v2)
Track 3 accurately ripped (confidence 5) [91BF3471] (AR v2)
Track 4 accurately ripped (confidence 7) [73D78BF0] (AR v2)
Track 5 accurately ripped (confidence 6) [155637E1] (AR v2)
Track 6 accurately ripped (confidence 5) [112A1F91] (AR v2)
Track 7 accurately ripped (confidence 5) [84F2EB43] (AR v2)
Track 8 accurately ripped (confidence 4) [FC9FC14A] (AR v2)

All tracks accurately ripped

End of status report

==== Log checksum 8B77DCBB49077A01E645A23A9307599932F700A69F691612C7EA07F9D45D2D9C ====

foobar2000 1.2 / Dynamic Range Meter 1.1.1
log date: 2014-06-19 18:02:27

––––––––––––––––––––––––––––––––––––––––
Analyzed: Talking Heads / Remain In Light (WPCR-75154)
––––––––––––––––––––––––––––––––––––––––

DR Peak RMS Duration Track
––––––––––––––––––––––––––––––––––––––––
DR9 0.00 dB -11.50 dB 5:50 01-Born Under Punches (The Heat Goes On)
DR10 0.00 dB -11.05 dB 4:48 02-Crosseyed And Painless
DR9 0.00 dB -10.68 dB 6:28 03-The Great Curve
DR13 0.00 dB -14.49 dB 4:23 04-Once In A Lifetime
DR13 0.00 dB -14.77 dB 4:33 05-Houses In Motion
DR15 0.00 dB -16.97 dB 3:25 06-Seen And Not Seen
DR14 0.00 dB -15.56 dB 4:43 07-Listening Wind
DR12 0.00 dB -14.52 dB 6:02 08-The Overload
––––––––––––––––––––––––––––––––––––––––

Number of tracks: 8
Official DR value: DR12

Samplerate: 44100 Hz
Channels: 2
Bits per sample: 16
Bitrate: 861 kbps
Codec: FLAC
================================================================================




Talking Heads - Albums Collection 1977-1986 (7CD) Japanese Remastered Releases [Re-Up]

Talking Heads - Speaking In Tongues (1983) Japanese Remastered 2006
EAC | FLAC | Image (Cue&Log) ~ 316 Mb | Mp3 (CBR320) ~ 111 Mb | Scans ~ 41 Mb
Label: Sire/Warner Music Japan | # WPCR-75155 | Time: 00:47:14

Talking Heads found a way to open up the dense textures of the music they had developed with Brian Eno on their two previous studio albums for Speaking in Tongues, and were rewarded with their most popular aLife During Wartimelbum yet. Ten backup singers and musicians accompanied the original quartet, but somehow the sound was more spacious, and the music admitted aspects of gospel, notably in the call-and-response of "Slippery People," and John Lee Hooker-style blues, on "Swamp." As usual, David Byrne determinedly sang and chanted impressionistic, nonlinear lyrics, sometimes by mix-and-matching clichés ("No visible means of support and you have not seen nothin' yet," he declared on "Burning Down the House," the Heads' first Top Ten hit), and the songs' very lack of clear meaning was itself a lyrical subject. "Still don't make no sense," Byrne admitted in "Making Flippy Floppy," but by the next song, "Girlfriend Is Better," that had become an order – "Stop making sense," he chanted over and over. Some of his charming goofiness had returned since the overly serious Remain in Light and Fear of Music, however, and the accompanying music, filled with odd percussive and synthesizer sounds, could be unusually light and bouncy. The album closer, "This Must Be the Place (Naive Melody)," even sounded hopeful. Well, sort of. Despite their formal power, Talking Heads' preceding two albums seemed to have painted them into a corner, which may be why it took them three years to craft a follow-up, but on Speaking in Tongues, they found an open window and flew out of it.

William Ruhlmann, Allmusic.com

Tracklist:

01. Burning Down The House (04:03)
02. Making Flippy Floppy (05:54)
03. Girlfriend Is Better (05:45)
04. Slippery People (05:05)
05. I Get Wild/Wild Gravity (05:16)
06. Swamp (05:15)
07. Moon Rocks (05:44)
08. Pull Up The Roots (05:09)
09. This Must Be The Place (Naive Melody) (04:56)


Exact Audio Copy V1.0 beta 3 from 29. August 2011

EAC extraction logfile from 1. June 2014, 17:17

Talking Heads / Speaking In Tongues (WPCR-75155)

Used drive : PLEXTOR DVDR PX-891SA Adapter: 3 ID: 0

Read mode : Secure
Utilize accurate stream : Yes
Defeat audio cache : Yes
Make use of C2 pointers : No

Read offset correction : 6
Overread into Lead-In and Lead-Out : No
Fill up missing offset samples with silence : Yes
Delete leading and trailing silent blocks : No
Null samples used in CRC calculations : Yes
Used interface : Native Win32 interface for Win NT & 2000

Used output format : User Defined Encoder
Selected bitrate : 1024 kBit/s
Quality : High
Add ID3 tag : No
Command line compressor : C:\Program Files\Exact Audio Copy\Flac\flac.exe
Additional command line options : -V -8 -T "Genre=%genre%" -T "Artist=%artist%" -T "Title=%title%" -T "Album=%albumtitle%" -T "Date=%year%" -T "Tracknumber=%tracknr%" -T "Comment=%comment%" %source%


TOC of the extracted CD

Track | Start | Length | Start sector | End sector
––––––––––––––––––––––––––––-
1 | 0:00.00 | 4:03.03 | 0 | 18227
2 | 4:03.03 | 5:54.32 | 18228 | 44809
3 | 9:57.35 | 5:45.38 | 44810 | 70722
4 | 15:42.73 | 5:06.50 | 70723 | 93722
5 | 20:49.48 | 5:16.42 | 93723 | 117464
6 | 26:06.15 | 5:15.73 | 117465 | 141162
7 | 31:22.13 | 5:45.35 | 141163 | 167072
8 | 37:07.48 | 5:09.70 | 167073 | 190317
9 | 42:17.43 | 4:56.07 | 190318 | 212524


Range status and errors

Selected range

Filename H:\dafnaplus\Talking Heads\1983 Speaking In Tongues\Talking Heads - Speaking In Tongues (WPCR-75155).wav

Peak level 100.0 %
Extraction speed 8.4 X
Range quality 100.0 %
Test CRC E4F5F538
Copy CRC E4F5F538
Copy OK

No errors occurred


AccurateRip summary

Track 1 accurately ripped (confidence 1) [4E04FBE3] (AR v2)
Track 2 accurately ripped (confidence 1) [C6D1341B] (AR v2)
Track 3 accurately ripped (confidence 1) [4C6AA7C5] (AR v2)
Track 4 accurately ripped (confidence 1) [E0C4F8F8] (AR v2)
Track 5 accurately ripped (confidence 1) [73C4341A] (AR v2)
Track 6 accurately ripped (confidence 1) [224446CE] (AR v2)
Track 7 accurately ripped (confidence 1) [8F5170D6] (AR v2)
Track 8 accurately ripped (confidence 1) [C69C9238] (AR v2)
Track 9 accurately ripped (confidence 1) [508103CA] (AR v2)

All tracks accurately ripped

End of status report

==== Log checksum B5085C8F949D1105D8CD0BEE00C16867DA192CD7947394D0A8DEB21DD194545B ====

foobar2000 1.2 / Dynamic Range Meter 1.1.1
log date: 2014-06-19 18:02:42

––––––––––––––––––––––––––––––––––––––––
Analyzed: Talking Heads / Speaking In Tongues (WPCR-75155)
––––––––––––––––––––––––––––––––––––––––

DR Peak RMS Duration Track
––––––––––––––––––––––––––––––––––––––––
DR11 0.00 dB -12.56 dB 4:03 01-Burning Down The House
DR11 0.00 dB -12.27 dB 5:54 02-Making Flippy Floppy
DR11 0.00 dB -12.49 dB 5:46 03-Girlfriend Is Better
DR12 0.00 dB -13.70 dB 5:07 04-Slippery People
DR12 0.00 dB -13.94 dB 5:17 05-I Get Wild/Wild Gravity
DR10 0.00 dB -11.83 dB 5:16 06-Swamp
DR11 0.00 dB -12.71 dB 5:45 07-Moon Rocks
DR10 0.00 dB -11.93 dB 5:10 08-Pull Up The Roots
DR12 0.00 dB -13.48 dB 4:56 09-This Must Be The Place (Naive Melody)
––––––––––––––––––––––––––––––––––––––––

Number of tracks: 9
Official DR value: DR11

Samplerate: 44100 Hz
Channels: 2
Bits per sample: 16
Bitrate: 926 kbps
Codec: FLAC
================================================================================




Talking Heads - Albums Collection 1977-1986 (7CD) Japanese Remastered Releases [Re-Up]

Talking Heads - Stop Making Sense (1984) Japanese Remastered 1999/2006
EAC | FLAC | Image (Cue&Log) ~ 508 Mb | Mp3 (CBR320) ~ 174 Mb | Scans ~ 94 Mb
Label: EMI Music Japan | # TOCP-53887 | Time: 01:14:25

While there's no debating the importance of Jonathan Demme's classic film record of Talking Heads' 1983 tour, the soundtrack released in support of it is a thornier matter. Since its release, purists have found Stop Making Sense slickly mixed and, worse yet, incomprehensive. The nine tracks included jumble and truncate the natural progression of frontman David Byrne's meticulously arranged stage show. Cries for a double-album treatment – à la 1982's live opus The Name of This Band Is Talking Heads – were sounded almost immediately; more enterprising fans merely dubbed the VHS release of the film onto cassette tape. So, until a 1999 "special edition" cured the 1984 release's ills, fans had to make do with the Stop Making Sense they were given – which is, by any account, an exemplary snapshot of a band at the height of its powers. Even with some of his more memorable tics edited out, Byrne is in fine voice here: Never before had he sounded warmer or more approachable, as evidenced by his soaring rendition of "Once in a Lifetime." Though almost half the album focuses on Speaking in Tongues material, the band makes room for one of Byrne's Catherine Wheel tunes (the hard-driving, elliptical "What a Day That Was") as well as up-tempo versions of "Pyscho Killer" and "Take Me to the River." If anything, Stop Making Sense's emphasis on keyboards and rhythm is its greatest asset as well as its biggest failing: Knob-tweakers Chris Frantz and Jerry Harrison play up their parts at the expense of the treblier aspects of the performance, and fans would have to wait almost 15 years for reparations. Still, for a generation that may have missed the band's seminal '70s work, Stop Making Sense proves to be an excellent primer.

Michael Hastings, Allmusic.com

Tracklist:

01. Psycho Killer (04:25)
02. Heaven (03:41)
03. Thank You For Sending Me An Angel (02:09)
04. Found A Job (03:15)
05. Slippery People (04:00)
06. Burning Down The House (04:06)
07. Life During Wartime (05:51)
08. Making Flippy Floppy (04:40)
09. Swamp (04:30)
10. What A Day That Was (05:59)
11. This Must Be The Place (Naive Melody) (04:57)
12. Once In A Lifetime (05:25)
13. Genius Of Love (04:30)
14. Girlfriend Is Better (05:06)
15. Take Me To The River (05:32)
16. Crosseyed And Painless (06:11)


Exact Audio Copy V1.0 beta 3 from 29. August 2011

EAC extraction logfile from 1. June 2014, 20:01

Talking Heads / Stop Making Sense (TOCP-53887)

Used drive : PLEXTOR DVDR PX-891SA Adapter: 3 ID: 0

Read mode : Secure
Utilize accurate stream : Yes
Defeat audio cache : Yes
Make use of C2 pointers : No

Read offset correction : 6
Overread into Lead-In and Lead-Out : No
Fill up missing offset samples with silence : Yes
Delete leading and trailing silent blocks : No
Null samples used in CRC calculations : Yes
Used interface : Native Win32 interface for Win NT & 2000

Used output format : User Defined Encoder
Selected bitrate : 1024 kBit/s
Quality : High
Add ID3 tag : No
Command line compressor : C:\Program Files\Exact Audio Copy\Flac\flac.exe
Additional command line options : -V -8 -T "Genre=%genre%" -T "Artist=%artist%" -T "Title=%title%" -T "Album=%albumtitle%" -T "Date=%year%" -T "Tracknumber=%tracknr%" -T "Comment=%comment%" %source%


TOC of the extracted CD

Track | Start | Length | Start sector | End sector
––––––––––––––––––––––––––––-
1 | 0:00.00 | 4:25.57 | 0 | 19931
2 | 4:25.57 | 3:41.00 | 19932 | 36506
3 | 8:06.57 | 2:09.60 | 36507 | 46241
4 | 10:16.42 | 3:15.28 | 46242 | 60894
5 | 13:31.70 | 4:00.72 | 60895 | 78966
6 | 17:32.67 | 4:06.23 | 78967 | 97439
7 | 21:39.15 | 5:51.25 | 97440 | 123789
8 | 27:30.40 | 4:40.22 | 123790 | 144811
9 | 32:10.62 | 4:30.15 | 144812 | 165076
10 | 36:41.02 | 6:00.48 | 165077 | 192124
11 | 42:41.50 | 4:57.17 | 192125 | 214416
12 | 47:38.67 | 5:25.43 | 214417 | 238834
13 | 53:04.35 | 4:30.60 | 238835 | 259144
14 | 57:35.20 | 5:06.32 | 259145 | 282126
15 | 62:41.52 | 5:32.73 | 282127 | 307099
16 | 68:14.50 | 6:11.02 | 307100 | 334926


Range status and errors

Selected range

Filename H:\dafnaplus\Talking Heads\1984 Stop Making Sense\Talking Heads - Stop Making Sense (TOCP-53887).wav

Peak level 99.9 %
Extraction speed 10.0 X
Range quality 100.0 %
Test CRC 525FAEF1
Copy CRC 525FAEF1
Copy OK

No errors occurred


AccurateRip summary

Track 1 cannot be verified as accurate (confidence 1) [D8A76435], AccurateRip returned [0F910F82] (AR v2)
Track 2 cannot be verified as accurate (confidence 1) [F6E3F522], AccurateRip returned [37CA2F9B] (AR v2)
Track 3 cannot be verified as accurate (confidence 1) [A40FAF96], AccurateRip returned [B5A75195] (AR v2)
Track 4 cannot be verified as accurate (confidence 1) [C9E2F181], AccurateRip returned [7B70E55D] (AR v2)
Track 5 cannot be verified as accurate (confidence 1) [159C5FF2], AccurateRip returned [EBC48A07] (AR v2)
Track 6 cannot be verified as accurate (confidence 1) [49E74D22], AccurateRip returned [BA1F066D] (AR v2)
Track 7 cannot be verified as accurate (confidence 1) [39707568], AccurateRip returned [A557F069] (AR v2)
Track 8 cannot be verified as accurate (confidence 1) [D29513BE], AccurateRip returned [F22A05FE] (AR v2)
Track 9 cannot be verified as accurate (confidence 1) [533748A5], AccurateRip returned [8DBADC85] (AR v2)
Track 10 cannot be verified as accurate (confidence 1) [0207AA83], AccurateRip returned [ED13A373] (AR v2)
Track 11 cannot be verified as accurate (confidence 1) [BAB320F8], AccurateRip returned [08099414] (AR v2)
Track 12 cannot be verified as accurate (confidence 1) [179F66F5], AccurateRip returned [8BB5A16A] (AR v2)
Track 13 cannot be verified as accurate (confidence 1) [416D1289], AccurateRip returned [E77F7CF8] (AR v2)
Track 14 cannot be verified as accurate (confidence 1) [2D62B77B], AccurateRip returned [1ACCB938] (AR v2)
Track 15 cannot be verified as accurate (confidence 1) [38231E57], AccurateRip returned [6BCB4C93] (AR v2)
Track 16 cannot be verified as accurate (confidence 1) [03D51166], AccurateRip returned [841F96F3] (AR v2)

No tracks could be verified as accurate
You may have a different pressing from the one(s) in the database

End of status report

==== Log checksum 07C63C4DC9BDBB92435CD6B7DB9E34FFFE99545D87E46C76BDB63B688DB3BC42 ====

foobar2000 1.2 / Dynamic Range Meter 1.1.1
log date: 2014-06-19 18:03:05

––––––––––––––––––––––––––––––––––––––––
Analyzed: Talking Heads / Stop Making Sense (TOCP-53887)
––––––––––––––––––––––––––––––––––––––––

DR Peak RMS Duration Track
––––––––––––––––––––––––––––––––––––––––
DR13 0.00 dB -15.11 dB 4:26 01-Psycho Killer
DR11 0.00 dB -12.94 dB 3:41 02-Heaven
DR10 0.00 dB -10.76 dB 2:10 03-Thank You For Sending Me An Angel
DR11 0.00 dB -11.73 dB 3:15 04-Found A Job
DR10 0.00 dB -11.72 dB 4:01 05-Slippery People
DR10 0.00 dB -11.62 dB 4:06 06-Burning Down The House
DR11 0.00 dB -13.05 dB 5:51 07-Life During Wartime
DR11 -0.10 dB -11.92 dB 4:40 08-Making Flippy Floppy
DR11 -0.61 dB -13.44 dB 4:30 09-Swamp
DR10 -0.10 dB -11.75 dB 6:01 10-What A Day That Was
DR11 -0.10 dB -12.63 dB 4:57 11-This Must Be The Place (Naive Melody)
DR9 -0.11 dB -11.45 dB 5:26 12-Once In A Lifetime
DR11 -0.11 dB -12.46 dB 4:31 13-Genius Of Love
DR10 -0.11 dB -11.88 dB 5:06 14-Girlfriend Is Better
DR10 -0.01 dB -12.72 dB 5:33 15-Take Me To The River
DR11 -0.10 dB -12.41 dB 6:11 16-Crosseyed And Painless
––––––––––––––––––––––––––––––––––––––––

Number of tracks: 16
Official DR value: DR11

Samplerate: 44100 Hz
Channels: 2
Bits per sample: 16
Bitrate: 949 kbps
Codec: FLAC
================================================================================




Talking Heads - Albums Collection 1977-1986 (7CD) Japanese Remastered Releases [Re-Up]

Talking Heads - True Stories (1986) Japanese Remastered 2000
EAC | FLAC | Image (Cue&Log) ~ 298 Mb | Mp3 (CBR320) ~ 108 Mb | Scans ~ 46 Mb
Label: Toshiba-EMI | # TOCP-53129 | Time: 00:46:33

Time hasn't been kind to Talking Heads' ancillary soundtrack to David Byrne's oddball directorial debut. Though it generated one of the band's biggest radio hits ("Wild Wild Life"), both the film and its songs were dismissed as self-consciously quirky retreads of other, better material; and it's well-known the quartet was beginning to splinter apart around the time of the sessions. Byrne himself has said that he regretted the whole notion of releasing True Stories with his own vocals, a decision made at the behest of the film's financial backers: All along, he intended for the lyrics to be sung, in character, by Pops Staples, John Goodman, and the rest of the cast. (Some of these alternate-vocal versions were eventually released as B-sides.) Despite its perfunctory nature, however, True Stories is not without its charms. Though an obvious swipe at consumerism, "Love for Sale" boasts one of the band's best hooks, and it's easily their hardest-rocking tune since the Fear of Music days. "Radio Head" is a successful continuation of some of the regional-American motifs Byrne explored on Little Creatures (and bears the distinction of inspiring Thom Yorke, Jonny Greenwood, and company to name their band after it). Free from the movie's weird patina of irony, "Dream Operator" is one of the most affecting tunes Talking Heads ever recorded; the closing-credits theme "City of Dreams" is similarly touching. Elsewhere, there is filler – touching upon gospel, country-western, zydeco, and sundry other Byrne influences – but the band's skill at arranging an album and maintaining a mood remains intact. So while True Stories may remain a regrettable chapter in the band's history, it's certainly not an embarrassing one.

Michael Hastings, Allmusic.com

Tracklist:

01. Love For Sale (04:31)
02. Puzzlin' Evidence (05:23)
03. Hey Now (03:42)
04. Papa Legba (05:55)
05. Wild Wild Life (03:39)
06. Radio Head (03:31)
07. Dream Operator (04:38)
08. People Like Us (04:28)
09. City Of Dreams (05:07)
10. Wild Wild Life (Long E.T. Mix) (05:30)


Exact Audio Copy V1.0 beta 3 from 29. August 2011

EAC extraction logfile from 1. June 2014, 13:52

Talking Heads / True Stories (TOCP-53129)

Used drive : PLEXTOR DVDR PX-891SA Adapter: 3 ID: 0

Read mode : Secure
Utilize accurate stream : Yes
Defeat audio cache : Yes
Make use of C2 pointers : No

Read offset correction : 6
Overread into Lead-In and Lead-Out : No
Fill up missing offset samples with silence : Yes
Delete leading and trailing silent blocks : No
Null samples used in CRC calculations : Yes
Used interface : Native Win32 interface for Win NT & 2000

Used output format : User Defined Encoder
Selected bitrate : 1024 kBit/s
Quality : High
Add ID3 tag : No
Command line compressor : C:\Program Files\Exact Audio Copy\Flac\flac.exe
Additional command line options : -V -8 -T "Genre=%genre%" -T "Artist=%artist%" -T "Title=%title%" -T "Album=%albumtitle%" -T "Date=%year%" -T "Tracknumber=%tracknr%" -T "Comment=%comment%" %source%


TOC of the extracted CD

Track | Start | Length | Start sector | End sector
––––––––––––––––––––––––––––-
1 | 0:00.32 | 4:32.10 | 32 | 20441
2 | 4:32.42 | 5:24.00 | 20442 | 44741
3 | 9:56.42 | 3:42.13 | 44742 | 61404
4 | 13:38.55 | 5:55.67 | 61405 | 88096
5 | 19:34.47 | 3:39.70 | 88097 | 104591
6 | 23:14.42 | 3:31.68 | 104592 | 120484
7 | 26:46.35 | 4:38.67 | 120485 | 141401
8 | 31:25.27 | 4:28.28 | 141402 | 161529
9 | 35:53.55 | 5:09.25 | 161530 | 184729
10 | 41:03.05 | 5:30.50 | 184730 | 209529


Range status and errors

Selected range

Filename H:\dafnaplus\Talking Heads\1986 True Stories\Talking Heads - True Stories (TOCP-53129).wav

Peak level 97.7 %
Extraction speed 8.4 X
Range quality 100.0 %
Test CRC 6A63A091
Copy CRC 6A63A091
Copy OK

No errors occurred


AccurateRip summary

Track 1 cannot be verified as accurate (confidence 52) [8749E41F], AccurateRip returned [90313084] (AR v2)
Track 2 cannot be verified as accurate (confidence 51) [E6D6D457], AccurateRip returned [52FD9E99] (AR v2)
Track 3 cannot be verified as accurate (confidence 51) [07C193E0], AccurateRip returned [5D4347A2] (AR v2)
Track 4 cannot be verified as accurate (confidence 50) [06401811], AccurateRip returned [CCE97E9D] (AR v2)
Track 5 cannot be verified as accurate (confidence 53) [078F95A8], AccurateRip returned [7772E37D] (AR v2)
Track 6 cannot be verified as accurate (confidence 51) [95DCF7F1], AccurateRip returned [97C71027] (AR v2)
Track 7 cannot be verified as accurate (confidence 51) [4BC330ED], AccurateRip returned [333F0745] (AR v2)
Track 8 cannot be verified as accurate (confidence 50) [2E694EDB], AccurateRip returned [B5FA1A13] (AR v2)
Track 9 cannot be verified as accurate (confidence 51) [502F09CD], AccurateRip returned [0F323182] (AR v2)
Track 10 cannot be verified as accurate (confidence 51) [BE7064DE], AccurateRip returned [CC8D5202] (AR v2)

No tracks could be verified as accurate
You may have a different pressing from the one(s) in the database

End of status report

==== Log checksum C611B524C15A319E245330BE07777172D01ECC924E545F860EDC89701A4F6982 ====

foobar2000 1.2 / Dynamic Range Meter 1.1.1
log date: 2014-06-19 18:03:19

––––––––––––––––––––––––––––––––––––––––
Analyzed: Talking Heads / True Stories (TOCP-53129)
––––––––––––––––––––––––––––––––––––––––

DR Peak RMS Duration Track
––––––––––––––––––––––––––––––––––––––––
DR14 -0.20 dB -16.30 dB 4:32 01-Love For Sale
DR13 -0.88 dB -15.32 dB 5:24 02-Puzzlin' Evidence
DR14 -0.21 dB -16.97 dB 3:42 03-Hey Now
DR14 -0.98 dB -18.40 dB 5:56 04-Papa Legba
DR14 -0.20 dB -15.40 dB 3:40 05-Wild Wild Life
DR13 -0.20 dB -16.35 dB 3:32 06-Radio Head
DR12 -1.36 dB -18.07 dB 4:39 07-Dream Operator
DR13 -0.80 dB -15.73 dB 4:28 08-People Like Us
DR14 -0.40 dB -17.44 dB 5:09 09-City Of Dreams
DR13 -0.40 dB -15.62 dB 5:31 10-Wild Wild Life (Long E.T. Mix)
––––––––––––––––––––––––––––––––––––––––

Number of tracks: 10
Official DR value: DR14

Samplerate: 44100 Hz
Channels: 2
Bits per sample: 16
Bitrate: 890 kbps
Codec: FLAC
================================================================================