Subcategories

Tangerine Dream - Dead Solid Perfect (OST) (1990)

Posted By: gribovar
Tangerine Dream - Dead Solid Perfect (OST) (1990)

Tangerine Dream - Dead Solid Perfect (OST) (1990)
EAC Rip | APE (image+.cue+log) - 214 MB | MP3 CBR 320 kbps (LAME 3.93) - 86 MB | Covers included
Genre: Progressive Electronic, Berlin School | RAR 3% Rec. | Label: Silva Screen Records (FILMCD 079)

Having scored the movies Heartbreakers and Tonight's The Night before, in 1988 TD composed the music for a third film of director Bobby Roth - Dead Solid Perfect, starring Randy Quaid. A lot of material is sequencered rhythms. Several tracks are variations of melodies so it does tend to get a little monotonous with the repetition. The music is a pleasure to hear. Without Silva Screen's efforts, more than likely this music would never have been released. It would have only been heard through your TV where it was buried in the soundtrack.
Apparently, the soundtrack album was prepared without cooperation of Tangerine Dream, a common approach of the record company releasing this album. Thus, unlike most other TD soundtracks, it features a large number of short musical sketches instead of longer compositions especially provided by TD for a soundtrack album release.
Tracklist:
01. Theme From "Dead Solid Perfect"
02. In The Pond
03. Beverly Leaves
04. Of Cads And Caddies
05. Tournament Montage
06. A Whore In One
07. Sand Trap
08. In The Rough
09. Nine Iron
10. U.S. Open
11. "My Name Is Bad Hair"
12. In The Hospital Room
13. Welcome To Bushwood/Golfus Interruptus
14. Deja Vu (I've Heard This Before!)
15. Birdie
16. Divot
17. Kenny And Donny Montage
18. Off To See Beverly
19. Phone To Beverly
20. "Nice Shots"
21. Sinking Putts
22. Kenny's Winning Shot

Total time: 36:22

Exact Audio Copy V0.99 prebeta 5 from 4. May 2009

EAC extraction logfile from 25. January 2010, 17:14

Tangerine Dream / Dead Solid Perfect

Used drive : ASUS DRW-2014S1 Adapter: 0 ID: 0

Read mode : Secure
Utilize accurate stream : Yes
Defeat audio cache : Yes
Make use of C2 pointers : No

Read offset correction : 6
Overread into Lead-In and Lead-Out : No
Fill up missing offset samples with silence : Yes
Delete leading and trailing silent blocks : No
Null samples used in CRC calculations : Yes
Used interface : Native Win32 interface for Win NT & 2000

Used output format : Internal WAV Routines
Sample format : 44.100 Hz; 16 Bit; Stereo


TOC of the extracted CD

Track | Start | Length | Start sector | End sector
––––––––––––––––––––––––––––-
1 | 0:00.32 | 3:20.30 | 32 | 15061
2 | 3:20.62 | 1:15.63 | 15062 | 20749
3 | 4:36.50 | 0:59.22 | 20750 | 25196
4 | 5:35.72 | 2:12.58 | 25197 | 35154
5 | 7:48.55 | 2:38.07 | 35155 | 47011
6 | 10:26.62 | 2:13.63 | 47012 | 57049
7 | 12:40.50 | 1:21.40 | 57050 | 63164
8 | 14:02.15 | 0:42.40 | 63165 | 66354
9 | 14:44.55 | 1:38.65 | 66355 | 73769
10 | 16:23.45 | 1:40.40 | 73770 | 81309
11 | 18:04.10 | 2:31.72 | 81310 | 92706
12 | 20:36.07 | 0:36.45 | 92707 | 95451
13 | 21:12.52 | 1:32.68 | 95452 | 102419
14 | 22:45.45 | 1:31.52 | 102420 | 109296
15 | 24:17.22 | 1:20.30 | 109297 | 115326
16 | 25:37.52 | 1:18.43 | 115327 | 121219
17 | 26:56.20 | 1:40.10 | 121220 | 128729
18 | 28:36.30 | 0:32.62 | 128730 | 131191
19 | 29:09.17 | 1:19.13 | 131192 | 137129
20 | 30:28.30 | 2:42.45 | 137130 | 149324
21 | 33:11.00 | 2:04.25 | 149325 | 158649
22 | 35:15.25 | 1:06.70 | 158650 | 163669


Range status and errors

Selected range

Filename D:\EAC\Tangerine Dream - Dead Solid Perfect.wav

Peak level 91.5 %
Range quality 100.0 %
Test CRC 23577279
Copy CRC 23577279
Copy OK

No errors occurred


AccurateRip summary

Track 1 accurately ripped (confidence 6) [0CCE8F08]
Track 2 accurately ripped (confidence 6) [89E57444]
Track 3 accurately ripped (confidence 6) [68C95469]
Track 4 accurately ripped (confidence 6) [0C3BC2E3]
Track 5 accurately ripped (confidence 6) [6A44D5C2]
Track 6 accurately ripped (confidence 6) [849F2375]
Track 7 accurately ripped (confidence 6) [A2DB2D74]
Track 8 accurately ripped (confidence 6) [0EDEBA0D]
Track 9 accurately ripped (confidence 6) [61A9207C]
Track 10 accurately ripped (confidence 6) [DDD6C6FF]
Track 11 accurately ripped (confidence 6) [7AFEE4B8]
Track 12 accurately ripped (confidence 6) [319ABCBB]
Track 13 accurately ripped (confidence 6) [0040DDEC]
Track 14 accurately ripped (confidence 6) [5712E241]
Track 15 accurately ripped (confidence 6) [1E05556A]
Track 16 accurately ripped (confidence 6) [E62E82CC]
Track 17 accurately ripped (confidence 6) [EB88D20F]
Track 18 accurately ripped (confidence 6) [DD3245F8]
Track 19 accurately ripped (confidence 6) [D34BB79A]
Track 20 accurately ripped (confidence 6) [349D0B7F]
Track 21 accurately ripped (confidence 6) [70890338]
Track 22 accurately ripped (confidence 6) [41532807]

All tracks accurately ripped

End of status report

[CUETools log; Date: 19.10.2017 13:55:39; Version: 2.1.4]
Pregap length 00:00:32.
[CTDB TOCID: TOE9LpSE_LKopp7EkR4iy21V3Ic-] found.
Track | CTDB Status
1 | (20/21) Accurately ripped
2 | (20/21) Accurately ripped
3 | (20/21) Accurately ripped
4 | (20/21) Accurately ripped
5 | (20/21) Accurately ripped
6 | (20/21) Accurately ripped
7 | (20/21) Accurately ripped
8 | (20/21) Accurately ripped
9 | (20/21) Accurately ripped
10 | (20/21) Accurately ripped
11 | (20/21) Accurately ripped
12 | (20/21) Accurately ripped
13 | (20/21) Accurately ripped
14 | (20/21) Accurately ripped
15 | (20/21) Accurately ripped
16 | (20/21) Accurately ripped
17 | (20/21) Accurately ripped
18 | (20/21) Accurately ripped
19 | (20/21) Accurately ripped
20 | (20/21) Accurately ripped
21 | (19/21) Accurately ripped
22 | (20/21) Accurately ripped
[AccurateRip ID: 001e5d5a-01d9f27e-48088616] found.
Track [ CRC | V2 ] Status
01 [0cce8f08|5d5ecb8d] (09+12/28) Accurately ripped
02 [89e57444|e1cc4154] (09+12/28) Accurately ripped
03 [68c95469|e2ed7608] (09+12/28) Accurately ripped
04 [0c3bc2e3|ebd08afe] (09+13/29) Accurately ripped
05 [6a44d5c2|3d6ff329] (09+13/29) Accurately ripped
06 [849f2375|2e9618cc] (09+12/28) Accurately ripped
07 [a2db2d74|6968c2f3] (09+13/29) Accurately ripped
08 [0edeba0d|104138a0] (09+13/29) Accurately ripped
09 [61a9207c|171e143c] (09+12/28) Accurately ripped
10 [ddd6c6ff|ebb51636] (09+12/28) Accurately ripped
11 [7afee4b8|2554feae] (09+12/28) Accurately ripped
12 [319abcbb|e42f039e] (09+12/28) Accurately ripped
13 [0040ddec|f49e3fe8] (09+12/28) Accurately ripped
14 [5712e241|c8f06ed2] (09+12/28) Accurately ripped
15 [1e05556a|ad84f69b] (09+12/28) Accurately ripped
16 [e62e82cc|6b519e7c] (09+12/28) Accurately ripped
17 [eb88d20f|92aa90d0] (09+12/28) Accurately ripped
18 [dd3245f8|f2a81875] (09+12/28) Accurately ripped
19 [d34bb79a|3672b3f8] (09+12/28) Accurately ripped
20 [349d0b7f|57304206] (09+12/28) Accurately ripped
21 [70890338|e356c850] (09+12/28) Accurately ripped
22 [41532807|469e1e47] (09+12/28) Accurately ripped
Offsetted by 1447:
01 [0792eb19] (05/28) Accurately ripped
02 [87be5759] (05/28) Accurately ripped
03 [a3364792] (05/28) Accurately ripped
04 [7f976b4e] (05/29) Accurately ripped
05 [2b0d6fcf] (05/29) Accurately ripped
06 [f19c9890] (05/28) Accurately ripped
07 [5110785d] (05/29) Accurately ripped
08 [9bef246c] (05/29) Accurately ripped
09 [b58558d9] (05/28) Accurately ripped
10 [bfbb78c1] (05/28) Accurately ripped
11 [eceb5bd5] (05/28) Accurately ripped
12 [3fdba2a2] (05/28) Accurately ripped
13 [daa47d7d] (05/28) Accurately ripped
14 [5dabb6d9] (05/28) Accurately ripped
15 [784d9f48] (05/28) Accurately ripped
16 [f111a826] (05/28) Accurately ripped
17 [ac282846] (05/28) Accurately ripped
18 [854d3e44] (05/28) Accurately ripped
19 [17f6d8bd] (05/28) Accurately ripped
20 [adb8aa1f] (05/28) Accurately ripped
21 [2341eee8] (05/28) Accurately ripped
22 [c0b0d02a] (05/28) Accurately ripped

Track Peak [ CRC32 ] [W/O NULL] [ LOG ]
– 91,5 [23577279] [35A5308D] CRC32
01 81,6 [6DAFB03B] [95610A3F]
02 89,2 [9510FF5E] [D95A5CD2]
03 80,7 [1EDEE840] [C9F46524]
04 74,0 [982B7CE6] [512E238B]
05 61,3 [E3705C87] [49EA203E]
06 71,1 [041524AC] [1F2F02AC]
07 84,1 [88C83DDD] [0A6B3E4E]
08 52,5 [B3ABA80D] [5F964A3B]
09 90,4 [8C9DDE7E] [79D77E18]
10 63,4 [6327393B] [A5E1ECCA]
11 85,5 [3B09A82A] [AA17C84F]
12 23,2 [F3541EFB] [CAB18A99]
13 50,4 [4E597DAC] [82A32C9C]
14 91,5 [AA281FFC] [9AC1E397]
15 82,4 [F7411345] [58EE2A9C]
16 66,1 [978F99B8] [23D7B1B7]
17 80,2 [07A8736D] [9DA0CE45]
18 81,1 [726B3BE1] [EFFA44CA]
19 43,0 [C11C4848] [E230A6BE]
20 85,6 [CE984852] [170A7428]
21 61,2 [95DB1963] [7F434997]
22 87,5 [A487EBB2] [C9CF059D]

Thanks to the original releaser

See also:

Tangerine Dream - The Electronic Journey (2010) [10CD Box Set]
Tangerine Dream - The Dream Roots Collection [5CD Box Set] (1996)
Tangerine Dream - 2 Studio Albums (1971-1973) [Reissue 2011]
Tangerine Dream - Phaedra (1974) [Original Edition]
Tangerine Dream - Phaedra (1974) [Definitive Edition 1995]
Tangerine Dream - Ricochet (1975) [Definitive Edition 1995]
Tangerine Dream - Stratosfear (1976) [Definitive Edition 1995]
Tangerine Dream - Encore (1977) [Original Edition]
Tangerine Dream - Wavelength (1983)
Tangerine Dream - Poland - The Warsaw Concert (1984) [Reissue 2011]
Tangerine Dream - Green Desert (1986) [Reissue 2003]
Tangerine Dream - Underwater Sunlight (1986)
Tangerine Dream - Melrose (1990)
Tangerine Dream - The Story Of Tangerine Dream (1992)
Tangerine Dream - Quinoa (1992) [Reissue 2009]
Tangerine Dream - Turn of the Tides (1994)
Tangerine Dream - Tyranny Of Beauty (1995)
Tangerine Dream - Antique Dreams (2000)
Tangerine Dream - The Bootleg Box Set Vol. 1 [7CD] (2003)
Tangerine Dream - Arizona Live '92 (2004) [Reissue 2009]
Tangerine Dream - Blue Dawn (2006)
Tangerine Dream - The Essential Tangerine Dream (2006)
Tangerine Dream - The London Eye Concert (2010)
Tangerine Dream - Edgar Allan Poe's The Island Of The Fay (2011)
Tangerine Dream - The Official Bootleg Series Vol.1 [4CD Box Set] (2015)
Tangerine Dream - Live At Coventry Cathedral 1975 (2007) [DVD]
Tangerine Dream - Madcap's Flaming Duty (2007) [DVD]
Tangerine Dream - 35th Phaedra Anniversary Concert (2007) [2DVD]
Edgar Froese - 2 Albums (1974-1995)
Edgar Froese - Ages (1978) [Reissue 1997]
Edgar Froese - Pinnacles (1983)