Subcategories

Tangerine Dream - Deadly Care (OST) (1992) (Repost)

Posted By: gribovar
Tangerine Dream - Deadly Care (OST) (1992) (Repost)

Tangerine Dream - Deadly Care (OST) (1992)
EAC Rip | FLAC (image+.cue+log) - 167 MB | MP3 CBR 320 kbps (LAME 3.93) - 86 MB | Covers (9 MB) included
Genre: Progressive Electronic | RAR 3% Rec. | Label: Silva Screen Records (FILMCD 121)

Another TD soundtrack that saw the daylight years after its recording was Deadly Care, music for a TV movie that was composed and recorded back in 1987 by Edgar Froese and Chris Franke but not released until 1992. The CD contains all of the music as supplied by TD to Universal Television. "Deadly Care" is a haunting, detached and at times a melancholic soundtrack. It's dark soundscapes are apropos and the quality of the musical performances are very refined. Edgar Froese and friends entice listeners with an ominously profound, gloomy but high quality CD, namely, Deadly Care.
Tracklist:
01. Deadly Care Main Theme
02. Paddles / Stolen Pills
03. A Strong Drink / A Bad Morning
04. Wasted And Sick
05. Hope For The Future
06. The Hospital
07. In Bed
08. Annie & Father
09. More Pills
10. In The Head Nurse's Office / At The Father's Grave
11. Clean And Sober

Total time: 32:30

Exact Audio Copy V0.99 prebeta 5 from 4. May 2009

EAC extraction logfile from 19. January 2011, 15:06

Tangerine Dream / Deadly Care

Used drive : ASUS DRW-22B2L Adapter: 0 ID: 0

Read mode : Secure
Utilize accurate stream : Yes
Defeat audio cache : Yes
Make use of C2 pointers : No

Read offset correction : 6
Overread into Lead-In and Lead-Out : No
Fill up missing offset samples with silence : Yes
Delete leading and trailing silent blocks : No
Null samples used in CRC calculations : Yes
Used interface : Native Win32 interface for Win NT & 2000

Used output format : Internal WAV Routines
Sample format : 44.100 Hz; 16 Bit; Stereo


TOC of the extracted CD

Track | Start | Length | Start sector | End sector
––––––––––––––––––––––––––––-
1 | 0:00.33 | 4:56.65 | 33 | 22297
2 | 4:57.23 | 2:55.72 | 22298 | 35494
3 | 7:53.20 | 2:05.15 | 35495 | 44884
4 | 9:58.35 | 1:24.55 | 44885 | 51239
5 | 11:23.15 | 4:04.25 | 51240 | 69564
6 | 15:27.40 | 5:44.40 | 69565 | 95404
7 | 21:12.05 | 1:54.23 | 95405 | 103977
8 | 23:06.28 | 1:28.35 | 103978 | 110612
9 | 24:34.63 | 1:28.72 | 110613 | 117284
10 | 26:03.60 | 1:28.68 | 117285 | 123952
11 | 27:32.53 | 4:57.57 | 123953 | 146284


Range status and errors

Selected range

Filename D:\EAC\Tangerine Dream - Deadly Care.wav

Peak level 74.4 %
Range quality 100.0 %
Test CRC 12E08ACF
Copy CRC 12E08ACF
Copy OK

No errors occurred


AccurateRip summary

Track 1 accurately ripped (confidence 7) [B254070C]
Track 2 accurately ripped (confidence 7) [D564910E]
Track 3 accurately ripped (confidence 7) [E2C81655]
Track 4 accurately ripped (confidence 7) [4CBAECE4]
Track 5 accurately ripped (confidence 7) [8E11A6B6]
Track 6 accurately ripped (confidence 7) [123ED63D]
Track 7 accurately ripped (confidence 7) [C298F00F]
Track 8 accurately ripped (confidence 7) [2897A801]
Track 9 accurately ripped (confidence 7) [3DE9682D]
Track 10 accurately ripped (confidence 7) [3171B464]
Track 11 accurately ripped (confidence 7) [3F504966]

All tracks accurately ripped

End of status report

[CUETools log; Date: 07.01.2018 0:00:17; Version: 2.1.4]
Pregap length 00:00:33.
[CTDB TOCID: iY9bfih2hcQLyUWSCAWgKxtGXxc-] found.
Track | CTDB Status
1 | (14/14) Accurately ripped
2 | (14/14) Accurately ripped
3 | (14/14) Accurately ripped
4 | (14/14) Accurately ripped
5 | (14/14) Accurately ripped
6 | (14/14) Accurately ripped
7 | (14/14) Accurately ripped
8 | (14/14) Accurately ripped
9 | (12/14) Accurately ripped, or (2/14) differs in 1 samples @01:22:21
10 | (14/14) Accurately ripped
11 | (14/14) Accurately ripped
[AccurateRip ID: 000e0dcb-0076e245-a8079e0b] found.
Track [ CRC | V2 ] Status
01 [b254070c|8616d079] (09+09/18) Accurately ripped
02 [d564910e|bd08776f] (09+09/18) Accurately ripped
03 [e2c81655|baa4a0e3] (09+09/18) Accurately ripped
04 [4cbaece4|db3a720a] (09+09/18) Accurately ripped
05 [8e11a6b6|d0c9ecbc] (09+09/18) Accurately ripped
06 [123ed63d|3a6479e2] (09+09/18) Accurately ripped
07 [c298f00f|b85a1112] (09+09/18) Accurately ripped
08 [2897a801|76c63c2a] (09+09/18) Accurately ripped
09 [3de9682d|47ee5652] (09+09/18) Accurately ripped
10 [3171b464|e2db9cae] (09+09/18) Accurately ripped
11 [3f504966|2cc10e9d] (09+08/17) Accurately ripped

Track Peak [ CRC32 ] [W/O NULL] [ LOG ]
– 74,4 [12E08ACF] [A93396AE] CRC32
01 57,7 [57ED6A10] [322BD746]
02 52,7 [13C2F88C] [FFE3E9A8]
03 45,8 [F7D3DA08] [F7FD2AB2]
04 22,3 [E1823EBD] [0CF74381]
05 39,6 [D17679B7] [F2B462CB]
06 62,2 [862EF790] [15A8FF99]
07 74,4 [6DE6B261] [EBF52B9D]
08 26,5 [469BE7ED] [92A96CBC]
09 20,6 [EA831529] [201280C1]
10 53,2 [0F34C5E4] [DA295A09]
11 45,8 [1992F177] [83189187]

Thanks to original releaser

See also:

Tangerine Dream - The Electronic Journey (2010) [10CD Box Set]
Tangerine Dream - The Dream Roots Collection [5CD Box Set] (1996)
Tangerine Dream - Electronic Meditation (1970) [Reissue 1996]
Tangerine Dream - 2 Studio Albums (1971-1973) [Reissue 2011]
Tangerine Dream - Phaedra (1974) [Original Edition]
Tangerine Dream - Phaedra (1974) [Definitive Edition 1995]
Tangerine Dream - Ricochet (1975) [Definitive Edition 1995]
Tangerine Dream - Stratosfear (1976) [Definitive Edition 1995]
Tangerine Dream - Encore (1977) [Original Edition]
Tangerine Dream - Pergamon (1980) [Reissue 1996]
Tangerine Dream - Logos Live (1982) [Definitive Edition 1995]
Tangerine Dream - Wavelength (1983)
Tangerine Dream - Poland - The Warsaw Concert (1984) [Reissue 2011]
Tangerine Dream - Green Desert (1986) [Reissue 2003]
Tangerine Dream - Underwater Sunlight (1986)
Tangerine Dream - Legend (OST) (1986) [Reissue 1995]
Tangerine Dream - Optical Race (1988)
Tangerine Dream - Live Miles (1988) [Reissue 2003]
Tangerine Dream - Lily On The Beach (1989)
Tangerine Dream - Melrose (1990)
Tangerine Dream - Dead Solid Perfect (OST) (1990)
Tangerine Dream - The Park Is Mine (OST) (1991)
Tangerine Dream - The Story Of Tangerine Dream (1992)
Tangerine Dream - Quinoa (1992) [Reissue 2009]
Tangerine Dream - Turn of the Tides (1994)
Tangerine Dream - Catch Me If You Can (OST) (1994)
Tangerine Dream - Tyranny Of Beauty (1995)
Tangerine Dream - Zoning (OST) (1996)
Tangerine Dream - The Hollywood Years Vol. 1 (1998)
Tangerine Dream - The Hollywood Years Vol. 2 (1998)
Tangerine Dream - Antique Dreams (2000)
Tangerine Dream - Soundmill Navigator (2000)
Tangerine Dream - The Bootleg Box Set Vol. 1 [7CD] (2003)
Tangerine Dream - Purgatorio (2004)
Tangerine Dream - Arizona Live '92 (2004) [Reissue 2009]
Tangerine Dream - Cleveland - June 24th 1986 (2005)
Tangerine Dream - Blue Dawn (2006)
Tangerine Dream - The Essential Tangerine Dream (2006)
Tangerine Dream - Plays Tangerine Dream (2006)
Tangerine Dream - Views From A Red Train (2008)
Tangerine Dream - Booster (2008)
Tangerine Dream - Booster Vol. 2 (2008)
Tangerine Dream - The Anthology Decades - The Space Years Volume One (2008)
Tangerine Dream - DM V (Dream Mixes V) (2010)
Tangerine Dream - The London Eye Concert (2010)
Tangerine Dream - Edgar Allan Poe's The Island Of The Fay (2011)
Tangerine Dream - The Virgin Years 1974-1978 [3CD Box Set] (2011)
Tangerine Dream - The Official Bootleg Series Vol.1 [4CD Box Set] (2015)
Tangerine Dream - Live At Coventry Cathedral 1975 (2007) [DVD]
Tangerine Dream - Madcap's Flaming Duty (2007) [DVD]
Tangerine Dream - 35th Phaedra Anniversary Concert (2007) [2DVD]
Edgar Froese - 2 Albums (1974-1995)
Edgar Froese - Ages (1978) [Reissue 1997]
Edgar Froese - Pinnacles (1983)