Subcategories

Tangerine Dream - Le Parc (1985)

Posted By: technick
Tangerine Dream - Le Parc (1985)

Tangerine Dream - Le Parc (1985)
EAC: ape (image) + cue + log | RAR, 3%, 221,99 MB | mp3, 320 kbps | RAR, 3%, 98,40 MB | Scans | RAR, 3%, 12,22 MB
Label: Zomba Records | Cat №: WD75215

"Le Parc" is an album by Tangerine Dream, which was released in May, 1985. Each track on the album is inspired by a particular park from somewhere around the world. "Le Parc" marked Tangerine Dream's last studio release with Johannes Schmoelling; he left the band in October 1985.
In another way, too, "Le Parc" was a turning point in the musical history of Tangerine Dream: the much-beloved atmospheric or "spacey" 20-minute long epics had gone in favour of nine quite short titles, the longest clocking in at barely over six minutes.
Exact Audio Copy V0.99 prebeta 5 from 4. May 2009

EAC extraction logfile from 14. December 2009, 12:30

Tangerine Dream / Le Parc

Used drive : ASUS DRW-24B1ST Adapter: 3 ID: 0

Read mode : Secure
Utilize accurate stream : Yes
Defeat audio cache : Yes
Make use of C2 pointers : No

Read offset correction : 6
Overread into Lead-In and Lead-Out : No
Fill up missing offset samples with silence : Yes
Delete leading and trailing silent blocks : No
Null samples used in CRC calculations : Yes
Used interface : Installed external ASPI interface

Used output format : Monkey's Audio Lossless Encoder v3.99 DLL
Sample format : High Lossless Compression


TOC of the extracted CD

Track | Start | Length | Start sector | End sector
––––––––––––––––––––––––––––-
1 | 0:00.00 | 5:29.60 | 0 | 24734
2 | 5:29.60 | 3:42.15 | 24735 | 41399
3 | 9:12.00 | 5:17.17 | 41400 | 65191
4 | 14:29.17 | 3:23.15 | 65192 | 80431
5 | 17:52.32 | 4:34.43 | 80432 | 101024
6 | 22:27.00 | 3:25.32 | 101025 | 116431
7 | 25:52.32 | 3:55.40 | 116432 | 134096
8 | 29:47.72 | 5:43.48 | 134097 | 159869
9 | 35:31.45 | 6:12.20 | 159870 | 187789


Range status and errors

Selected range

Filename H:\AUDIO - II\Audio CD - II\ Instrumental & Soundtrack (исполнители)\ Tangerine Dream - Le Parc\Tangerine Dream - Le Parc.ape

Peak level 96.9 %
Range quality 100.0 %
Test CRC FF8C34D5
Copy CRC FF8C34D5
Copy OK

No errors occurred


AccurateRip summary

Track 1 accurately ripped (confidence 15) [975C58FE]
Track 2 accurately ripped (confidence 15) [2AE590E4]
Track 3 accurately ripped (confidence 15) [B255F760]
Track 4 accurately ripped (confidence 15) [8025D196]
Track 5 accurately ripped (confidence 15) [732F2EA8]
Track 6 accurately ripped (confidence 16) [B503F7E8]
Track 7 accurately ripped (confidence 15) [B4982CF0]
Track 8 accurately ripped (confidence 15) [86982E2F]
Track 9 accurately ripped (confidence 14) [978CAA06]

All tracks accurately ripped

End of status report

Tracklist:
01. Bois De Boulogne (Paris) [05:29]
02. Central Park (New York) [03:42]
03. Gaudi Park (Guell Garden Barcelona) [05:17]
04. Tiergarten (Berlin) [03:23]
05. Zen Garden (Ryoanji Temple Kyoto) [04:34]
06. Le Parc (L.A. - Streethawk) [03:25]
07. Hyde Park (London) [03:55]
08. The Cliffs of Sydney (Sydney) [05:43]
09. Yellowstone Park (Rocky Mountains) [06:12]
–––––––––––––
Total time: [41:45]
No mirrors, please!
Not my rip! All Thanks to original ripper!
NitroFlare: ape, mp3, scans.
pass: kermith