Subcategories

Tarja: Collection (2007 - 2016) [Vinyl Rip 16/44 & mp3-320]

Posted By: v3122
Tarja: Collection (2007 - 2016) [Vinyl Rip 16/44 & mp3-320]

Tarja: Collection (2007 - 2016)
5 x Vinyl Rip 16/44 | Flac(Image + Cue) > 2335 Mb
MP3 CBR 320Kbps > 879 Mb | Artwork(png) > 1864 Mb
Power / Symphonic Metal / Vocal

Tarja Soile Susanna Turunen-Cabuli (born 17 August 1977), known professionally as Tarja Turunen or simply Tarja, is a Finnish singer-songwriter. She is a soprano and has a vocal range of three octaves.

Turunen studied singing at Sibelius Academy and Hochschule für Musik Karlsruhe. She is a professional classical lied singer, and the former lead vocalist of the Finnish symphonic metal band Nightwish, which she founded with Tuomas Holopainen and Emppu Vuorinen in 1996. Their combination of hard and fast guitar riffs with Turunen's dramatic, "operatic" lead vocals quickly achieved critical and commercial popularity. Their symphonic metal style, soon dubbed "opera metal", inspired many other metal bands and performers.

Turunen was dismissed from the band on 21 October 2005 (just after the performance of the band's End of an Era concert) for personal reasons. She started her solo career in 2006 with the release of a Christmas album called Henkäys ikuisuudesta. In 2007, Turunen released My Winter Storm, an album featuring various styles including symphonic metal, and started the Storm World Tour. Turunen released her third album, What Lies Beneath, in 2010. She performed several concerts in Europe, playing in metal festivals including the Graspop Metal Meeting and the Wacken Open Air, before starting the What Lies Beneath World Tour, which lasted until April 2012. Her first live DVD Act I was filmed during this tour on 30 and 31 March 2012 in Rosario, Argentina. Act I was released in August 2012.[2] Turunen started the Colours in the Dark World Tour in October 2013 to promote her new album Colours in the Dark. Her second live DVD was filmed during the events of Beauty and the Beat and was released in May.

In September 2015, Tarja Turunen released her first classical studio album, Ave Maria – En Plein Air. Her latest album was released in August 2016 The Shadow Self with a prequel EP The Brightest Void released on June 3…

~ wiki
Tarja: Collection (2007 - 2016) [Vinyl Rip 16/44 & mp3-320]

Tarja: Collection (2007 - 2016):

Tarja: Collection (2007 - 2016) [Vinyl Rip 16/44 & mp3-320]

Tracklist VNL01 - My Winter Storm 2007:
Universal Music, 0602517551657

01. Ite, missa est
02. I Walk Alone
03. Lost Northern Star
04. Seeking for the Reign
05. The Reign
06. The Esacpe of the Doll
07. My Little Phoenix
08. Boy and the Ghost
09. Sing for Me
10. Oasis
11. Poison
12. Our Great Divide
13. Sunset
14. Damned and Divine
15. Die Alive
16. The Seer (Deleted Scene)
17. Minor Heaven
18. Ciaran's Well
19. Calling Grace
20. I Walk Alone (The Tweaker Remix)

foobar2000 1.2.9 / Dynamic Range Meter 1.1.1
log date: 2017-11-27 06:48:17

––––––––––––––––––––––––––––––––––––––––
Analyzed: Tarja / My Winter Storm
––––––––––––––––––––––––––––––––––––––––

DR Peak RMS Duration Track
––––––––––––––––––––––––––––––––––––––––
DR10 -8.66 dB -25.49 dB 0:27 01-Ite, Missa Est
DR11 -0.56 dB -14.81 dB 3:52 02-I Walk Alone
DR12 -0.50 dB -14.71 dB 4:22 03-Lost Northern Star
DR9 -8.59 dB -22.36 dB 0:58 04-Seeking For The Reign
DR12 -0.62 dB -15.84 dB 4:06 05-The Reign
DR12 -7.00 dB -22.39 dB 0:33 06-The Escape Of The Doll
DR11 0.00 dB -14.40 dB 4:02 07-My Little Phoenix
DR12 0.00 dB -17.47 dB 4:34 08-Boy And The Ghost
DR11 -0.60 dB -15.04 dB 4:14 09-Sing For Me
DR12 -4.58 dB -20.46 dB 5:07 10-Oasis
DR11 -0.29 dB -14.14 dB 3:56 11-Poison
DR11 -1.52 dB -16.95 dB 5:06 12-Our Great Divide
DR9 -12.98 dB -27.52 dB 0:36 13-Sunset
DR12 -0.30 dB -16.47 dB 4:18 14-Damned And Divine
DR11 -0.49 dB -13.90 dB 4:00 15-Die Alive
DR12 -0.82 dB -15.36 dB 4:18 16-The Seer (Deleted Scene)
DR11 -0.07 dB -16.27 dB 3:54 17-Minor Heaven
DR10 -0.55 dB -12.61 dB 3:39 18-Ciarán's Well
DR11 -5.09 dB -19.79 dB 2:47 19-Calling Grace
DR11 -1.00 dB -15.41 dB 5:30 20-I Walk Alone (The Tweaker Remix)
––––––––––––––––––––––––––––––––––––––––

Number of tracks: 20
Official DR value: DR11

Samplerate: 44100 Hz
Channels: 2
Bits per sample: 16
Bitrate: 817 kbps
Codec: FLAC
================================================================================



Tarja: Collection (2007 - 2016) [Vinyl Rip 16/44 & mp3-320]

Tracklist VNL02 - Act I 2012:
Ear Music, 0208136ERE

01. Anteroom Of Death
02. My Little Phoenix
03. Dark Star
04. Naiad
05. Falling Awake
06. I Walk Alone
07. Little Lies
08. Into The Sun (previously unreleased)
09. Nemo (Nightwish)
10. Never Enough (previously unreleased)
11. Still Of The Night (Whitesnake)
12. In For A Kill
13. Boy And The Ghost
14. Lost Northern Star
15. Ciaran's Well
16. Tired Of Being Alone (written with Schiller)
17. Where Were You Last Night / Heaven Is A Place On Earth / Livin' On A Prayer (Medley)
18. Underneath
19. Oasis / The Archive Of Lost Dreams
20. Crimson Deep
21. The Phantom Of The Opera (Andrew Lloyd Webber)
22. Die Alive
23. Until My Last Breath
24. Over The Hills And Far Away (Gary Moore)

foobar2000 1.2.9 / Dynamic Range Meter 1.1.1
log date: 2017-11-27 06:48:44

––––––––––––––––––––––––––––––––––––––––
Analyzed: Tarja / Act I
––––––––––––––––––––––––––––––––––––––––

DR Peak RMS Duration Track
––––––––––––––––––––––––––––––––––––––––
DR11 0.00 dB -14.29 dB 4:21 01-Anteroom Of Death
DR11 0.00 dB -13.70 dB 4:43 02-My Little Phoenix
DR11 -0.31 dB -12.70 dB 4:44 03-Dark Star
DR10 0.00 dB -14.23 dB 7:34 04-Naiad
DR11 -0.03 dB -12.25 dB 5:16 05-Falling Awake
DR11 -0.53 dB -15.32 dB 4:28 06-I Walk Alone
DR11 -0.21 dB -12.51 dB 4:23 07-Little Lies
DR10 -0.75 dB -14.78 dB 4:32 08-Into The Sun
DR10 0.00 dB -12.31 dB 5:03 09-Nemo
DR11 0.00 dB -12.50 dB 4:56 10-Never Enough
DR11 -1.01 dB -13.41 dB 6:41 11-Still Of The Night
DR11 -0.90 dB -14.51 dB 5:05 12-In For A Kill
DR12 -0.50 dB -18.62 dB 4:29 13-Boy And The Ghost
DR11 0.00 dB -12.55 dB 4:38 14-Lost Northern Star
DR10 -0.38 dB -12.21 dB 3:41 15-Ciaran's Well
DR11 -0.67 dB -17.27 dB 5:58 16-Tired Of Being Alone
DR11 0.00 dB -12.47 dB 4:06 17-Where Were You Last Night / Heaven Is A Place On Earth / Livin' On A Prayer (Medley)
DR11 -2.26 dB -17.45 dB 5:40 18-Underneath
DR12 -4.16 dB -19.74 dB 4:18 19-Oasis / The Archive Of Lost Dreams
DR11 0.00 dB -13.38 dB 7:34 20-Crimson Deep
DR10 0.00 dB -13.31 dB 6:49 21-The Phantom Of The Opera
DR11 0.00 dB -12.66 dB 4:11 22-Die Alive
DR11 0.00 dB -13.10 dB 4:40 23-Until My Last Breath
DR10 -0.41 dB -12.52 dB 6:08 24-Over The Hills And Far Away (Gary Moore)
––––––––––––––––––––––––––––––––––––––––

Number of tracks: 24
Official DR value: DR11

Samplerate: 44100 Hz
Channels: 2
Bits per sample: 16
Bitrate: 902 kbps
Codec: FLAC
================================================================================



Tarja: Collection (2007 - 2016) [Vinyl Rip 16/44 & mp3-320]

Tracklist VNL03 - Colours In The Dark 2013:
Ear Music, 0208797ERE

01. Victim of Ritual
02. 500 Letters
03. Never Enough
04. Lucid Dreamer
05. Mystique Voyage
06. Darkness (Peter Gabriel cover)
07. Deliverance
08. Neverlight
09. Until Silence
10. Medusa (feat. Justin Furstenfeld)

foobar2000 1.2.9 / Dynamic Range Meter 1.1.1
log date: 2017-11-27 06:49:02

––––––––––––––––––––––––––––––––––––––––
Analyzed: Tarja / Colours In The Dark
––––––––––––––––––––––––––––––––––––––––

DR Peak RMS Duration Track
––––––––––––––––––––––––––––––––––––––––
DR11 0.00 dB -13.13 dB 5:57 01-Victim Of Ritual
DR11 -0.25 dB -13.45 dB 4:22 02-500 Letters
DR11 0.00 dB -13.13 dB 5:22 03-Never Enough
DR10 0.00 dB -14.40 dB 7:31 04-Lucid Dreamer
DR10 -0.54 dB -14.55 dB 7:11 05-Mystique Voyage
DR12 0.00 dB -13.71 dB 5:47 06-Darkness
DR10 -0.16 dB -12.67 dB 7:40 07-Deliverance
DR11 -0.02 dB -13.01 dB 4:30 08-Neverlight
DR11 0.00 dB -14.91 dB 5:03 09-Until Silence
DR11 0.00 dB -13.25 dB 8:14 10-Medusa
––––––––––––––––––––––––––––––––––––––––

Number of tracks: 10
Official DR value: DR11

Samplerate: 44100 Hz
Channels: 2
Bits per sample: 16
Bitrate: 848 kbps
Codec: FLAC
================================================================================



Tarja: Collection (2007 - 2016) [Vinyl Rip 16/44 & mp3-320]

Tracklist VNL04 - The Brightest Void 2016:
Ear Music, 0211073EMU

01. No Bitter End
02. Your Heaven And Your Hell
03. Eagle Eye
04. An Empty Dream
05. Witch Hunt
06. Shameless
07. House of Wax
08. Goldfinger (main theme James Bond)
09. Paradise (What About Us)

foobar2000 1.2.9 / Dynamic Range Meter 1.1.1
log date: 2017-11-27 06:49:15

––––––––––––––––––––––––––––––––––––––––
Analyzed: Tarja / The Brightest Void
––––––––––––––––––––––––––––––––––––––––

DR Peak RMS Duration Track
––––––––––––––––––––––––––––––––––––––––
DR12 -0.03 dB -13.30 dB 3:49 01-No Bitter End
DR11 0.00 dB -14.31 dB 5:35 02-Your Heaven and Your Hell
DR11 -0.11 dB -14.08 dB 5:02 03-Eagle Eye
DR13 -0.19 dB -17.43 dB 5:02 04-An Empty Dream
DR12 -2.15 dB -18.67 dB 5:13 05-Witch Hunt
DR12 -0.27 dB -13.30 dB 3:44 06-Shameless
DR12 -0.65 dB -15.63 dB 5:48 07-House of Wax
DR11 -0.14 dB -13.91 dB 4:15 08-Goldfinger
DR12 -0.06 dB -14.12 dB 5:21 09-Paradise (What About Us?)
––––––––––––––––––––––––––––––––––––––––

Number of tracks: 9
Official DR value: DR12

Samplerate: 44100 Hz
Channels: 2
Bits per sample: 16
Bitrate: 830 kbps
Codec: FLAC
================================================================================



Tarja: Collection (2007 - 2016) [Vinyl Rip 16/44 & mp3-320]

Tracklist VNL05 - The Shadow Self 2016:
Ear Music, 0211071EMU

01. Innocence
02. Demons in You
03. No Bitter End
04. Love to Hate
05. Supremacy
06. The Living End
07. Diva
08. Eagle Eye
09. Undertaker
10. Calling from the Wild
11. Too Many

foobar2000 1.2.9 / Dynamic Range Meter 1.1.1
log date: 2017-11-27 06:49:31

––––––––––––––––––––––––––––––––––––––––
Analyzed: Tarja / The Shadow Self
––––––––––––––––––––––––––––––––––––––––

DR Peak RMS Duration Track
––––––––––––––––––––––––––––––––––––––––
DR11 0.00 dB -13.57 dB 6:04 01-Innocence
DR11 -0.40 dB -12.81 dB 4:44 02-Demons In You
DR11 -0.30 dB -13.66 dB 4:27 03-No Bitter End
DR11 -0.01 dB -14.94 dB 5:56 04-Love To Hate
DR11 0.00 dB -14.17 dB 5:03 05-Supremacy
DR11 -1.20 dB -16.19 dB 4:38 06-The Living End
DR11 -0.14 dB -14.33 dB 5:46 07-Diva
DR11 -0.28 dB -13.45 dB 4:36 08-Eagly Eye
DR11 -0.33 dB -14.04 dB 6:42 09-Undertaker
DR11 -0.27 dB -13.70 dB 5:13 10-Calling From The Wild
DR11 -0.09 dB -15.40 dB 12:58 11-Too Many
––––––––––––––––––––––––––––––––––––––––

Number of tracks: 11
Official DR value: DR11

Samplerate: 44100 Hz
Channels: 2
Bits per sample: 16
Bitrate: 805 kbps
Codec: FLAC
================================================================================




Original ripper: Oleg-Leshiy
Original format: 24/192
Vinyl Condition: Mint
Cleaning:
Direct Drive Turntable: Dual 505-4+AT-OC9/III (My Winter Storm), Pioneer PL-7L+ZYX R1000 Airy 3 gold (others)
Cartridge:
Amplifier: PS audio Phono Stage + Tube-Preamp (Telefunken)
ADC: Motu mk3 (My Winter Storm, Colours In The Dark), TASCAM HS-P82 (Act 1, The Brightest Void, The Shadow Self)
Postprocessing:

Downsampled to 16/44

Roger Waters: Vinyl Collection (1970 - 1992) [Vinyl Rip 16/44 & mp3-320] [Vinyl Rip 16/44 & MP3-320]
David Gilmour - Rattle That Lock (2015) [Vinyl Rip 16/44 & mp3-320]
Depeche Mode: Collection (1981 - 2013) [Vinyl Rip 16/44 & mp3-320]



Pink Floyd: Remastered Collection (1967 - 2016) [Vinyl Rip 16/44 & mp3-320]
Sade: Discography (1984 - 2010) [Vinyl Rip 16/44 & MP3-320]
Deep Purple: Collection (1968 - 2017) [Vinyl Rip 16/44 & mp3-320]
Queen: Collection (1973 - 1995) [Vinyl Rip 16/44 & MP3-320]
The Cars: Collection (1978 - 1987) [Vinyl Rip 16/44 & mp3-320]
Metallica: Discography (1983 - 2016) [Vinyl Rip 16/44 & mp3-320]
Bon Jovi - The Albums (2017) [Vinyl Rip 16/44 & mp3-320, Limited Edition Box set]
The Doors: Collection (1967 - 1971) [Vinyl Rip 16/44 & mp3-320]
Black Sabbath: Collection (1970 - 2013) [Vinyl Rip 16/44 & mp3-320]
The Beatles: Discography (1963 - 1988) [Vinyl Rip 16/44 & mp3-320]
Joe Cocker: Collection (1969 - 1991) [Vinyl Rip 16/44 & mp3-320]
Frank Zappa: Collection (1969 - 1981) [Vinyl Rip 16/44 & mp3-320]
Ten Years After: Collection (1967 - 1974) [Vinyl Rip 16/44 & mp3-320]
Dire Straits: Discography (1978 - 1991) [Vinyl Rip 16/44 & mp3-320]
Bonnie Tyler: Collection (1977 - 1986) [Vinyl Rip 16/44 & mp3-320]
The Beatles: Stereo Vinyl Box Set (2012) [Vinyl Rip 16/44 & mp3-320]
Wolfgang Amadeus Mozart - Die Violin Konzerte (1968) [Vinyl Rip 16/44 & mp3-320]
Eagles - The Studio Albums 1972-1979 (2013) [Vinyl Rip 16/44 & mp3-320]
Pink Floyd: Discography (1967 - 2014) [Vinyl Rip 16/44 & mp3-320]
Led Zeppelin: Discography (1969 - 1982) [Vinyl Rip 16/44 & mp3-320]
Manowar: Collection (1982 - 2012) [Vinyl Rip 16/44 & mp3-320]
A-HA: Collection (1985-2015) [Vinyl Rip 16/44 & mp3-320]
Decca, Wiener Philharmoniker - 6 Classic Analogue LPs (2014) [Vinyl Rip 16/44]
Beethoven - Chicago Symphony Orchestra / Sir Georg Solti ‎– The Nine Symphonies (1975) [Vinyl Rip 16/44 & mp3-320]
Scorpions: Collection (1974 - 2015) [Vinyl Rip 16/44 & mp3-320]
Pink Floyd - Echoes: The Best Of Pink Floyd (2001) [Vinyl Rip 16/44]
Alice Cooper - Paranormal (2017) [Vinyl Rip 16/44 & mp3-320]
Manfred Mann's Earth Band: Collection (1967 - 2014) [Vinyl Rip 16/44 & mp3-320]
Rainbow: Discography (1975 - 1986) [Vinyl Rip 16/44 & mp3-320]
Amanda Lear: Collection (1978 - 1986) [Vinyl Rip 16/44 & mp3-320]
Space & Didier Marouani: Collection (1977 - 1987) [Vinyl Rip 16/44 & mp3-320]
Rod Stewart: Collection (1969 - 1988) [Vinyl Rip 16/44 & mp3-320]
Kraftwerk: Collection (1974 - 1991) [Vinyl Rip 16/44 & mp3-320]


Tarja or Tarja in my Blog

Download Tarja: Collection (2007 - 2016):