Subcategories

Tauk - Collection (2013-2018) {3 Albums}

Posted By: popsakov
Tauk - Collection (2013-2018) {3 Albums}

Tauk - Collection (2013-2018) {3 Albums}
3CD | EAC Rip | FLAC (Tracks) + Cue + m3u + Log ~ 1,18 Gb | MP3 CBR320 ~ 283 Mb
Full Scans ~ 179 Mb | 00:47:24 / 01:09:06 / 00:56:21 | RAR 5% Recovery
Progressive Rock / Jazz-Rock / Electric Jazz / Fusion / Jazz-Funk
© Tauk #TLC002 / TLC005 / TLC007

An adventurous fusion outfit, New York's Tauk emerged in the early 2010s playing a cross-pollinated brand of jazz, funk, prog, and instrumental jam band rock. Although friends since their teens, the bandmembers came to wider attention after Tauk toured with Umphrey's McGee and released their own 2013 album, Homunculus. Favorites on the jam band circuit, Tauk keep an intense live schedule, appearing at festivals around the globe.

Hailing from Oyster Bay, New York, Tauk feature guitarist Matt Jalbert, keyboardist Alric Carter, bassist Charlie Dolan, and drummer Isaac Teel. Friends since the seventh grade, Jalbert, Carter, and Dolan played together in various bands growing up before forming Tauk. After high school, each of them went on to study jazz, with Jalbert attending the University of Vermont, Dolan at New York University, and Carter at Northwestern University. After graduating, they reunited the band, releasing several albums and going through some lineup changes before solidifying in 2012 with the addition of Brooklyn-born drummer Teel.

A year later, the group released its first album with Teel, Homunculus. Around the same time, Tauk gained a wider audience after joining Umphrey's McGee on tour. More tours followed, including stints with Robert Randolph and Widespread Panic, as well as appearances at Bonnaroo, Electric Forest, and the Allman Brothers' Peach Music Festival. Along with their live schedule, they have continued to record regularly, issuing Collisions in 2014, Headroom in 2015, and Sir Nebula in 2016. The Shapeshifter I: Construct EP followed in 2018.
~ Matt Collar, All Music
Tauk - Collection (2013-2018) {3 Albums}


***************

Tauk - Collection (2013-2018) {3 Albums}

Track List - Homunkulus (2013):

01. Dead Signal [3:32]
02. Afro-Tonic [4:57]
03. Hello Narwhal [4:42]
04. The Spot [5:28]
05. The Chemist [3:24]
06. Dirty Mouth [5:57]
07. Curtain Calls [3:57]
08. Carpentino's Rebirth [5:43]
09. When In Doubt [4:26]
10. In the Basement of the Alamo [5:17]

Personnel:
Alric Carter - keyboards
Charlie Dolan - bass
Matt Jalbert - guitar
Isaac Teel - drums
with:
Fredo Ortis / percussion (2,3,5,6)

Exact Audio Copy V1.0 beta 4 from 7. December 2014

EAC extraction logfile from 8. October 2019, 14:38

Tauk / Homonculus

Used drive : ATAPI iHAS124 E Adapter: 1 ID: 0

Read mode : Secure
Utilize accurate stream : Yes
Defeat audio cache : Yes
Make use of C2 pointers : No

Read offset correction : 6
Overread into Lead-In and Lead-Out : No
Fill up missing offset samples with silence : Yes
Delete leading and trailing silent blocks : No
Null samples used in CRC calculations : Yes
Used interface : Native Win32 interface for Win NT & 2000
Gap handling : Appended to previous track

Used output format : User Defined Encoder
Selected bitrate : 768 kBit/s
Quality : High
Add ID3 tag : No
Command line compressor : C:\Program Files (x86)\flac-1.3.2-win\win64\flac.exe
Additional command line options : -8 -V -T "ARTIST=%artist%" -T "TITLE=%title%" -T "ALBUM=%albumtitle%" -T "DATE=%year%" -T "TRACKNUMBER=%tracknr%" -T "GENRE=%genre%" -T "COMMENT=ripped by vp_sunset" %source% -o %dest%


TOC of the extracted CD

Track | Start | Length | Start sector | End sector
––––––––––––––––––––––––––––-
1 | 0:00.00 | 3:32.06 | 0 | 15905
2 | 3:32.06 | 4:57.16 | 15906 | 38196
3 | 8:29.22 | 4:42.27 | 38197 | 59373
4 | 13:11.49 | 5:28.05 | 59374 | 83978
5 | 18:39.54 | 3:24.26 | 83979 | 99304
6 | 22:04.05 | 5:56.64 | 99305 | 126068
7 | 28:00.69 | 3:57.02 | 126069 | 143845
8 | 31:57.71 | 5:43.12 | 143846 | 169582
9 | 37:41.08 | 4:26.15 | 169583 | 189547
10 | 42:07.23 | 5:16.55 | 189548 | 213302


Track 1

Filename C:\_EAC\01. Dead Signal.wav

Pre-gap length 0:00:02.00

Peak level 99.8 %
Extraction speed 1.8 X
Track quality 100.0 %
Test CRC DAFCBE3D
Copy CRC DAFCBE3D
Accurately ripped (confidence 2) [A921A37F] (AR v2)
Copy OK

Track 2

Filename C:\_EAC\02. Afro-Tonic.wav

Peak level 99.8 %
Extraction speed 2.1 X
Track quality 100.0 %
Test CRC 29067585
Copy CRC 29067585
Accurately ripped (confidence 2) [8453267E] (AR v2)
Copy OK

Track 3

Filename C:\_EAC\03. Hello Narwhal.wav

Peak level 99.8 %
Extraction speed 2.3 X
Track quality 100.0 %
Test CRC F2FBCDED
Copy CRC F2FBCDED
Accurately ripped (confidence 2) [5C5BD32D] (AR v2)
Copy OK

Track 4

Filename C:\_EAC\04. The Spot.wav

Peak level 99.8 %
Extraction speed 2.6 X
Track quality 100.0 %
Test CRC 96D2589E
Copy CRC 96D2589E
Accurately ripped (confidence 2) [903514C6] (AR v2)
Copy OK

Track 5

Filename C:\_EAC\05. The Chemist.wav

Peak level 99.8 %
Extraction speed 2.6 X
Track quality 100.0 %
Test CRC D56BCE54
Copy CRC D56BCE54
Accurately ripped (confidence 2) [24CA1CC7] (AR v2)
Copy OK

Track 6

Filename C:\_EAC\06. Dirty Mouth.wav

Peak level 99.8 %
Extraction speed 2.9 X
Track quality 100.0 %
Test CRC 0215A326
Copy CRC 0215A326
Accurately ripped (confidence 2) [4CA725F4] (AR v2)
Copy OK

Track 7

Filename C:\_EAC\07. Curtain Calls.wav

Peak level 99.8 %
Extraction speed 2.2 X
Track quality 99.9 %
Test CRC 3D115F2E
Copy CRC 3D115F2E
Accurately ripped (confidence 2) [64808978] (AR v2)
Copy OK

Track 8

Filename C:\_EAC\08. Carpentino's Rebirth.wav

Peak level 99.8 %
Extraction speed 3.2 X
Track quality 100.0 %
Test CRC 74E3DA3C
Copy CRC 74E3DA3C
Accurately ripped (confidence 2) [629E23E8] (AR v2)
Copy OK

Track 9

Filename C:\_EAC\09. When In Doubt.wav

Peak level 99.8 %
Extraction speed 3.3 X
Track quality 100.0 %
Test CRC DAEAD381
Copy CRC DAEAD381
Accurately ripped (confidence 2) [4D3AB2D5] (AR v2)
Copy OK

Track 10

Filename C:\_EAC\10. In the Basement of the Alamo.wav

Peak level 99.8 %
Extraction speed 2.8 X
Track quality 99.9 %
Test CRC D6532267
Copy CRC D6532267
Accurately ripped (confidence 2) [6ACBED08] (AR v2)
Copy OK


All tracks accurately ripped

No errors occurred

End of status report

–– CUETools DB Plugin V2.1.4

[CTDB TOCID: UloEee0r6RwLXd0.ZXNyeT22YUk-] found
Submit result: UloEee0r6RwLXd0.ZXNyeT22YUk- has been confirmed
Track | CTDB Status
1 | (11/11) Accurately ripped
2 | (11/11) Accurately ripped
3 | (11/11) Accurately ripped
4 | (11/11) Accurately ripped
5 | (11/11) Accurately ripped
6 | (11/11) Accurately ripped
7 | (11/11) Accurately ripped
8 | (11/11) Accurately ripped
9 | (11/11) Accurately ripped
10 | (11/11) Accurately ripped


==== Log checksum 81D1EC7C5A7A14D5298B5A2C5162C18C15B678EDDF18BB4A5107157F2E7DEBBB ====

Tauk - Collection (2013-2018) {3 Albums}

Track List - Sir Nebula (2016):

01. Horizon [4:13]
02. Informant [5:02]
03. Time's Up [5:17]
04. Program Select [6:26]
05. Rainwalk [6:20]
06. Waver [6:33]
07. Resolve [4:17]
08. Darkwing [8:22]
09. Where You Are [4:55]
10. Shenanigans [5:22]
11. Flashback [6:53]
12. Sunshine Harry [5:27]

Personnel:
Fredo Ortiz - Percussion
Charlie Dolan - Bass
Isaac Teel - Drums
Matt Jalbert - Guitar
Alric Carter - Keyboards

Exact Audio Copy V1.0 beta 4 from 7. December 2014

EAC extraction logfile from 9. October 2019, 16:03

Tauk / Sir Nebula

Used drive : ATAPI iHAS124 E Adapter: 1 ID: 0

Read mode : Secure
Utilize accurate stream : Yes
Defeat audio cache : Yes
Make use of C2 pointers : No

Read offset correction : 6
Overread into Lead-In and Lead-Out : No
Fill up missing offset samples with silence : Yes
Delete leading and trailing silent blocks : No
Null samples used in CRC calculations : Yes
Used interface : Native Win32 interface for Win NT & 2000
Gap handling : Appended to previous track

Used output format : User Defined Encoder
Selected bitrate : 768 kBit/s
Quality : High
Add ID3 tag : No
Command line compressor : C:\Program Files (x86)\flac-1.3.2-win\win64\flac.exe
Additional command line options : -8 -V -T "ARTIST=%artist%" -T "TITLE=%title%" -T "ALBUM=%albumtitle%" -T "DATE=%year%" -T "TRACKNUMBER=%tracknr%" -T "GENRE=%genre%" -T "COMMENT=ripped by vp_sunset" %source% -o %dest%


TOC of the extracted CD

Track | Start | Length | Start sector | End sector
––––––––––––––––––––––––––––-
1 | 0:00.00 | 4:16.41 | 0 | 19240
2 | 4:16.41 | 5:06.31 | 19241 | 42221
3 | 9:22.72 | 5:17.32 | 42222 | 66028
4 | 14:40.29 | 6:29.06 | 66029 | 95209
5 | 21:09.35 | 6:25.49 | 95210 | 124133
6 | 27:35.09 | 6:39.50 | 124134 | 154108
7 | 34:14.59 | 4:23.58 | 154109 | 173891
8 | 38:38.42 | 8:25.06 | 173892 | 211772
9 | 47:03.48 | 4:55.17 | 211773 | 233914
10 | 51:58.65 | 5:26.50 | 233915 | 258414
11 | 57:25.40 | 6:57.52 | 258415 | 289741
12 | 64:23.17 | 5:27.15 | 289742 | 314281


Track 1

Filename C:\_EAC\01. Horizon.wav

Pre-gap length 0:00:02.00

Peak level 99.9 %
Extraction speed 2.0 X
Track quality 100.0 %
Test CRC 45D0FBEB
Copy CRC 45D0FBEB
Accurately ripped (confidence 3) [F3BBAE80] (AR v2)
Copy OK

Track 2

Filename C:\_EAC\02. Informant.wav

Pre-gap length 0:00:03.97

Peak level 99.9 %
Extraction speed 1.8 X
Track quality 99.9 %
Test CRC FDE1EBC6
Copy CRC FDE1EBC6
Accurately ripped (confidence 3) [77EAE7F3] (AR v2)
Copy OK

Track 3

Filename C:\_EAC\03. Time's Up.wav

Pre-gap length 0:00:04.08

Peak level 99.9 %
Extraction speed 2.5 X
Track quality 100.0 %
Test CRC 8C1F60CC
Copy CRC 8C1F60CC
Accurately ripped (confidence 3) [9C07BC2A] (AR v2)
Copy OK

Track 4

Filename C:\_EAC\04. Program Select.wav

Peak level 99.9 %
Extraction speed 2.3 X
Track quality 99.9 %
Test CRC DFB17886
Copy CRC DFB17886
Accurately ripped (confidence 3) [CC059B67] (AR v2)
Copy OK

Track 5

Filename C:\_EAC\05. Rainwalk.wav

Pre-gap length 0:00:03.17

Peak level 99.9 %
Extraction speed 3.1 X
Track quality 100.0 %
Test CRC 473FF0B9
Copy CRC 473FF0B9
Accurately ripped (confidence 3) [69710600] (AR v2)
Copy OK

Track 6

Filename C:\_EAC\06. Waver.wav

Pre-gap length 0:00:05.89

Peak level 99.9 %
Extraction speed 3.3 X
Track quality 100.0 %
Test CRC 9A60A142
Copy CRC 9A60A142
Accurately ripped (confidence 3) [05FAC5BB] (AR v2)
Copy OK

Track 7

Filename C:\_EAC\07. Resolve.wav

Pre-gap length 0:00:07.02

Peak level 99.9 %
Extraction speed 3.4 X
Track quality 100.0 %
Test CRC ECA23045
Copy CRC ECA23045
Accurately ripped (confidence 3) [C8FA7EBE] (AR v2)
Copy OK

Track 8

Filename C:\_EAC\08. Darkwing.wav

Pre-gap length 0:00:07.06

Peak level 99.9 %
Extraction speed 3.7 X
Track quality 100.0 %
Test CRC 7F502A2E
Copy CRC 7F502A2E
Accurately ripped (confidence 3) [98951AB4] (AR v2)
Copy OK

Track 9

Filename C:\_EAC\09. Where You Are.wav

Pre-gap length 0:00:03.56

Peak level 99.9 %
Extraction speed 3.8 X
Track quality 100.0 %
Test CRC 38FF6E6E
Copy CRC 38FF6E6E
Accurately ripped (confidence 3) [C4EB1CCF] (AR v2)
Copy OK

Track 10

Filename C:\_EAC\10. Shenanigans.wav

Peak level 99.9 %
Extraction speed 3.1 X
Track quality 99.9 %
Test CRC 7620A238
Copy CRC 7620A238
Accurately ripped (confidence 3) [A6063BF7] (AR v2)
Copy OK

Track 11

Filename C:\_EAC\11. Flashback.wav

Pre-gap length 0:00:04.50

Peak level 99.9 %
Extraction speed 4.2 X
Track quality 100.0 %
Test CRC C51DFC2E
Copy CRC C51DFC2E
Accurately ripped (confidence 3) [8092C11C] (AR v2)
Copy OK

Track 12

Filename C:\_EAC\12. Sunshine Harry.wav

Pre-gap length 0:00:04.74

Peak level 99.9 %
Extraction speed 4.3 X
Track quality 100.0 %
Test CRC CDB3F0E6
Copy CRC CDB3F0E6
Accurately ripped (confidence 2) [CBC7DE06] (AR v2)
Copy OK


All tracks accurately ripped

No errors occurred

End of status report

–– CUETools DB Plugin V2.1.4

[CTDB TOCID: 4HJ_1t.16oxZQDVS8ZRpSJoXMI4-] found
Submit result: 4HJ_1t.16oxZQDVS8ZRpSJoXMI4- has been confirmed
Track | CTDB Status
1 | (8/8) Accurately ripped
2 | (8/8) Accurately ripped
3 | (8/8) Accurately ripped
4 | (8/8) Accurately ripped
5 | (8/8) Accurately ripped
6 | (8/8) Accurately ripped
7 | (8/8) Accurately ripped
8 | (8/8) Accurately ripped
9 | (8/8) Accurately ripped
10 | (8/8) Accurately ripped
11 | (8/8) Accurately ripped
12 | (8/8) Accurately ripped


==== Log checksum E6C0C6C32CB4623143386BE16BF288FC2D5059EDC51A2BAA7E65171756763523 ====

Tauk - Collection (2013-2018) {3 Albums}

Track List - Shapeshifter II: Outbreak (2018):

01. Prelude [0:47]
02. Recreational Outrage [5:16]
03. CMF 9000 [6:04]
04. Checkmate [5:26]
05. Convoy [5:42]
06. Not Your Nemesis [5:03]
07. Let It Ride [5:12]
08. Ratchet [4:13]
09. Pioneer [6:00]
10. Pitter Pattern [6:27]
11. Upside Down [6:11]

Personnel:
Matt Jalbert - guitar
Alric Carter - keyboards
Charlie Dolan - bass
Isaac Teel - drums
with:
Ian Bowman - tenor saxophone (3,10)
John Culbreth - trumpet (3,10)
Nick Ellman - alto and baritone saxophone (3,10)
Juan Alderete - bass FX (4)
Nate Wert - percussion (3,5,6,10)

Exact Audio Copy V1.0 beta 4 from 7. December 2014

EAC extraction logfile from 9. October 2019, 16:52

Tauk / Shapeshifter II- Outbreak

Used drive : ATAPI iHAS124 E Adapter: 1 ID: 0

Read mode : Secure
Utilize accurate stream : Yes
Defeat audio cache : Yes
Make use of C2 pointers : No

Read offset correction : 6
Overread into Lead-In and Lead-Out : No
Fill up missing offset samples with silence : Yes
Delete leading and trailing silent blocks : No
Null samples used in CRC calculations : Yes
Used interface : Native Win32 interface for Win NT & 2000
Gap handling : Appended to previous track

Used output format : User Defined Encoder
Selected bitrate : 768 kBit/s
Quality : High
Add ID3 tag : No
Command line compressor : C:\Program Files (x86)\flac-1.3.2-win\win64\flac.exe
Additional command line options : -8 -V -T "ARTIST=%artist%" -T "TITLE=%title%" -T "ALBUM=%albumtitle%" -T "DATE=%year%" -T "TRACKNUMBER=%tracknr%" -T "GENRE=%genre%" -T "COMMENT=ripped by vp_sunset" %source% -o %dest%


TOC of the extracted CD

Track | Start | Length | Start sector | End sector
––––––––––––––––––––––––––––-
1 | 0:00.00 | 0:47.31 | 0 | 3555
2 | 0:47.31 | 5:16.12 | 3556 | 27267
3 | 6:03.43 | 6:04.37 | 27268 | 54604
4 | 12:08.05 | 5:26.37 | 54605 | 79091
5 | 17:34.42 | 5:42.01 | 79092 | 104742
6 | 23:16.43 | 5:03.16 | 104743 | 127483
7 | 28:19.59 | 5:11.40 | 127484 | 150848
8 | 33:31.24 | 4:12.53 | 150849 | 169801
9 | 37:44.02 | 5:59.49 | 169802 | 196775
10 | 43:43.51 | 6:26.47 | 196776 | 225772
11 | 50:10.23 | 6:10.39 | 225773 | 253561


Track 1

Filename C:\_EAC\01. Prelude.wav

Pre-gap length 0:00:02.00

Peak level 99.8 %
Extraction speed 1.2 X
Track quality 100.0 %
Test CRC BB1B8C49
Copy CRC BB1B8C49
Accurately ripped (confidence 1) [F128EE72] (AR v2)
Copy OK

Track 2

Filename C:\_EAC\02. Recreational Outrage.wav

Peak level 99.8 %
Extraction speed 2.1 X
Track quality 100.0 %
Test CRC 3666398A
Copy CRC 3666398A
Accurately ripped (confidence 1) [F1B71366] (AR v2)
Copy OK

Track 3

Filename C:\_EAC\03. CMF 9000.wav

Peak level 99.8 %
Extraction speed 2.4 X
Track quality 100.0 %
Test CRC 984C0EEC
Copy CRC 984C0EEC
Accurately ripped (confidence 1) [075E6A05] (AR v2)
Copy OK

Track 4

Filename C:\_EAC\04. Checkmate.wav

Peak level 99.8 %
Extraction speed 2.6 X
Track quality 100.0 %
Test CRC 9CADD5D6
Copy CRC 9CADD5D6
Accurately ripped (confidence 1) [7370A18F] (AR v2)
Copy OK

Track 5

Filename C:\_EAC\05. Convoy.wav

Peak level 99.8 %
Extraction speed 2.9 X
Track quality 100.0 %
Test CRC 29429C1A
Copy CRC 29429C1A
Accurately ripped (confidence 1) [BEEADD85] (AR v2)
Copy OK

Track 6

Filename C:\_EAC\06. Not Your Nemesis.wav

Peak level 99.8 %
Extraction speed 3.0 X
Track quality 100.0 %
Test CRC 2F617EEF
Copy CRC 2F617EEF
Accurately ripped (confidence 1) [BD6E82CE] (AR v2)
Copy OK

Track 7

Filename C:\_EAC\07. Let It Ride.wav

Peak level 99.8 %
Extraction speed 3.2 X
Track quality 100.0 %
Test CRC F6574354
Copy CRC F6574354
Accurately ripped (confidence 1) [FCA585BF] (AR v2)
Copy OK

Track 8

Filename C:\_EAC\08. Ratchet.wav

Peak level 99.8 %
Extraction speed 3.3 X
Track quality 100.0 %
Test CRC 844A1B60
Copy CRC 844A1B60
Accurately ripped (confidence 1) [AFDE9341] (AR v2)
Copy OK

Track 9

Filename C:\_EAC\09. Pioneer.wav

Peak level 99.8 %
Extraction speed 3.6 X
Track quality 100.0 %
Test CRC 5BD8E44B
Copy CRC 5BD8E44B
Accurately ripped (confidence 1) [B78585E4] (AR v2)
Copy OK

Track 10

Filename C:\_EAC\10. Pitter Pattern.wav

Peak level 99.8 %
Extraction speed 3.8 X
Track quality 100.0 %
Test CRC 0077BB95
Copy CRC 0077BB95
Accurately ripped (confidence 1) [3902AE70] (AR v2)
Copy OK

Track 11

Filename C:\_EAC\11. Upside Down.wav

Peak level 99.8 %
Extraction speed 3.2 X
Track quality 99.9 %
Test CRC 9E88534C
Copy CRC 9E88534C
Accurately ripped (confidence 1) [BEB013F3] (AR v2)
Copy OK


All tracks accurately ripped

No errors occurred

End of status report

–– CUETools DB Plugin V2.1.4

[CTDB TOCID: zUC_LaEEIkXVgKFxGMlFP2ElUEw-] found
Submit result: zUC_LaEEIkXVgKFxGMlFP2ElUEw- has been confirmed
Track | CTDB Status
1 | (3/3) Accurately ripped
2 | (3/3) Accurately ripped
3 | (3/3) Accurately ripped
4 | (3/3) Accurately ripped
5 | (3/3) Accurately ripped
6 | (3/3) Accurately ripped
7 | (3/3) Accurately ripped
8 | (3/3) Accurately ripped
9 | (3/3) Accurately ripped
10 | (3/3) Accurately ripped
11 | (3/3) Accurately ripped


==== Log checksum CB238A722F79CCDD933468FD875AA1116B94C929B7362DA26E071564527A4F34 ====

All thanks go to vp_sunset

>>> My Blog <<<

DOWNLOAD: