Subcategories

Taurus & Pisces - Inertia (2008)

Posted By: gribovar
Taurus & Pisces - Inertia (2008)

Taurus & Pisces - Inertia (2008)
EAC Rip | FLAC (image+.cue+log) - 355 MB | MP3 CBR 320 kbps (LAME 3.93) - 124 MB | Covers - 21 MB
Genre: Progressive Rock | RAR 3% Rec. | Label: Self-released (TP/2008/020)

Taurus & Pisces is the Dutch duo of Gert Bruins (Pisces) and Peter Everts (Taurus). The two met in 1985 and have remained good friends ever since. Everts has played guitar in several bands since 1978 while Bruins is relatively new to the music scene and started out playing in the bands Life Less Serious and Dikke Bertha. In 2003 the pair began working on material and in 2008 Inertia was released. Their musical style is a mixture of the music of The Alan Parsons Project, Porcupine Tree, Timothy Pure and Differences.
The band plays a subdued style of melodic progressive rock with touches of symphonic and neo and maybe even occasional nods to post rock. Gentle acoustic guitar and gently flowing keyboards give this music a dreaminess that just begs to be heard especially if you appreciate a good melody. The band also incorporates subtle chugging electric riffs, bordering on metal, but never becoming very heavy. Although it does not break any new territory, Inertia is a finely crafted album with plenty of strong melodies.

Tracklist:
01. Things Can Turn
02. Mirror Images
03. Borderline
04. Schooldays
05. 1975
06. Same
07. Politics
08. Under My Skin
09. Sweet Lucidity

Total time: 52:49

Exact Audio Copy V1.0 beta 3 from 29. August 2011

EAC extraction logfile from 3. October 2014, 22:17

Taurus and Pisces / Inertia

Used drive : TEAC CD-W516EB Adapter: 0 ID: 0

Read mode : Secure
Utilize accurate stream : Yes
Defeat audio cache : Yes
Make use of C2 pointers : No

Read offset correction : 685
Overread into Lead-In and Lead-Out : No
Fill up missing offset samples with silence : Yes
Delete leading and trailing silent blocks : No
Null samples used in CRC calculations : Yes
Used interface : Native Win32 interface for Win NT & 2000

Used output format : User Defined Encoder
Selected bitrate : 1024 kBit/s
Quality : High
Add ID3 tag : Yes
Command line compressor : C:\Program Files (x86)\FLAC_1.3.0\flac.exe
Additional command line options : -6 -V -T "ARTIST=%artist%" -T "TITLE=%title%" -T "ALBUM=%albumtitle%" -T "DATE=%year%" -T "TRACKNUMBER=%tracknr%" -T "GENRE=%genre%" -T "COMMENT=%comment%" %source% -o %dest%


TOC of the extracted CD

Track | Start | Length | Start sector | End sector
––––––––––––––––––––––––––––-
1 | 0:00.00 | 8:05.02 | 0 | 36376
2 | 8:05.02 | 6:20.69 | 36377 | 64945
3 | 14:25.71 | 5:14.00 | 64946 | 88495
4 | 19:39.71 | 5:40.62 | 88496 | 114057
5 | 25:20.58 | 3:32.38 | 114058 | 129995
6 | 28:53.21 | 5:33.61 | 129996 | 155031
7 | 34:27.07 | 5:24.64 | 155032 | 179395
8 | 39:51.71 | 5:59.45 | 179396 | 206365
9 | 45:51.41 | 6:57.29 | 206366 | 237669


Range status and errors

Selected range

Filename Y:\EAC\wurensh\Taurus and Pisces\Taurus and Pisces - Inertia.wav

Peak level 100.0 %
Extraction speed 7.3 X
Range quality 99.9 %
Test CRC 34C9FEDE
Copy CRC 34C9FEDE
Copy OK

No errors occurred


AccurateRip summary

Track 1 accurately ripped (confidence 2) [7B9EB421] (AR v1)
Track 2 accurately ripped (confidence 2) [97556B3A] (AR v1)
Track 3 accurately ripped (confidence 1) [A11FEFCD] (AR v1)
Track 4 accurately ripped (confidence 2) [E3CC2D92] (AR v1)
Track 5 accurately ripped (confidence 2) [C66A60B5] (AR v1)
Track 6 accurately ripped (confidence 2) [C610F3A6] (AR v1)
Track 7 accurately ripped (confidence 2) [899F3B19] (AR v1)
Track 8 accurately ripped (confidence 2) [59C2A37F] (AR v1)
Track 9 accurately ripped (confidence 1) [3C092878] (AR v1)

All tracks accurately ripped

End of status report

==== Log checksum 862513C6EDCB19153BE6728A9ECD18284D3D16D7D4DE88CE9CAA7182D2FD9947 ====

[CUETools log; Date: 19.10.2017 14:08:54; Version: 2.1.4]
[CTDB TOCID: QHnpzNi.1VTvXvraZAobZGVsqS0-] found.
Track | CTDB Status
1 | (1/1) Accurately ripped
2 | (1/1) Accurately ripped
3 | (1/1) Accurately ripped
4 | (1/1) Accurately ripped
5 | (1/1) Accurately ripped
6 | (1/1) Accurately ripped
7 | (1/1) Accurately ripped
8 | (1/1) Accurately ripped
9 | (1/1) Accurately ripped
[AccurateRip ID: 00127fb1-008526d5-820c6009] found.
Track [ CRC | V2 ] Status
01 [7b9eb421|c6036b53] (2+0/2) Accurately ripped
02 [97556b3a|12855604] (2+0/2) Accurately ripped
03 [a11fefcd|aa198b9e] (1+1/3) Accurately ripped
04 [e3cc2d92|e26d70fe] (2+0/2) Accurately ripped
05 [c66a60b5|b6fa39ac] (2+0/2) Accurately ripped
06 [c610f3a6|6f6a6588] (2+0/2) Accurately ripped
07 [899f3b19|07b7f033] (2+0/2) Accurately ripped
08 [59c2a37f|76601caf] (2+0/2) Accurately ripped
09 [3c092878|c69aadda] (1+1/3) Accurately ripped

Track Peak [ CRC32 ] [W/O NULL] [ LOG ]
– 99,9 [34C9FEDE] [0E21627A] CRC32
01 99,9 [67FA1132] [317E80D3]
02 99,9 [D42BE1C8] [A536149C]
03 99,9 [3C80CD8B] [ACBC9B00]
04 99,9 [F347B990] [B7D3C1E3]
05 99,9 [4061C1EF] [1681B29B]
06 99,9 [6345D5C3] [62412F74]
07 99,9 [267DD77F] [F9CFA4F3]
08 99,9 [FE3E7F2F] [DCD141E9]
09 99,9 [3B4FD8F7] [54CC8E74]

Thanks to wurensh