Teddy Pendergrass - Greatest Hits (1992)

Posted By: Designol
Teddy Pendergrass - Greatest Hits (1992)

Teddy Pendergrass - Greatest Hits (1992)
EAC | FLAC | Image (Cue&Log) ~ 405 Mb | Mp3 (CBR320) ~ 157 Mb | Scans included | 01:07:39
Philly Soul, Smooth Soul, Quiet Storm, Funk | Label: Repertoire | # REP 4245-WZ

This collection covers Pendergrass' run of big hits from the Philadelphia International era, including "I Don't Love You Anymore," "Close The Door" and "Turn Off The Lights."

Ron Wynn, Allmusic.com

Teddy Pendergrass started singing gospel music in Philadelphia churches, becoming an ordained minister at ten years old. While attending public school, he sang in the citywide McIntyre Elementary School Choir and in the All-City Stetson Junior High School Choir. A self-taught drummer, Pendergrass had a teen pop vocal group when he was 15. By his late teens, Pendergrass was a drummer for local vocal group the Cadillacs.

In the late '60s, the Cadillacs merged with another more established group, Harold Melvin & the Blue Notes. In 1970, when the Blue Notes broke up, Melvin, now aware of Pendergrass' vocal prowess, asked him to take the lead singer spot. It's no secret that Kenneth Gamble and Leon Huff wanted Marvin Junior of the Dells for their Philadelphia International Records roster. Since the Dells were signed to Chess, they were unavailable. When the gruff'n'ready vocals of Pendergrass came their way, they eagerly signed the group. Beginning with "I Miss You," a steady stream of hit singles flowed from the collaboration of Pendergrass and Gamble & Huff: "If You Don't Know Me by Now," "The Love I Lost," "Bad Luck," "Wake Up Everybody" (number one R&B for two weeks in 1976), and two gold albums, To Be True and Wake Up Everybody.

Unfortunately, the more success the group had, the more friction developed between Melvin and Pendergrass. Despite the revised billing of the group, Harold Melvin & the Blue Notes featuring Theodore Pendergrass, Pendergrass felt that he wasn't getting enough recognition. Around 1976, Pendergrass left Melvin's Blue Notes and formed his own Blue Notes, featuring Teddy Pendergrass. Briefly, there was some confusion as to which Blue Notes were which. The resolution came when Pendergrass disbanded his Blue Notes in favor of a solo career and Melvin's group signed a recording contract with Source Records, distributed through ABC Records, scoring a hit with "I Want to Be Your Lover."

Pendergrass signed a new contract with Philadelphia International Records in late 1976/early 1977. He burst back on the scene with Teddy Pendergrass, a platinum solo debut that included the top-notch singles "I Don't Love You Anymore," "You Can't Hide from Yourself," and "The More I Get the More I Want." Around this time, Pendergrass began to institute his infamous "Ladies Only" concerts. His next three albums went gold or platinum: Life Is a Song Worth Singing (1978), Teddy (1979), and Teddy Live (Coast to Coast). The hit single "Close the Door" was used in the film Soup for One, where Pendergrass had a small role.

The singer received several Grammy nominations during 1977 and 1978, Billboard's 1977 Pop Album New Artist Award, an American Music Award for best R&B performer of 1978, and awards from Ebony magazine and the NAACP. He was also in consideration for the lead in the movie biopic The Otis Redding Story. The '70s ended, but Pendergrass kept racking up the hits. TP, his fifth solo album, went platinum in the summer of 1980 off the singles "Turn Off the Lights," "Come Go with Me," "Shout and Scream," "It's You I Love," and "Can't We Try." It's Time for Love gave Pendergrass another gold album in summer 1981, which included the hit singles "Love TKO" and "I Can't Live Without Your Love."

A 1982 car accident left Pendergrass paralyzed from the waist down and wheelchair-bound. After almost a year of physical therapy and counseling, Pendergrass returned to the recording scene, signing a contract with Elektra/Asylum in 1983. His ninth solo album and Elektra/Asylum debut, Love Language went gold the spring of 1984. Philadelphia International issued two albums of unreleased tracks, This One's for You (1982) and Heaven Only Knows (1983). Other albums included Workin' It Back (1985), Joy (1988, whose title track went to number one R&B for two weeks), and Little More Magic (1993). The latter half of the '90s found Pendergrass recording for the Surefire/Wind Up label. Truly Blessed, the name of an 1991 Elektra album, is also the title of the autobiography Pendergrass co-authored with Patricia Romanowski. Apart from an appearance at a 2007 ceremony held in his honor, Pendergrass spent his later years away from the spotlight. He had difficulty recovering from colon cancer surgery and passed away on January 13, 2010.

Biography by Ed Hogan, Allmusic.com

Teddy Pendergrass - Greatest Hits (1992)



Tracklist:

01. Turn Off The Lights (3:39)
02. Close The Door (3:36)
03. I Don't Love You Anymore (3:58)
04. The Whole Town's Laughing At Me (3:57)
05. Only You (3:34)
06. Cant' We Try (5:05)
07. Love T.K.O. (3:42)
08. I Can't Live Without Your Love (3:02)
09. You're My Latest, My Greatest Inspiration (5:14)
10. It's Time For Love (5:59)
11. Life Is A Song Worth Singing (3:43)
12. I'll Never See Heaven Again (4:49)
13. All I Need Is You (4:34)
14. Cold Cold World (3:55)
15. When Somebody Loves You Back (4:58)
16. Is It Still Good To Ya (3:54)


Exact Audio Copy V0.99 prebeta 4 from 23. January 2008

Отчёт EAC об извлечении, выполненном 19. июля 2009, 9:26

Teddy Pendergrass / Greatest Hits

Дисковод: _NEC DVD_RW ND-3520A Adapter: 1 ID: 0

Режим чтения : Достоверность
Использование точного потока : Да
Отключение кэша аудио : Да
Использование указателей C2 : Нет

Коррекция смещения при чтении : 48
Способность читать области Lead-in и Lead-out : Нет
Заполнение пропущенных сэмплов тишиной : Да
Удаление блоков с тишиной в начале и конце : Нет
При вычислениях CRC использовались нулевые сэмплы : Да
Интерфейс : Установленный внешний ASPI-интерфейс

Выходной формат : Пользовательский кодировщик
Выбранный битрейт : 768 kBit/s
Качество : Высокий
Добавление ID3-тэга : Нет
Утилита сжатия : D:\Program Files\Exact Audio Copy\FLAC\FLAC.EXE
Дополнительные параметры : -6 -V -T "ARTIST=%a" -T "TITLE=%t" -T "ALBUM=%g" -T "DATE=%y" -T "TRACKNUMBER=%n" -T "GENRE=%m" -T "COMMENT=%e" %s -o %d


TOC извлечённого CD

Трек | Старт | Длительность | Начальный сектор | Конечный сектор
––––––––––––––––––––––––––––––––––-
1 | 0:00.00 | 3:39.30 | 0 | 16454
2 | 3:39.30 | 3:36.10 | 16455 | 32664
3 | 7:15.40 | 3:58.10 | 32665 | 50524
4 | 11:13.50 | 3:57.32 | 50525 | 68331
5 | 15:11.07 | 3:33.48 | 68332 | 84354
6 | 18:44.55 | 5:04.47 | 84355 | 107201
7 | 23:49.27 | 3:41.65 | 107202 | 123841
8 | 27:31.17 | 3:01.68 | 123842 | 137484
9 | 30:33.10 | 5:14.25 | 137485 | 161059
10 | 35:47.35 | 5:58.55 | 161060 | 187964
11 | 41:46.15 | 3:42.70 | 187965 | 204684
12 | 45:29.10 | 4:49.10 | 204685 | 226369
13 | 50:18.20 | 4:34.07 | 226370 | 246926
14 | 54:52.27 | 3:54.53 | 246927 | 264529
15 | 58:47.05 | 4:57.67 | 264530 | 286871
16 | 63:44.72 | 3:53.48 | 286872 | 304394


Характеристики диапазона извлечения и сообщения об ошибках

Выбранный диапазон

Имя файла E:\My music\lossless\Teddy Pendergrass\best\Teddy Pendergrass - Greatest Hits.wav

Пиковый уровень 99.2 %
Качество диапазона 100.0 %
CRC копии B4E59134
Копирование… OK

Ошибок не произошло


AccurateRip: сводка

Трек 1 точное извлечение (доверие 2) [D34EBCAA]
Трек 2 точное извлечение (доверие 2) [35D6CBEE]
Трек 3 точное извлечение (доверие 2) [820F5022]
Трек 4 точное извлечение (доверие 2) [A9B705AA]
Трек 5 точное извлечение (доверие 2) [4664994D]
Трек 6 точное извлечение (доверие 2) [A9796984]
Трек 7 точное извлечение (доверие 2) [BDB82F86]
Трек 8 точное извлечение (доверие 2) [E09E180F]
Трек 9 точное извлечение (доверие 2) [F9F1B75C]
Трек 10 точное извлечение (доверие 2) [5D1BEA10]
Трек 11 точное извлечение (доверие 2) [2A5C0879]
Трек 12 точное извлечение (доверие 2) [FF16EF21]
Трек 13 точное извлечение (доверие 2) [551CA3CF]
Трек 14 точное извлечение (доверие 2) [B6E14052]
Трек 15 точное извлечение (доверие 2) [C10920D5]
Трек 16 точное извлечение (доверие 2) [0AEC30BA]

Все треки извлечены точно

Конец отчёта

[CUETools log; Date: 26.05.2017 19:29:36; Version: 2.1.4]
[CTDB TOCID: aqhrlKmMOjwjigkQ1p9PxLuyjvQ-] found.
Track | CTDB Status
1 | (9/9) Accurately ripped
2 | (9/9) Accurately ripped
3 | (9/9) Accurately ripped
4 | (9/9) Accurately ripped
5 | (9/9) Accurately ripped
6 | (9/9) Accurately ripped
7 | (9/9) Accurately ripped
8 | (9/9) Accurately ripped
9 | (9/9) Accurately ripped
10 | (9/9) Accurately ripped
11 | (9/9) Accurately ripped
12 | (9/9) Accurately ripped
13 | (9/9) Accurately ripped
14 | (9/9) Accurately ripped
15 | (7/9) Accurately ripped, or (2/9) differs in 147 samples @02:13:70-02:13:71,02:18:30-02:18:31,02:18:51,02:18:71-02:18:72,02:19:18,02:19:38,02:20:26,02:26:37,02:33:36,02:33:57,02:45:59,02:48:23,02:49:32,02:53:05,02:55:23,02:56:32,02:57:63,03:01:36,03:02:24,03:23:49
16 | (7/9) Accurately ripped, or (2/9) differs in 10 samples @03:30:04
[AccurateRip ID: 002633f1-01d04427-d00fda10] found.
Track [ CRC | V2 ] Status
01 [d34ebcaa|5874c9ee] (2+3/7) Accurately ripped
02 [35d6cbee|9f70a13d] (2+3/9) Accurately ripped
03 [820f5022|9277e090] (2+3/7) Accurately ripped
04 [a9b705aa|11fb06b4] (2+3/7) Accurately ripped
05 [4664994d|e420a85c] (2+3/9) Accurately ripped
06 [a9796984|88c2ebb1] (2+3/9) Accurately ripped
07 [bdb82f86|ffdbc3cb] (2+3/9) Accurately ripped
08 [e09e180f|dcc111ad] (2+3/9) Accurately ripped
09 [f9f1b75c|f8be7f02] (2+3/9) Accurately ripped
10 [5d1bea10|21f5b5fe] (2+3/7) Accurately ripped
11 [2a5c0879|9962a4ab] (2+3/9) Accurately ripped
12 [ff16ef21|15fa7127] (2+3/7) Accurately ripped
13 [551ca3cf|2f8f27dd] (2+3/9) Accurately ripped
14 [b6e14052|c431a531] (2+3/9) Accurately ripped
15 [c10920d5|00176579] (2+3/9) Accurately ripped
16 [0aec30ba|c956ca65] (2+3/9) Accurately ripped
Offsetted by -271:
01 [7c77ecb5] (0/7) No match (V2 was not tested)
02 [b5be79bb] (0/9) No match (V2 was not tested)
03 [97188641] (0/7) No match (V2 was not tested)
04 [7da6365a] (0/7) No match (V2 was not tested)
05 [6c936c6e] (0/9) No match (V2 was not tested)
06 [ec764001] (0/9) No match (V2 was not tested)
07 [ef5147c6] (0/9) No match (V2 was not tested)
08 [d5fd6292] (0/9) No match (V2 was not tested)
09 [15e26de1] (0/9) No match (V2 was not tested)
10 [d92531fd] (0/7) No match (V2 was not tested)
11 [92516b90] (0/9) No match (V2 was not tested)
12 [7208f0aa] (0/7) No match (V2 was not tested)
13 [c8805c09] (0/9) No match (V2 was not tested)
14 [709dbf94] (0/9) No match (V2 was not tested)
15 [7bcc1339] (0/9) No match (V2 was not tested)
16 [7a9bf424] (0/9) No match (V2 was not tested)
Offsetted by 1106:
01 [f19fada2] (0/7) No match (V2 was not tested)
02 [7492da38] (0/9) No match (V2 was not tested)
03 [74d35b79] (0/7) No match (V2 was not tested)
04 [3bab0581] (0/7) No match (V2 was not tested)
05 [ebd14ded] (0/9) No match (V2 was not tested)
06 [b067c340] (0/9) No match (V2 was not tested)
07 [af86fef4] (0/9) No match (V2 was not tested)
08 [97ccad65] (0/9) No match (V2 was not tested)
09 [c642ff96] (0/9) No match (V2 was not tested)
10 [c06a3a9a] (0/7) No match (V2 was not tested)
11 [33ae13b7] (0/9) No match (V2 was not tested)
12 [7953d323] (0/7) No match (V2 was not tested)
13 [c9c21fa3] (0/9) No match (V2 was not tested)
14 [1c7cc5b6] (0/9) No match (V2 was not tested)
15 [0349255d] (0/9) No match (V2 was not tested)
16 [642c17ee] (0/9) No match (V2 was not tested)

Track Peak [ CRC32 ] [W/O NULL] [ LOG ]
– 99,2 [B4E59134] [A94D7425] CRC32
01 99,2 [536A34E6] [A79A0C72]
02 89,7 [1EA946F7] [26278C16]
03 97,7 [9912D464] [FF0539DC]
04 99,2 [8388C96A] [01A999FA]
05 97,2 [93800FC2] [26177E83]
06 98,1 [C7B90A69] [AB9E5460]
07 98,9 [3E1DEB28] [74B08C29]
08 98,9 [4B1124CC] [6D63A5B8]
09 97,4 [2E17D212] [33F33438]
10 98,9 [73E51584] [44F16D8A]
11 98,9 [7715DA82] [EF7B9410]
12 98,9 [86D61489] [B827E75D]
13 98,9 [6EED800C] [B22DF0E6]
14 97,1 [C5804D1E] [0EAA26DA]
15 96,8 [F0F56C2A] [A9EC3C61]
16 98,9 [2117C324] [42DD22C4]

foobar2000 1.2 / Dynamic Range Meter 1.1.1
log date: 2017-05-26 19:45:30

––––––––––––––––––––––––––––––––––––––––
Analyzed: Teddy Pendergrass / Greatest Hits
––––––––––––––––––––––––––––––––––––––––

DR Peak RMS Duration Track
––––––––––––––––––––––––––––––––––––––––
DR13 -0.07 dB -16.33 dB 3:39 01-Turn Off The Lights
DR12 -0.94 dB -15.26 dB 3:36 02-Close The Door
DR12 -0.20 dB -13.74 dB 3:58 03-I Don't Love You Anymore
DR11 -0.07 dB -14.76 dB 3:57 04-The Whole Town's Laughing At Me
DR13 -0.25 dB -14.67 dB 3:34 05-Only You
DR12 -0.16 dB -16.21 dB 5:05 06-Cant' We Try
DR13 -0.09 dB -14.98 dB 3:42 07-Love T.K.O.
DR13 -0.09 dB -16.12 dB 3:02 08-I Can't Live Without Your Love
DR13 -0.22 dB -16.60 dB 5:14 09-You're My Latest, My Greatest Inspiration
DR13 -0.09 dB -14.43 dB 5:59 10-It's Time For Love
DR12 -0.09 dB -14.17 dB 3:43 11-Life Is A Song Worth Singing
DR11 -0.09 dB -13.79 dB 4:49 12-I'll Never See Heaven Again
DR11 -0.09 dB -13.88 dB 4:34 13-All I Need Is You
DR11 -0.25 dB -13.58 dB 3:55 14-Cold Cold World
DR12 -0.28 dB -14.15 dB 4:58 15-When Somebody Loves You Back
DR11 -0.09 dB -14.04 dB 3:54 16-Is It Still Good To Ya
––––––––––––––––––––––––––––––––––––––––

Number of tracks: 16
Official DR value: DR12

Samplerate: 44100 Hz
Channels: 2
Bits per sample: 16
Bitrate: 834 kbps
Codec: FLAC
================================================================================

Teddy Pendergrass - Greatest Hits (1992)

Teddy Pendergrass - Greatest Hits (1992)

All thanks to original releaser - StrelkinY

More interesting music in My Blog