Subcategories

Teddy Edwards - Sunset Eyes (1960) [Reissue 1998]

Posted By: gribovar
Teddy Edwards - Sunset Eyes (1960) [Reissue 1998]

Teddy Edwards - Sunset Eyes (1960) [Reissue 1998]
EAC Rip | FLAC (image+.cue+log) - 314 MB | MP3 CBR 320 kbps (LAME 3.93) - 118 MB | Covers (11 MB) included
Genre: Jazz | RAR 3% Rec. | Label: Pacific Jazz (CDP 7243 4 94848 2 5)

Teddy Edwards, who took part in classic tenor battles with Dexter Gordon and Wardell Gray in Los Angeles during the mid-to-late 1940's, has been a major tenorman ever since. However, his decision to live in L.A. has resulted in him being greatly underrated through the years. Fortunately the superior hard bop tenor (who showed that there was more than just cool jazz being played on the West Coast in the 1950) has recorded on a fairly frequent basis throughout his career. This CD reissue brings back music from 1959-60 with Edwards joined by either Amos Trice, Joe Castro or Ronnie Ball on piano, Leroy Vinnegar or Ben Tucker on bass and Billy Higgins or Al Levitt on drums. Edwards, an underrated composer, performs six of his originals (including his most famous composition "Sunset Eyes" and two versions of "Takin' Off"), Vinnegar's "Vintage '57" and a pair of standards. Although there are short solos for Castro and Vinnegar, the focus throughout is on the leader's distinctive and likable tenor. Since the great Teddy Edwards never recorded an uninspiring record (even the three previously unreleased numbers included here are excellent), this CD is easily recommended to fans of straightahead jazz.
Tracklist:
01. Tempo de Blues
02. Vintage '57
03. I Hear a Rhapsody
04. Up in Teddy's New Flat
05. Sunset Eyes
06. Teddy's Tune
07. Takin' Off
08. The New Symphony Sid
09. My Kinda Blues
10. Takin' Off (first version)

Total time: 46:46

Exact Audio Copy V0.99 prebeta 4 from 23. January 2008

EAC extraction logfile from 8. September 2008, 21:42

Teddy Edwards / Sunset Eyes

Used drive : PLEXTOR DVDR PX-810SA Adapter: 2 ID: 1

Read mode : Secure
Utilize accurate stream : Yes
Defeat audio cache : Yes
Make use of C2 pointers : No

Read offset correction : 48
Overread into Lead-In and Lead-Out : No
Fill up missing offset samples with silence : Yes
Delete leading and trailing silent blocks : No
Null samples used in CRC calculations : Yes
Used interface : Installed external ASPI interface

Used output format : User Defined Encoder
Selected bitrate : 768 kBit/s
Quality : High
Add ID3 tag : No
Command line compressor : C:\Program Files (x86)\Exact Audio Copy\FLAC\FLAC.EXE
Additional command line options : -V -8 -T "artist=%a" -T "title=%t" -T "album=%g" -T "date=%y" -T "tracknumber=%n" -T "genre=%m" %s


TOC of the extracted CD

Track | Start | Length | Start sector | End sector
––––––––––––––––––––––––––––-
1 | 0:00.00 | 4:46.22 | 0 | 21471
2 | 4:46.22 | 7:12.50 | 21472 | 53921
3 | 11:58.72 | 3:32.15 | 53922 | 69836
4 | 15:31.12 | 3:06.40 | 69837 | 83826
5 | 18:37.52 | 5:26.73 | 83827 | 108349
6 | 24:04.50 | 6:11.20 | 108350 | 136194
7 | 30:15.70 | 6:32.70 | 136195 | 165664
8 | 36:48.65 | 2:16.12 | 165665 | 175876
9 | 39:05.02 | 5:11.58 | 175877 | 199259
10 | 44:16.60 | 2:28.57 | 199260 | 210416


Range status and errors

Selected range

Filename C:\Audio\WinRar\Teddy Edwards - Sunset Eyes (1959-60 Pacific) [FLAC Full Scans]\Teddy Edwards - Sunset Eyes.wav

Peak level 98.8 %
Range quality 100.0 %
Test CRC 5DA3CF1C
Copy CRC 5DA3CF1C
Copy OK

No errors occurred


AccurateRip summary

Track 1 not present in database
Track 2 not present in database
Track 3 not present in database
Track 4 not present in database
Track 5 not present in database
Track 6 not present in database
Track 7 not present in database
Track 8 not present in database
Track 9 not present in database
Track 10 not present in database

None of the tracks are present in the AccurateRip database

End of status report

[CUETools log; Date: 20.02.2018 15:14:50; Version: 2.1.4]
[CTDB TOCID: QJF9uRFGlJ9PUY_pCN0M5feS3c0-] found.
Track | CTDB Status
1 | (3/3) Accurately ripped
2 | (3/3) Accurately ripped
3 | (3/3) Accurately ripped
4 | (3/3) Accurately ripped
5 | (3/3) Accurately ripped
6 | (3/3) Accurately ripped
7 | (3/3) Accurately ripped
8 | (3/3) Accurately ripped
9 | (3/3) Accurately ripped
10 | (3/3) Accurately ripped
[AccurateRip ID: 0012b076-009458cb-820af50a] found.
Track [ CRC | V2 ] Status
01 [5ad48190|55533064] (2+4/6) Accurately ripped
02 [26f044d0|1c2a326a] (2+4/6) Accurately ripped
03 [691e4021|532b4693] (2+4/6) Accurately ripped
04 [7cc819ef|54a09742] (2+4/6) Accurately ripped
05 [b927a152|93c1e953] (2+4/6) Accurately ripped
06 [b6a43bc2|ac4c43ae] (2+4/6) Accurately ripped
07 [77160f00|1d699a9d] (2+4/6) Accurately ripped
08 [7e3de834|1dbc6eff] (2+4/6) Accurately ripped
09 [314dfc79|053941e3] (2+4/6) Accurately ripped
10 [719d1c42|d8436c8c] (2+4/6) Accurately ripped

Track Peak [ CRC32 ] [W/O NULL] [ LOG ]
– 98,8 [5DA3CF1C] [FA2A66DF] CRC32
01 98,8 [3336BE33] [601DD69F]
02 98,8 [7B865F62] [3819336E]
03 80,2 [6CE21C9E] [3F180933]
04 98,3 [33ED2F5A] [D1ABF9B1]
05 98,8 [23EF6168] [34016375]
06 98,8 [C0AAD5BB] [09F352E5]
07 98,8 [BA3A0C58] [AF1AF52A]
08 98,8 [8B7D7B22] [F06C5EB1]
09 98,8 [65A121E5] [4FC946D4]
10 98,8 [3977AB52] [E35D9365]

Thanks to Mazeppa