Subcategories

Teddy Pendergrass ‎- You And I (1997)

Posted By: JET 1
Teddy Pendergrass ‎- You And I (1997)

Teddy Pendergrass ‎- You And I (1997)
EAC Rip | FLAC (Tracks) +CUE, LOG | 391 MB | Covers Included
R&B / Soul | Label: Surefire Records | Catalog Number: 60150-13045-2

You and I is Soul/R&B singer Teddy Pendergrass' 13th and final studio album, released on April 15, 1997, on Wind-Up records. The album peaked at #24 R&B and #137 on the Billboard 200. The single "Give It to Me" peaked at #57 R&B, and the single "Don't Keep Wastin' My Time" peaked at #39 R&B and #90 on the Billboard Hot 100.

Exact Audio Copy V1.0 beta 3 from 29. August 2011

EAC extraction logfile from 24. October 2015, 14:57

TeddyPendergrass / YouAndI;Surefire60150-13045-2

Used drive : GENERIC CDRCB05 Adapter: 4 ID: 0

Read mode : Secure
Utilize accurate stream : Yes
Defeat audio cache : Yes
Make use of C2 pointers : No

Read offset correction : 102
Overread into Lead-In and Lead-Out : No
Fill up missing offset samples with silence : Yes
Delete leading and trailing silent blocks : No
Null samples used in CRC calculations : Yes
Used interface : Native Win32 interface for Win NT & 2000
Gap handling : Appended to previous track

Used output format : User Defined Encoder
Selected bitrate : 1024 kBit/s
Quality : High
Add ID3 tag : No
Command line compressor : C:\Program Files\FLAC\flac.exe
Additional command line options : -8 -V -T "ARTIST=%artist%" -T "TITLE=%title%" -T "ALBUM=%albumtitle%" -T "DATE=%year%" -T "TRACKNUMBER=%tracknr%" -T "GENRE=%genre%" -T "PERFORMER=%albuminterpret%" -T "COMPOSER=%composer%" %haslyrics%–tag-from-file=LYRICS="%lyricsfile%"%haslyrics% -T "ALBUMARTIST=%albumartist%" -T "DISCNUMBER=%cdnumber%" -T "TOTALDISCS=%totalcds%" -T "TOTALTRACKS=%numtracks%" -T "COMMENT=%comment%" %source% -o %dest%


TOC of the extracted CD

Track | Start | Length | Start sector | End sector
––––––––––––––––––––––––––––-
1 | 0:00.00 | 4:10.25 | 0 | 18774
2 | 4:10.25 | 4:02.50 | 18775 | 36974
3 | 8:13.00 | 4:37.47 | 36975 | 57796
4 | 12:50.47 | 5:02.08 | 57797 | 80454
5 | 17:52.55 | 4:52.40 | 80455 | 102394
6 | 22:45.20 | 6:34.60 | 102395 | 132004
7 | 29:20.05 | 5:09.30 | 132005 | 155209
8 | 34:29.35 | 1:15.02 | 155210 | 160836
9 | 35:44.37 | 4:24.55 | 160837 | 180691
10 | 40:09.17 | 4:04.40 | 180692 | 199031


Track 1

Filename G:\POSTS\Teddy Pendergrass ‎- You And I (1997)\01 - Don'tKeepWastin'MyTime(JimSalamone&TeddyPendergrass;1997,TeddyPendergrass).wav

Pre-gap length 0:00:02.00

Peak level 98.8 %
Extraction speed 2.1 X
Track quality 99.9 %
Test CRC 0CD76930
Copy CRC 0CD76930
Accurately ripped (confidence 7) [53FEE301] (AR v2)
Copy OK

Track 2

Filename G:\POSTS\Teddy Pendergrass ‎- You And I (1997)\02 - Let'sTalkAboutIt(JimSalamone&TeddyPendergrass;1997,TeddyPendergrass).wav

Pre-gap length 0:00:01.03

Peak level 98.8 %
Extraction speed 2.3 X
Track quality 99.9 %
Test CRC 1990A03E
Copy CRC 1990A03E
Accurately ripped (confidence 7) [AB901739] (AR v2)
Copy OK

Track 3

Filename G:\POSTS\Teddy Pendergrass ‎- You And I (1997)\03 - WithoutYou(JimSalamone,TeddyPendergrass,JoshuaYudkin;1997,TeddyPendergrass).wav

Pre-gap length 0:00:00.45

Peak level 98.8 %
Extraction speed 2.9 X
Track quality 100.0 %
Test CRC 47D0FF1D
Copy CRC 47D0FF1D
Accurately ripped (confidence 7) [ADAD13EB] (AR v2)
Copy OK

Track 4

Filename G:\POSTS\Teddy Pendergrass ‎- You And I (1997)\04 - YouAndI(JonNettlesbey&TerryCoffey;1997,TeddyPendergrass).wav

Peak level 96.6 %
Extraction speed 2.8 X
Track quality 99.9 %
Test CRC 68507FD0
Copy CRC 68507FD0
Accurately ripped (confidence 7) [71854173] (AR v2)
Copy OK

Track 5

Filename G:\POSTS\Teddy Pendergrass ‎- You And I (1997)\05 - CanWeTry(JimSalamone,TeddyPendergrass,JoshuaYudkin;1997,TeddyPendergrass).wav

Pre-gap length 0:00:00.55

Peak level 98.8 %
Extraction speed 3.3 X
Track quality 100.0 %
Test CRC 1B728E53
Copy CRC 1B728E53
Accurately ripped (confidence 7) [29B6C1CF] (AR v2)
Copy OK

Track 6

Filename G:\POSTS\Teddy Pendergrass ‎- You And I (1997)\06 - OneInAMillionYou(SamDees;1997,TeddyPendergrass).wav

Pre-gap length 0:00:01.50

Peak level 98.8 %
Extraction speed 3.5 X
Track quality 100.0 %
Test CRC CFDD4BE6
Copy CRC CFDD4BE6
Accurately ripped (confidence 7) [FCAFACA9] (AR v2)
Copy OK

Track 7

Filename G:\POSTS\Teddy Pendergrass ‎- You And I (1997)\07 - HurryUp(JonNettlesbey,TerryCoffey,AnthonyChandeler,TeddyPendergrass;1997,TeddyPendergrass).wav

Pre-gap length 0:00:01.08

Peak level 98.8 %
Extraction speed 3.4 X
Track quality 99.9 %
Test CRC 3E3F1727
Copy CRC 3E3F1727
Accurately ripped (confidence 7) [28DA993B] (AR v2)
Copy OK

Track 8

Filename G:\POSTS\Teddy Pendergrass ‎- You And I (1997)\08 - Interlude(1997,TeddyPendergrass,DianeEverett,ChrisCanamucio).wav

Peak level 44.9 %
Extraction speed 2.1 X
Track quality 99.8 %
Test CRC 80402A35
Copy CRC 80402A35
Accurately ripped (confidence 7) [A261415C] (AR v2)
Copy OK

Track 9

Filename G:\POSTS\Teddy Pendergrass ‎- You And I (1997)\09 - GiveItToMe(JimSalamone&TeddyPendergrass;1997,TeddyPendergrass).wav

Peak level 98.8 %
Extraction speed 3.9 X
Track quality 100.0 %
Test CRC B5000387
Copy CRC B5000387
Accurately ripped (confidence 7) [B43CAD07] (AR v2)
Copy OK

Track 10

Filename G:\POSTS\Teddy Pendergrass ‎- You And I (1997)\10 - SlowRideToHeaven(DennisMatkosky,TeddyPendergrass,TomWhitlock;1997,TeddyPendergrass).wav

Pre-gap length 0:00:01.12

Peak level 90.3 %
Extraction speed 4.0 X
Track quality 100.0 %
Test CRC CC48F8FA
Copy CRC CC48F8FA
Accurately ripped (confidence 7) [F19090B1] (AR v2)
Copy OK


All tracks accurately ripped

No errors occurred

End of status report

==== Log checksum FDB473357957D679B4507C107272951C67E87FE9B9E3AD6F9415C9315408BDCC ====


Tracklist:
01. Don't Keep Wasting My Time
02. Let's Talk About It
03. Without You
04. You And I
05. Can We Try
06. One in a Million You
07. Hurry Up
08. Interlude
09. Give It To Me
10. Slow Ride To Heaven