Subcategories

Tempest: CD Collection (1992 - 2010)

Posted By: v3122
Tempest: CD Collection (1992 - 2010)

Tempest: CD Collection (1992 - 2010)
EAC | Flac(Image) + Cue + Log & MP3 CBR 320Kbps
7CD | Magna Carta, Beacon, Firebird | ~ 2434 or 824 Mb | Scans -> 931 Mb
Folk-Rock, Prog Folk, Celtic Rock

Tempest has a band name that might suggest a group of sneering, leather-wearing, head-banging metal heads, but the group's music is less threatening and more expansive than its name suggests. Tempest plays traditional Celtic music with a rock & roll intensity that's accented by a wide range of influences from the blues to American country music, Cajun 2-steps, and Arabic music, with some old-time San Francisco psychedelic flair. It's a mix bandleader Lief Sorbye calls "Celtodelic". The band's music, live and on record, aims for a blend that's half-traditional and half-contemporary. Sorbye is an amateur folklorist with a wide knowledge of Irish, Norwegian, and other Celtic and related traditions. He knows that if nobody sings the old songs, they'll die, but if a band only plays the old songs, the music gets stale, so Tempest hews close to the honored ethos of folkies everywhere by playing the old tunes in new ways, using traditional melodies for the basis of new songs and composing songs so steeped in older forms that they sound traditional.

Sorbye was born in Oslo, Norway, and started teaching himself guitar when he was seven. He played in rock cover bands in high school and continued to be a rocker until his early twenties, when a friend played him an Incredible String Band album. That vision of folksy psychedelia captivated him. He researched traditional Irish music and played jigs, reels, and ballads, fascinated by the truth and beauty of the old songs. When he couldn't convince his bandmates to "go acoustic," he spent years singing for his supper on the streets of Europe and America before moving to the San Francisco Bay Area.

In Oakland he met Paul Espinoza and Margie Butler, who were also big Incredible String Band fans. The trio started performing as Golden Bough and became a major attraction at folk festivals all over American and Europe, with Sorbye's prowess on guitar, mandolin, and other stringed instruments being one of the bands major draws. After eight years and six albums, Sorbye left Golden Bough and created Tempest, intending to merge the power of Celtic traditions with the drive of folk-rock. The band took its name from an old Irish dance tune "The Tempest Reel." Tempest played their first gig in 1988 and after a few personnel shifts settled down with Sorbye on lead vocals, bouzouki, and electric mandolin, Cuban-born drummer Adolfo Lazo on drums, Rob Wullenjohn on guitar, and Ian Butler on bass. The band's first three self-released albums – Bootleg (1991), Serrated Edge (1992), and Surfing to Mecca (1994) included compositions by Sorbye, Butler, and Wullenjohn, in addition to traditional Irish tunes. On Surfing to Mecca, Lazo began adding Arab and other world music rhythms to his percussive attack. Sorbye also invented a double-necked electric mandolin/mandola to give his solos more range and power.

With a challenging tour schedule, Tempest quickly progressed from a well-known California folk-rock act to an international draw on the folk festival circuit. The band usually logs more than 200 gigs a year at clubs, colleges, and folk festivals. In 1996, fiddler Michael Mullen joined up and the band signed with Magna Carta, a logo distributed by WEA International. The deal helped Tempest raise their international profile. Turn of the Wheel (1996) showed the band adding a metallic attack to their sound, but they returned to a more traditional folk-rock sound on 1997's The Gravel Walk. Throughout its history, the band has experienced many personnel shifts, with Sorbye, Lazo, and Mullen being the most consistent players. Still, their albums and live gigs retain a high level of musicianship marked by the group's inventive arrangements. Balance (2001) added a bit of prog rock to the mix, Shapeshifter (2003) saw them playing some traditional American music alongside their blend of Celtic and Norwegian folk-rock for the first time, and The Double Cross (2006) found tunes from Finland and Scotland on the menu. On 2010's Another Dawn, the band made a crossover move with a cover of the Grass Roots hit "Let's Live for Today" while staying true to their traditional roots with "Jomfru," one of oldest songs in the Norwegian vocal tradition.

Sorbye still plays occasional reunion dates with Golden Bough and also appears with various fiddlers as Caliban, a duo that explores the acoustic side of traditional Celtic and Norwegian music. Since 2006, the band has also been hosting their own Celtic music and arts jamboree, the Karfluki Fest. The 2010 event was put on hold however, due to the American economic downturn of 2009.

by j. poet, allmusic
Tempest: CD Collection (1992 - 2010):

Tempest: CD Collection (1992 - 2010)

CD01: Tempest - Serrated Edge (1992)
EAC | Flac(Image) + Cue + Log & MP3 CBR 320Kbps
Beacon, BCN-10100-2 | ~ 266 or 101 Mb | Scans
Folk-Rock, Prog Folk, Celtic Rock

Here is an American band in the tradition of Fairport Convention during their Leige and Leaf sound. They play "Raggle Taggle Gypsy," "The House Carpenter" and "Tam Lin" with electric abandon and sound like an electric Irish bar band cleaned up for the studio.

by Richard Meyer, allmusic
Tracklist:

1. Hal-an Tow
2. Raggle Taggle Gypsy
3. A Kiss in the Morning Early
4. Reels on Fire
5. The House Carpenter
6. Whiskey in the Jar
7. Dark Lover
8. Mad Tom of Bedlam
9. The Ballydesmond Set

Converted to Image (CUETools 2.1.4)

EAC extraction logfile from 12. August 2007, 7:38 for CD
Tempest / Serrated Edge

Used drive : DVDRW IDE 16X Adapter: 0 ID: 0
Read mode : Secure with NO C2, accurate stream, disable cache
Read offset correction : 12
Overread into Lead-In and Lead-Out : No

Used output format : C:\Utilities\flac\flac-1.1.4-win\bin\flac.exe (User Defined Encoder)
128 kBit/s
Additional command line options : -V -8 -T "artist=%a" -T "title=%t" -T "album=%g" -T "date=%y" -T "tracknumber=%n" -T "genre=%m" %s

Other options :
Fill up missing offset samples with silence : Yes
Delete leading and trailing silent blocks : No
Installed external ASPI interface


Track 1
Filename C:\Ups\3\A\Tempest - Serrated Edge (1992) [flac]\01 - Hal-an-Tow.wav

Pre-gap length 0:00:02.00

Peak level 100.0 %
Track quality 99.9 %
Test CRC FC5D1E05
Copy CRC FC5D1E05
Copy OK

Track 2
Filename C:\Ups\3\A\Tempest - Serrated Edge (1992) [flac]\02 - Raggle Taggle Gypsy.wav

Pre-gap length 0:00:02.86

Peak level 99.8 %
Track quality 100.0 %
Test CRC E9350849
Copy CRC E9350849
Copy OK

Track 3
Filename C:\Ups\3\A\Tempest - Serrated Edge (1992) [flac]\03 - A Kiss in the Morning Early.wav

Pre-gap length 0:00:03.02

Peak level 99.8 %
Track quality 100.0 %
Test CRC 57CF7426
Copy CRC 57CF7426
Copy OK

Track 4
Filename C:\Ups\3\A\Tempest - Serrated Edge (1992) [flac]\04 - Reels On Fire.wav

Pre-gap length 0:00:04.80

Peak level 100.0 %
Track quality 100.0 %
Test CRC 8E3D4D8C
Copy CRC 8E3D4D8C
Copy OK

Track 5
Filename C:\Ups\3\A\Tempest - Serrated Edge (1992) [flac]\05 - The House Carpenter.wav

Pre-gap length 0:00:01.69

Peak level 100.0 %
Track quality 99.9 %
Test CRC 106F5252
Copy CRC 106F5252
Copy OK

Track 6
Filename C:\Ups\3\A\Tempest - Serrated Edge (1992) [flac]\06 - Whiskey in the Jar.wav

Pre-gap length 0:00:03.17

Peak level 100.0 %
Track quality 99.9 %
Test CRC AB2C09EA
Copy CRC AB2C09EA
Copy OK

Track 7
Filename C:\Ups\3\A\Tempest - Serrated Edge (1992) [flac]\07 - Dark Lover.wav

Pre-gap length 0:00:02.20

Peak level 100.0 %
Track quality 99.9 %
Test CRC BE0D4D9C
Copy CRC BE0D4D9C
Copy OK

Track 8
Filename C:\Ups\3\A\Tempest - Serrated Edge (1992) [flac]\08 - Tam Lin.wav

Peak level 100.0 %
Track quality 100.0 %
Test CRC 382EEB3B
Copy CRC 382EEB3B
Copy OK

Track 9
Filename C:\Ups\3\A\Tempest - Serrated Edge (1992) [flac]\09 - Mad Tom of Bedlam.wav

Pre-gap length 0:00:02.82

Peak level 100.0 %
Track quality 100.0 %
Test CRC 232A1204
Copy CRC 232A1204
Copy OK

Track 10
Filename C:\Ups\3\A\Tempest - Serrated Edge (1992) [flac]\10 - The Ballydesmond Set.wav

Pre-gap length 0:00:05.44

Peak level 100.0 %
Track quality 100.0 %
Test CRC E0255DAF
Copy CRC E0255DAF
Copy OK

No errors occured


End of status report


foobar2000 1.2.9 / Dynamic Range Meter 1.1.1
log date: 2017-06-27 18:15:11

––––––––––––––––––––––––––––––––––––––––
Analyzed: Tempest / Serrated Edge
––––––––––––––––––––––––––––––––––––––––

DR Peak RMS Duration Track
––––––––––––––––––––––––––––––––––––––––
DR15 0.00 dB -16.41 dB 4:13 01-Hal-an-Tow
DR15 -0.01 dB -16.82 dB 4:02 02-Raggle Taggle Gypsy
DR16 -0.01 dB -17.66 dB 3:28 03-A Kiss in the Morning Early
DR15 0.00 dB -17.66 dB 3:06 04-Reels On Fire
DR16 0.00 dB -18.90 dB 6:57 05-The House Carpenter
DR15 0.00 dB -16.76 dB 4:31 06-Whiskey in the Jar
DR16 0.00 dB -18.57 dB 3:26 07-Dark Lover
DR16 0.00 dB -18.16 dB 5:12 08-Tam Lin
DR15 0.00 dB -16.23 dB 3:51 09-Mad Tom of Bedlam
DR16 0.00 dB -17.35 dB 4:11 10-The Ballydesmond Set
––––––––––––––––––––––––––––––––––––––––

Number of tracks: 10
Official DR value: DR16

Samplerate: 44100 Hz
Channels: 2
Bits per sample: 16
Bitrate: 842 kbps
Codec: FLAC
================================================================================



[CUETools log; Date: 27.06.2017 18:15:06; Version: 2.1.4]
[CTDB TOCID: QH7fFuaMxGEBY2FpGIsjkIWnrbg-] disk not present in database.
[AccurateRip ID: 00100716-008126c8-970a100a] found.
Track [ CRC | V2 ] Status
01 [f40c4bbc|f2af066e] (0+0/1) No match
02 [b4487033|edac8ffb] (0+0/1) No match
03 [beb81e21|678717e4] (0+0/1) No match
04 [34c90ca4|7f1a59c8] (0+0/1) No match
05 [cdda61b2|c0f862e3] (0+0/1) No match
06 [58c80f79|f4492f37] (0+0/1) No match
07 [43dc9af9|ee7d39af] (0+0/1) No match
08 [0b91d9dc|c2158088] (0+0/1) No match
09 [bfd9aa9f|1ceae694] (0+0/1) No match
10 [dabb7031|787f0b55] (0+0/1) No match
Offsetted by 664:
01 [9f3355d3] (1/1) Accurately ripped
02 [6cfff8c3] (1/1) Accurately ripped
03 [9ba39b21] (1/1) Accurately ripped
04 [7fbc649c] (1/1) Accurately ripped
05 [f64ed115] (1/1) Accurately ripped
06 [99238d6e] (1/1) Accurately ripped
07 [37319a0a] (1/1) Accurately ripped
08 [15428a0f] (1/1) Accurately ripped
09 [5255321d] (1/1) Accurately ripped
10 [b04e8059] (1/1) Accurately ripped

Track Peak [ CRC32 ] [W/O NULL] [ LOG ]
– 100,0 [51DC64D3] [8867FC6F]
01 100,0 [FC5D1E05] [545DA393] CRC32
02 99,8 [E9350849] [BB95AEB9] CRC32
03 99,8 [57CF7426] [5C322956] CRC32
04 100,0 [8E3D4D8C] [FC3BE77C] CRC32
05 100,0 [106F5252] [30C5D4C6] CRC32
06 100,0 [AB2C09EA] [8FBB681B] CRC32
07 100,0 [BE0D4D9C] [55442904] CRC32
08 100,0 [382EEB3B] [FB4BC875] CRC32
09 100,0 [232A1204] [E6119C3B] CRC32
10 100,0 [E0255DAF] [CE5764FA] CRC32


* * * * *

Tempest: CD Collection (1992 - 2010)

CD02: Tempest - Sunken Treasures (1993)
EAC | Flac(Image) + Cue + Log & MP3 CBR 320Kbps
Firebird, FAM10103-2 | ~ 400 or 140 Mb | Scans
Folk-Rock, Prog Folk, Celtic Rock

Tracklist:

01. Queen Of Argyll
02. Nottamun Town
03. Milligan's Fancy
04. When Tenskwatawa Sings
05. Black Jack Davy
06. The Creel: Celtic Society's Quickstep/The Drunken Piper
07. And Shall Trelawney Die?
08. Cat In The Corner
09. Heavy Nettles: Trip To Neenagh/Jenny Nettles
10. One Last Cold Kiss
11. Baladi
12. The Barrow Man
13. Winding Road
14. The Parting Glass

Converted to Image (CUETools 2.1.4)

Exact Audio Copy V0.99 prebeta 4 from 23. January 2008

EAC extraction logfile from 12. August 2008, 20:12

Tempest / Sunken Treasures

Used drive : SONY CD-RW CRX230EE Adapter: 4 ID: 1

Read mode : Secure
Utilize accurate stream : Yes
Defeat audio cache : Yes
Make use of C2 pointers : No

Read offset correction : 6
Overread into Lead-In and Lead-Out : No
Fill up missing offset samples with silence : Yes
Delete leading and trailing silent blocks : No
Null samples used in CRC calculations : Yes
Used interface : Installed external ASPI interface
Gap handling : Appended to previous track

Used output format : User Defined Encoder
Selected bitrate : 128 kBit/s
Quality : High
Add ID3 tag : No
Command line compressor : C:\Program Files\Exact Audio Copy\Flac\flac.exe
Additional command line options : -V -8 -T "artist=%a" -T "title=%t" -T "album=%g" -T "date=%y" -T "tracknumber=%n" -T "genre=%m" %s


TOC of the extracted CD

Track | Start | Length | Start sector | End sector
––––––––––––––––––––––––––––-
1 | 0:00.00 | 4:12.70 | 0 | 18969
2 | 4:12.70 | 4:03.02 | 18970 | 37196
3 | 8:15.72 | 4:23.25 | 37197 | 56946
4 | 12:39.22 | 3:50.65 | 56947 | 74261
5 | 16:30.12 | 3:12.18 | 74262 | 88679
6 | 19:42.30 | 8:15.30 | 88680 | 125834
7 | 27:57.60 | 2:01.25 | 125835 | 134934
8 | 29:59.10 | 3:53.27 | 134935 | 152436
9 | 33:52.37 | 5:46.18 | 152437 | 178404
10 | 39:38.55 | 5:10.25 | 178405 | 201679
11 | 44:49.05 | 2:56.65 | 201680 | 214944
12 | 47:45.70 | 3:06.52 | 214945 | 228946
13 | 50:52.47 | 5:12.23 | 228947 | 252369
14 | 56:04.70 | 3:09.72 | 252370 | 266616


Track 1

Filename C:\Ups\1\Tempest - Sunken Treasures (1993) [FLAC]\01 - Queen of Argyll.wav

Pre-gap length 0:00:02.00

Peak level 100.0 %
Track quality 100.0 %
Test CRC B20A14B0
Copy CRC B20A14B0
Accurately ripped (confidence 2) [4CDBBEF1]
Copy OK

Track 2

Filename C:\Ups\1\Tempest - Sunken Treasures (1993) [FLAC]\02 - Nottamun Town.wav

Pre-gap length 0:00:00.06

Peak level 100.0 %
Track quality 100.0 %
Test CRC 99A15385
Copy CRC 99A15385
Accurately ripped (confidence 2) [0DCA5F2C]
Copy OK

Track 3

Filename C:\Ups\1\Tempest - Sunken Treasures (1993) [FLAC]\03 - Milligan's Fancy.wav

Pre-gap length 0:00:00.62

Peak level 100.0 %
Track quality 99.9 %
Test CRC EA9A3A05
Copy CRC EA9A3A05
Accurately ripped (confidence 2) [16F02DF8]
Copy OK

Track 4

Filename C:\Ups\1\Tempest - Sunken Treasures (1993) [FLAC]\04 - When Tenskwatawa Sings.wav

Pre-gap length 0:00:00.20

Peak level 100.0 %
Track quality 100.0 %
Test CRC 2948336C
Copy CRC 2948336C
Accurately ripped (confidence 2) [3E479577]
Copy OK

Track 5

Filename C:\Ups\1\Tempest - Sunken Treasures (1993) [FLAC]\05 - Black Jack Davy.wav

Pre-gap length 0:00:00.09

Peak level 100.0 %
Track quality 99.9 %
Test CRC BEF2FA8C
Copy CRC BEF2FA8C
Accurately ripped (confidence 2) [37651CAA]
Copy OK

Track 6

Filename C:\Ups\1\Tempest - Sunken Treasures (1993) [FLAC]\06 - The Creel.wav

Pre-gap length 0:00:00.66

Peak level 100.0 %
Track quality 100.0 %
Test CRC 72946FA1
Copy CRC 72946FA1
Accurately ripped (confidence 2) [82C0250E]
Copy OK

Track 7

Filename C:\Ups\1\Tempest - Sunken Treasures (1993) [FLAC]\07 - And Shall Trelawney Die .wav

Pre-gap length 0:00:01.00

Peak level 100.0 %
Track quality 100.0 %
Test CRC F3E5DBCD
Copy CRC F3E5DBCD
Accurately ripped (confidence 2) [A03AA8A4]
Copy OK

Track 8

Filename C:\Ups\1\Tempest - Sunken Treasures (1993) [FLAC]\08 - Cat in the Corner.wav

Pre-gap length 0:00:00.64

Peak level 100.0 %
Track quality 100.0 %
Test CRC E2A31D24
Copy CRC E2A31D24
Accurately ripped (confidence 2) [F0517AC0]
Copy OK

Track 9

Filename C:\Ups\1\Tempest - Sunken Treasures (1993) [FLAC]\09 - Heavy Nettles.wav

Pre-gap length 0:00:01.00

Peak level 100.0 %
Track quality 100.0 %
Test CRC 15C5298F
Copy CRC 15C5298F
Accurately ripped (confidence 2) [85A68ABB]
Copy OK

Track 10

Filename C:\Ups\1\Tempest - Sunken Treasures (1993) [FLAC]\10 - One Last Cold Kiss.wav

Pre-gap length 0:00:01.53

Peak level 100.0 %
Track quality 100.0 %
Test CRC 48476C1B
Copy CRC 48476C1B
Accurately ripped (confidence 2) [38AA192C]
Copy OK

Track 11

Filename C:\Ups\1\Tempest - Sunken Treasures (1993) [FLAC]\11 - Baladi.wav

Pre-gap length 0:00:03.57

Peak level 100.0 %
Track quality 100.0 %
Test CRC 4A09D061
Copy CRC 4A09D061
Accurately ripped (confidence 2) [06C3E8A5]
Copy OK

Track 12

Filename C:\Ups\1\Tempest - Sunken Treasures (1993) [FLAC]\12 - The Barrow Man.wav

Pre-gap length 0:00:00.84

Peak level 99.9 %
Track quality 100.0 %
Test CRC 13E90884
Copy CRC 13E90884
Accurately ripped (confidence 2) [3429A262]
Copy OK

Track 13

Filename C:\Ups\1\Tempest - Sunken Treasures (1993) [FLAC]\13 - Winding Road.wav

Pre-gap length 0:00:00.46

Peak level 100.0 %
Track quality 100.0 %
Test CRC 3FB9CAD7
Copy CRC 3FB9CAD7
Accurately ripped (confidence 2) [EE2DBE21]
Copy OK

Track 14

Filename C:\Ups\1\Tempest - Sunken Treasures (1993) [FLAC]\14 - The Parting Glass.wav

Peak level 100.0 %
Track quality 99.9 %
Test CRC 2AF15930
Copy CRC 2AF15930
Track not present in AccurateRip database
Copy OK


13 track(s) accurately ripped
1 track(s) not present in the AccurateRip database

Some tracks could not be verified as accurate

No errors occurred

End of status report


foobar2000 1.2.9 / Dynamic Range Meter 1.1.1
log date: 2017-06-27 18:15:28

––––––––––––––––––––––––––––––––––––––––
Analyzed: Tempest / Sunken Treasures
––––––––––––––––––––––––––––––––––––––––

DR Peak RMS Duration Track
––––––––––––––––––––––––––––––––––––––––
DR12 0.00 dB -12.71 dB 4:13 01-Queen of Argyll
DR15 0.00 dB -15.69 dB 4:03 02-Nottamun Town
DR11 0.00 dB -11.54 dB 4:23 03-Milligan's Fancy
DR12 0.00 dB -13.43 dB 3:51 04-When Tenskwatawa Sings
DR11 0.00 dB -11.73 dB 3:12 05-Black Jack Davy
DR12 0.00 dB -13.75 dB 8:15 06-The Creel
DR13 0.00 dB -14.57 dB 2:01 07-And Shall Trelawney Die?
DR11 0.00 dB -12.77 dB 3:53 08-Cat in the Corner
DR11 0.00 dB -13.19 dB 5:46 09-Heavy Nettles
DR11 0.00 dB -12.38 dB 5:10 10-One Last Cold Kiss
DR13 0.00 dB -14.20 dB 2:57 11-Baladi
DR12 -0.01 dB -14.03 dB 3:07 12-The Barrow Man
DR11 0.00 dB -12.32 dB 5:12 13-Winding Road
DR14 0.00 dB -16.00 dB 3:10 14-The Parting Glass
––––––––––––––––––––––––––––––––––––––––

Number of tracks: 14
Official DR value: DR12

Samplerate: 44100 Hz
Channels: 2
Bits per sample: 16
Bitrate: 917 kbps
Codec: FLAC
================================================================================



[CUETools log; Date: 27.06.2017 18:15:30; Version: 2.1.4]
[CTDB TOCID: 9RUOFhv.SJsFOfkHGJyHVeoShig-] found.
Track | CTDB Status
1 | (3/3) Accurately ripped
2 | (3/3) Accurately ripped
3 | (3/3) Accurately ripped
4 | (3/3) Accurately ripped
5 | (3/3) Accurately ripped
6 | (3/3) Accurately ripped
7 | (3/3) Accurately ripped
8 | (3/3) Accurately ripped
9 | (3/3) Accurately ripped
10 | (3/3) Accurately ripped
11 | (3/3) Accurately ripped
12 | (3/3) Accurately ripped
13 | (3/3) Accurately ripped
14 | (3/3) Accurately ripped
[AccurateRip ID: 001f0263-014b2ba0-cf0de20e] found.
Track [ CRC | V2 ] Status
01 [4cdbbef1|23ec5120] (4+4/8) Accurately ripped
02 [0dca5f2c|44e1395f] (4+4/8) Accurately ripped
03 [16f02df8|f34450ca] (4+4/8) Accurately ripped
04 [3e479577|2f7a814d] (4+4/8) Accurately ripped
05 [37651caa|951779bb] (4+4/8) Accurately ripped
06 [82c0250e|738a56af] (4+4/8) Accurately ripped
07 [a03aa8a4|7b76810f] (4+4/8) Accurately ripped
08 [f0517ac0|e98cbb44] (4+4/8) Accurately ripped
09 [85a68abb|3547aa03] (4+4/8) Accurately ripped
10 [38aa192c|76691022] (4+4/8) Accurately ripped
11 [06c3e8a5|418ce944] (4+4/8) Accurately ripped
12 [3429a262|ff890cb1] (4+4/8) Accurately ripped
13 [ee2dbe21|58b2c89e] (4+4/8) Accurately ripped
14 [3d31321a|d5aa03a7] (3+4/7) Accurately ripped

Track Peak [ CRC32 ] [W/O NULL] [ LOG ]
– 100,0 [D1F2295E] [A164F440]
01 100,0 [B20A14B0] [26934AC9] CRC32
02 100,0 [99A15385] [2AAFE167] CRC32
03 100,0 [EA9A3A05] [DFDC8014] CRC32
04 100,0 [2948336C] [FF93DB5E] CRC32
05 100,0 [BEF2FA8C] [2EF48718] CRC32
06 100,0 [72946FA1] [7AB3877C] CRC32
07 100,0 [F3E5DBCD] [7432C283] CRC32
08 100,0 [E2A31D24] [58F18CC0] CRC32
09 100,0 [15C5298F] [040B308B] CRC32
10 100,0 [48476C1B] [A0E2B6AC] CRC32
11 100,0 [4A09D061] [1D6FAA22] CRC32
12 99,9 [13E90884] [5A5EB773] CRC32
13 100,0 [3FB9CAD7] [0C4ECDE4] CRC32
14 100,0 [2AF15930] [B82C9C2F] CRC32


* * * * *

Tempest: CD Collection (1992 - 2010)

CD03: Tempest - The Gravel Walk (1997)
EAC | Flac(Image) + Cue + Log & MP3 CBR 320Kbps
HTD Records, HTDCD94 | ~ 364 or 121 Mb | Scans
Folk-Rock, Prog Folk, Celtic Rock

The results of the tinkering that Tempest has conducted on previous albums are unveiled with resounding results. The Gravel Walk achieves a solid balance between their foundational classic '70s rock and folk influences. Lead singer, flautist, and mandolin player Lief Sorbye is no longer the dominant centerstage occupant. His once commanding presence has blended smoothly with that of his bandmates. Most of these fellows have played together for years but are now reaching their height as performers who have settled on their musical blueprint and grown comfortable with it. Particularly well-suited for Tempest's dual-purpose is fiddler Michael Mullen. He is just as adept at incorporating traditional Irish reels ("Flowers of Red Hill") as he is at integrating a searing Robbie Steinhardt-esque electric violin solo. Robert Wullenjohn compares favorably to Jethro Tull guitarist Martin Barre. Many of his mannerisms resemble Barre's, including his well-tempered, crafty but not self-absorbed style. He's forever hovering around each song, preparing to plunge in with an irresistible riff or to playfully insert some humorous fretwork when applicable. As usual, a couple of Norwegian folk songs from Sorbye's vast catalog are included. "Sinclair" is a quaint number sung in Norwegian that, were it not for the English introduction and translation, could easily pass as a harmless courting or seafaring song rather than the conniving and pillaging account of battle that it is. Buried deep in the "Karfluki Set" is yet another version of "Music for a Found Harmonium." An accommodating piece, it lends itself nicely to a variety of arrangements including this funky, free-form, folk-rock assault by Tempest. Bassist Jay Nania and drummer Adolfo Lazo flawlessly provide the rhythm necessary for those versatile jaunts into the wonderful world of "Celtodelia."

by Dave Sleger, allmusic
Tracklist:

01 - One For The Fiddler
02 - Buffalo Jump
03 - Bonnie Lass Of Anglesey
04 - Green Grow The Rashes
05 - Flowers Of Red Hill
06 - Sinclair
07 - Plains Of Kildare
08 - Trip Across The Mountain
09 - Broken Ring
10 - The Karfluki Set

Exact Audio Copy V1.0 beta 3 from 29. August 2011

EAC extraction logfile from 19. February 2014, 22:25

Tempest / The Gravel Walk

Used drive : PLEXTOR DVDR PX-891SA Adapter: 0 ID: 2

Read mode : Secure
Utilize accurate stream : Yes
Defeat audio cache : Yes
Make use of C2 pointers : No

Read offset correction : 6
Overread into Lead-In and Lead-Out : No
Fill up missing offset samples with silence : Yes
Delete leading and trailing silent blocks : No
Null samples used in CRC calculations : Yes
Used interface : Installed external ASPI interface

Used output format : User Defined Encoder
Selected bitrate : 320 kBit/s
Quality : High
Add ID3 tag : No
Command line compressor : C:\Program Files\Exact Audio Copy 1.0\Flac\flac.exe
Additional command line options : -V -8 -T "Genre=%genre%" -T "Artist=%artist%" -T "Title=%title%" -T "Album=%albumtitle%" -T "Date=%year%" -T "Tracknumber=%tracknr%" -T "Comment=%comment%" %source%


TOC of the extracted CD

Track | Start | Length | Start sector | End sector
––––––––––––––––––––––––––––-
1 | 0:00.00 | 3:32.10 | 0 | 15909
2 | 3:32.10 | 5:51.59 | 15910 | 42293
3 | 9:23.69 | 4:48.61 | 42294 | 63954
4 | 14:12.55 | 4:41.52 | 63955 | 85081
5 | 18:54.32 | 4:09.49 | 85082 | 103805
6 | 23:04.06 | 6:13.40 | 103806 | 131820
7 | 29:17.46 | 4:16.03 | 131821 | 151023
8 | 33:33.49 | 4:44.54 | 151024 | 172377
9 | 38:18.28 | 4:51.05 | 172378 | 194207
10 | 43:09.33 | 8:02.02 | 194208 | 230359


Range status and errors

Selected range

Filename K:\Lossless Temp\Tempest\Tempest - The Gravel Walk - 1997 (1997 HTD Records, HTDCD94)\Tempest - The Gravel Walk.wav

Peak level 96.6 %
Extraction speed 6.2 X
Range quality 100.0 %
Test CRC CE57B988
Copy CRC CE57B988
Copy OK

No errors occurred


AccurateRip summary

Track 1 cannot be verified as accurate (confidence 5) [A9C3169D], AccurateRip returned [DBB4F80C] (AR v2)
Track 2 cannot be verified as accurate (confidence 5) [BDE41E59], AccurateRip returned [0C6F73A9] (AR v2)
Track 3 cannot be verified as accurate (confidence 5) [63132F7F], AccurateRip returned [5E57781E] (AR v2)
Track 4 cannot be verified as accurate (confidence 5) [AE3BC5CF], AccurateRip returned [DF0BA3F0] (AR v2)
Track 5 cannot be verified as accurate (confidence 5) [0EF29947], AccurateRip returned [78A25EB8] (AR v2)
Track 6 cannot be verified as accurate (confidence 5) [A632036E], AccurateRip returned [919F71E0] (AR v2)
Track 7 cannot be verified as accurate (confidence 4) [7DFB7820], AccurateRip returned [2BA9FC0F] (AR v2)
Track 8 cannot be verified as accurate (confidence 5) [76339CDB], AccurateRip returned [04EFDC63] (AR v2)
Track 9 cannot be verified as accurate (confidence 5) [451617C0], AccurateRip returned [9CAD2B74] (AR v2)
Track 10 cannot be verified as accurate (confidence 5) [EC317A2F], AccurateRip returned [85158B3D] (AR v2)

No tracks could be verified as accurate
You may have a different pressing from the one(s) in the database

End of status report

==== Log checksum D2AA5D40E54ED3B62D31E500D5FE1C5DFAAD46AB25953DADF5CC83FA9469B820 ====


foobar2000 1.2.9 / Dynamic Range Meter 1.1.1
log date: 2017-06-27 18:15:43

––––––––––––––––––––––––––––––––––––––––
Analyzed: Tempest / The Gravel Walk
––––––––––––––––––––––––––––––––––––––––

DR Peak RMS Duration Track
––––––––––––––––––––––––––––––––––––––––
DR9 -0.30 dB -10.05 dB 3:32 01-One For The Fiddler
DR9 -0.30 dB -11.48 dB 5:52 02-Buffalo Jump
DR10 -0.30 dB -12.01 dB 4:49 03-Bonnie Lass Of Anglesey
DR9 -0.30 dB -10.86 dB 4:42 04-Green Grow The Rashes
DR9 -0.30 dB -12.51 dB 4:10 05-Flowers Of Red Hill
DR9 -0.30 dB -11.06 dB 6:14 06-Sinclair
DR10 -0.30 dB -11.47 dB 4:16 07-Plains Of Kildare
DR7 -0.30 dB -9.68 dB 4:45 08-Trip Across The Mountain
DR8 -0.30 dB -10.03 dB 4:51 09-Broken Ring
DR8 -0.30 dB -10.56 dB 8:02 10-The Karfluki Set
––––––––––––––––––––––––––––––––––––––––

Number of tracks: 10
Official DR value: DR9

Samplerate: 44100 Hz
Channels: 2
Bits per sample: 16
Bitrate: 966 kbps
Codec: FLAC
================================================================================



[CUETools log; Date: 27.06.2017 18:15:47; Version: 2.1.4]
[CTDB TOCID: 3Q6ZWeZbFmBHHYIlzdozUFUZ2_E-] found.
Track | CTDB Status
1 | (9/9) Accurately ripped
2 | (9/9) Accurately ripped
3 | (9/9) Accurately ripped
4 | (9/9) Accurately ripped
5 | (9/9) Accurately ripped
6 | (9/9) Accurately ripped
7 | (9/9) Accurately ripped
8 | (9/9) Accurately ripped
9 | (9/9) Accurately ripped
10 | (9/9) Accurately ripped
[AccurateRip ID: 00122bb6-0092ce9e-7b0bff0a] found.
Track [ CRC | V2 ] Status
01 [282728a7|a9c3169d] (00+00/10) No match
02 [7b806c8c|bde41e59] (00+00/10) No match
03 [d8f2c6a9|63132f7f] (00+00/10) No match
04 [9b8f0fc7|ae3bc5cf] (00+00/10) No match
05 [b71aaee7|0ef29947] (00+00/10) No match
06 [a05620ff|a632036e] (00+00/10) No match
07 [692abf07|7dfb7820] (00+00/09) No match
08 [e8c72fab|76339cdb] (00+00/10) No match
09 [be04519f|451617c0] (00+00/10) No match
10 [33073d61|ec317a2f] (00+00/10) No match
Offsetted by 667:
01 [dbb4f80c] (05/10) Accurately ripped
02 [0c6f73a9] (05/10) Accurately ripped
03 [5e57781e] (05/10) Accurately ripped
04 [df0ba3f0] (05/10) Accurately ripped
05 [78a25eb8] (05/10) Accurately ripped
06 [919f71e0] (05/10) Accurately ripped
07 [2ba9fc0f] (04/09) Accurately ripped
08 [04efdc63] (05/10) Accurately ripped
09 [9cad2b74] (05/10) Accurately ripped
10 [85158b3d] (05/10) Accurately ripped

Track Peak [ CRC32 ] [W/O NULL] [ LOG ]
– 96,6 [CE57B988] [ADD6486B] CRC32
01 96,6 [47F651CE] [70483B01]
02 96,6 [A343D210] [2CEF7CD9]
03 96,6 [19B2269B] [DE71C863]
04 96,6 [8E647DB1] [544C8E5B]
05 96,6 [A1278277] [FB561613]
06 96,6 [27EF142A] [29F14CBB]
07 96,6 [A5CB1F44] [686E8661]
08 96,6 [99AF0DE6] [C317D2E8]
09 96,6 [7045DC7D] [69A239EC]
10 96,6 [80B57125] [6861A56B]


* * * * *

Tempest: CD Collection (1992 - 2010)

CD04: Tempest - Balance (2000)
EAC | Flac(Image) + Cue + Log & MP3 CBR 320Kbps
Magna Carta, MA 9053-2 | ~ 378 or 120 Mb | Scans
Folk-Rock, Prog Folk, Celtic Rock

Balance is Tempest's first studio album of new material since 1997's The Gravel Walk. The band endured several personnel changes in the years following The Gravel Walk: The 10th Anniversary Compilation introduced new members John Land (bass) and Dave Parnall (guitars) in 1998, while the following year the group's independently released Live at the Philadelphia Folk Festival welcomed new guitarist Todd Evans, who displayed a harder rocking style than his predecessor Rob Wullenjohn. Balance finds Tempest again adjusting to the addition of key members, namely bassist William Maxwell and fiddler Jim Hurley, who replaces the effervescent Michael Mullen (who rosined up the bow ever since the group's 1996 Magna Carta debut Turn of the Wheel). Only singer Lief Sorbye and drummer Adolfo Lazo remain from the band's late-'80s inception. With a keen sense of traditional Celtic and Norwegian music, Tempest is a rock band that prefers to pepper its songs with those influences and not vice versa. Balance is perhaps the group's most hard-rocking effort to date, particularly due to Evans' crunching electric guitar. At times he conjurs up comparisons to Richie Blackmore; other times the virtuosity and eclecticism of Lanny Cordolla surfaces. Evans' two instrumental numbers, "Dance of the Sand Witches" and "Battle Mountain Breakdown," are scorching worldbeat rockers that needn't take a back seat to Jimmy Page or any of the '70s guitar gods who dared to venture beyond basic three-chord speed and cock rock. The Jethro Tull and Fairport Convention likenesses still exist, but this album is the most individualistic of Tempest's nine albums to date. Sorbye's songwriting and vocals are solidifying with age and Lazo's drumming is equally confident and authoritative. Given Tempest's foundation in '70s rock and its string of five or six exceptional albums, had this band existed 25 years ago, it would most assuredly be mentioned alongside Tull, King Crimson, Genesis, and Gentle Giant when citing the elite of progressive rock bands.

by Dave Sleger, allmusic
Tracklist:

01. Captain Ward
02. Dancing Girl
03. Dance Of The Sand Witches
04. Iron Lady
05. Two Sisters
06. Wicked Spring
07. Old Man Flint
08. Villemann
09. Battle Mountain Breakdown
10. The Journeyman
11. Between Us
12. Royal Oak

Exact Audio Copy V1.0 beta 3 from 29. August 2011

EAC extraction logfile from 19. February 2014, 22:47

Tempest / Balance

Used drive : PLEXTOR DVDR PX-891SA Adapter: 0 ID: 2

Read mode : Secure
Utilize accurate stream : Yes
Defeat audio cache : Yes
Make use of C2 pointers : No

Read offset correction : 6
Overread into Lead-In and Lead-Out : No
Fill up missing offset samples with silence : Yes
Delete leading and trailing silent blocks : No
Null samples used in CRC calculations : Yes
Used interface : Installed external ASPI interface

Used output format : User Defined Encoder
Selected bitrate : 320 kBit/s
Quality : High
Add ID3 tag : No
Command line compressor : C:\Program Files\Exact Audio Copy 1.0\Flac\flac.exe
Additional command line options : -V -8 -T "Genre=%genre%" -T "Artist=%artist%" -T "Title=%title%" -T "Album=%albumtitle%" -T "Date=%year%" -T "Tracknumber=%tracknr%" -T "Comment=%comment%" %source%


TOC of the extracted CD

Track | Start | Length | Start sector | End sector
––––––––––––––––––––––––––––-
1 | 0:00.00 | 3:44.37 | 0 | 16836
2 | 3:44.37 | 3:49.58 | 16837 | 34069
3 | 7:34.20 | 4:20.42 | 34070 | 53611
4 | 11:54.62 | 4:38.60 | 53612 | 74521
5 | 16:33.47 | 5:25.50 | 74522 | 98946
6 | 21:59.22 | 3:50.43 | 98947 | 116239
7 | 25:49.65 | 3:30.05 | 116240 | 131994
8 | 29:19.70 | 4:34.57 | 131995 | 152601
9 | 33:54.52 | 2:54.25 | 152602 | 165676
10 | 36:49.02 | 5:35.63 | 165677 | 190864
11 | 42:24.65 | 4:22.50 | 190865 | 210564
12 | 46:47.40 | 4:00.32 | 210565 | 228596


Range status and errors

Selected range

Filename K:\Lossless Temp\Tempest\Tempest - Balance - 2000 (2001 Magna Carta, MA 9053-2)\Tempest - Balance.wav

Peak level 98.8 %
Extraction speed 6.1 X
Range quality 100.0 %
Test CRC A6DA1004
Copy CRC A6DA1004
Copy OK

No errors occurred


AccurateRip summary

Track 1 accurately ripped (confidence 4) [3BF0F680] (AR v2)
Track 2 accurately ripped (confidence 4) [0D87B15B] (AR v2)
Track 3 accurately ripped (confidence 4) [2CB46E06] (AR v2)
Track 4 accurately ripped (confidence 4) [4E949983] (AR v2)
Track 5 accurately ripped (confidence 4) [06F214E5] (AR v2)
Track 6 accurately ripped (confidence 4) [3417BB3F] (AR v2)
Track 7 accurately ripped (confidence 4) [AFA30B81] (AR v2)
Track 8 accurately ripped (confidence 4) [4896FC81] (AR v2)
Track 9 accurately ripped (confidence 4) [10ABD937] (AR v2)
Track 10 accurately ripped (confidence 4) [9C219D26] (AR v2)
Track 11 accurately ripped (confidence 4) [FA50A228] (AR v2)
Track 12 accurately ripped (confidence 4) [D1FC8DD1] (AR v2)

All tracks accurately ripped

End of status report

==== Log checksum 02D57C3AC8032881B7567A6DC5D8CAED02BE74A03993839AFD65EE8649033A42 ====


foobar2000 1.2.9 / Dynamic Range Meter 1.1.1
log date: 2017-06-27 18:16:06

––––––––––––––––––––––––––––––––––––––––
Analyzed: Tempest / Balance
––––––––––––––––––––––––––––––––––––––––

DR Peak RMS Duration Track
––––––––––––––––––––––––––––––––––––––––
DR6 -0.10 dB -7.80 dB 3:44 01-Captain Ward
DR8 -0.10 dB -9.77 dB 3:50 02-Dancing Girl
DR6 -0.10 dB -7.19 dB 4:21 03-Dance of the Sand Witches
DR7 -0.10 dB -9.35 dB 4:39 04-Iron Lady
DR7 -0.10 dB -9.05 dB 5:26 05-Two Sisters
DR7 -0.10 dB -8.82 dB 3:51 06-Wicked Spring
DR7 -0.10 dB -8.66 dB 3:30 07-Old Man Flint
DR7 -0.10 dB -8.51 dB 4:35 08-Villemann
DR6 -0.10 dB -7.23 dB 2:54 09-Battle Mountain Breakdown
DR7 -0.10 dB -9.09 dB 5:36 10-The Journeyman
DR7 -0.10 dB -9.24 dB 4:23 11-Between Us
DR6 -0.10 dB -7.40 dB 4:00 12-Royal Oak
––––––––––––––––––––––––––––––––––––––––

Number of tracks: 12
Official DR value: DR7

Samplerate: 44100 Hz
Channels: 2
Bits per sample: 16
Bitrate: 1009 kbps
Codec: FLAC
================================================================================



[CUETools log; Date: 27.06.2017 18:16:06; Version: 2.1.4]
[CTDB TOCID: HDXsmp.Wp8cs8NZkpQI4HdFBCWI-] found.
Track | CTDB Status
1 | (15/15) Accurately ripped
2 | (15/15) Accurately ripped
3 | (15/15) Accurately ripped
4 | (15/15) Accurately ripped
5 | (15/15) Accurately ripped
6 | (15/15) Accurately ripped
7 | (15/15) Accurately ripped
8 | (15/15) Accurately ripped
9 | (14/15) Accurately ripped
10 | (15/15) Accurately ripped
11 | (15/15) Accurately ripped
12 | (15/15) Accurately ripped
[AccurateRip ID: 00167fe1-00d2caed-970be70c] found.
Track [ CRC | V2 ] Status
01 [6483995b|3bf0f680] (02+05/12) Accurately ripped
02 [a6c20b13|0d87b15b] (02+05/12) Accurately ripped
03 [e169494a|2cb46e06] (02+05/12) Accurately ripped
04 [8493cede|4e949983] (02+05/12) Accurately ripped
05 [12152846|06f214e5] (02+05/12) Accurately ripped
06 [4308dbc3|3417bb3f] (02+05/12) Accurately ripped
07 [c11039f2|afa30b81] (02+05/12) Accurately ripped
08 [014d7c90|4896fc81] (02+05/12) Accurately ripped
09 [7124487a|10abd937] (02+05/12) Accurately ripped
10 [a1cdfede|9c219d26] (02+05/12) Accurately ripped
11 [33c34892|fa50a228] (02+05/12) Accurately ripped
12 [cb0a3553|d1fc8dd1] (02+05/12) Accurately ripped
Offsetted by -664:
01 [9a467ba3] (03/12) Accurately ripped
02 [cb8686f3] (03/12) Accurately ripped
03 [adb1553a] (03/12) Accurately ripped
04 [57447b16] (03/12) Accurately ripped
05 [7dafe716] (03/12) Accurately ripped
06 [e44918c3] (03/12) Accurately ripped
07 [9be37212] (03/12) Accurately ripped
08 [0f699188] (03/12) Accurately ripped
09 [1c11cb7a] (03/12) Accurately ripped
10 [240c189e] (03/12) Accurately ripped
11 [e8ab32ea] (03/12) Accurately ripped
12 [ea67aa46] (03/12) Accurately ripped
Offsetted by 593:
01 [d5a871f8] (02/12) Accurately ripped
02 [e273b9bf] (02/12) Accurately ripped
03 [b3d73560] (02/12) Accurately ripped
04 [cdd03e51] (02/12) Accurately ripped
05 [c9e33f68] (02/12) Accurately ripped
06 [020fdfe3] (02/12) Accurately ripped
07 [596553c6] (02/12) Accurately ripped
08 [70d8a5fb] (02/12) Accurately ripped
09 [18e05c5a] (02/12) Accurately ripped
10 [bd4bbd76] (02/12) Accurately ripped
11 [50a89999] (02/12) Accurately ripped
12 [9cf34af6] (02/12) Accurately ripped

Track Peak [ CRC32 ] [W/O NULL] [ LOG ]
– 98,8 [A6DA1004] [E46CAF79] CRC32
01 98,8 [5020D978] [B084B1B1]
02 98,8 [01ECA5D7] [6BC14CB9]
03 98,8 [B4BBB7A9] [A5FB9B93]
04 98,8 [909998E3] [3A5D239B]
05 98,8 [11F2BE47] [16737068]
06 98,8 [D09C0EB1] [4F6DC2DC]
07 98,8 [4D034F05] [FB189D87]
08 98,8 [B9930C4F] [B6B87C5D]
09 98,8 [6F036335] [AEDFCF40]
10 98,8 [646DB9C5] [60014041]
11 98,8 [272523B9] [6283D41E]
12 98,8 [49F974F2] [A92B5A40]


* * * * *

Tempest: CD Collection (1992 - 2010)

CD05: Tempest - Shapeshifter (2003)
EAC | Flac(Image) + Cue + Log & MP3 CBR 320Kbps
Magna Carta, MA 9066-2 | ~ 335 or 112 Mb | Scans
Folk-Rock, Prog Folk, Celtic Rock

With this album, Tempest seem to have completely found themselves. Maybe it's the new lineup, maybe it's maturity. Whatever the reason, it's very satisfying. They've worked their way out of the prog rock cul de sac that they'd been trapped in, and they've also outgrown the Steeleye Span fetish that was a hallmark of their earlier albums. The instrumental work sparkles throughout, and Lief Sørbye's vocals have more punch to them. To be fair, they shine brighter on traditional material like "Tamosher" and "Byker Hill" (a storming version) than on their own work, which is treated a little too gently. Notably, they've expanded from the British tradition to take in old American songs here ("Old Man at the Mill"), which might offer a way forward for them – they certainly do it justice. Sue Draheim is a revelation on fiddle, bringing years of playing with her, adding texture and tone. With Shapeshifter, the band does indeed shift shape, breaking out from the Celtic ghetto, while rocking as hard as ever. At the same time, although successful on its own terms, it's impossible to think of this as anything but a transitional record as they head to wherever they're going next.

by Chris Nickson, allmusic
Tracklist:

01 - Tamosher (Traditional)
02 - Catalina Island (Sorbye)
03 - Old Man at the Mill (Traditional)
04 - Natural Law (Sorbye/Reynolds)
05 - Byker Hill (Traditional)
06 - Carnival (Sorbye/Reynolds)
07 - Coalminers' (Traditional)
08 - Winter Night (Skowronek)
09 - Fjellmannjenta (Sorbye/Traditional)
10 - Cruel Brother (Traditional)

Exact Audio Copy V1.0 beta 3 from 29. August 2011

EAC extraction logfile from 21. August 2013, 1:11

Tempest / Shapeshifter

Used drive : PLEXTOR DVDR PX-891SA Adapter: 0 ID: 2

Read mode : Secure
Utilize accurate stream : Yes
Defeat audio cache : Yes
Make use of C2 pointers : No

Read offset correction : 6
Overread into Lead-In and Lead-Out : No
Fill up missing offset samples with silence : Yes
Delete leading and trailing silent blocks : No
Null samples used in CRC calculations : Yes
Used interface : Installed external ASPI interface

Used output format : User Defined Encoder
Selected bitrate : 320 kBit/s
Quality : High
Add ID3 tag : No
Command line compressor : C:\Program Files\Exact Audio Copy 1.0\Flac\flac.exe
Additional command line options : -V -8 -T "Genre=%genre%" -T "Artist=%artist%" -T "Title=%title%" -T "Album=%albumtitle%" -T "Date=%year%" -T "Tracknumber=%tracknr%" -T "Comment=%comment%" %source%


TOC of the extracted CD

Track | Start | Length | Start sector | End sector
––––––––––––––––––––––––––––-
1 | 0:00.00 | 3:36.08 | 0 | 16207
2 | 3:36.08 | 4:07.22 | 16208 | 34754
3 | 7:43.30 | 3:38.73 | 34755 | 51177
4 | 11:22.28 | 3:56.33 | 51178 | 68910
5 | 15:18.61 | 3:12.25 | 68911 | 83335
6 | 18:31.11 | 4:34.17 | 83336 | 103902
7 | 23:05.28 | 5:01.27 | 103903 | 126504
8 | 28:06.55 | 4:14.37 | 126505 | 145591
9 | 32:21.17 | 4:48.07 | 145592 | 167198
10 | 37:09.24 | 10:05.26 | 167199 | 212599


Range status and errors

Selected range

Filename K:\Lossless Temp\Tempest\Tempest - Shapeshifter - 2003 (2003 Magna Carta, MA 9066-2)\Tempest - Shapeshifter.wav

Peak level 99.1 %
Extraction speed 1.4 X
Range quality 100.0 %
Test CRC E2FF3808
Copy CRC E2FF3808
Copy OK

No errors occurred


AccurateRip summary

Track 1 accurately ripped (confidence 2) [E98C2EBE] (AR v2)
Track 2 accurately ripped (confidence 2) [E4A7936C] (AR v2)
Track 3 accurately ripped (confidence 2) [661A7449] (AR v2)
Track 4 accurately ripped (confidence 2) [D8A3645B] (AR v2)
Track 5 accurately ripped (confidence 2) [B26C099F] (AR v2)
Track 6 accurately ripped (confidence 2) [63623E28] (AR v2)
Track 7 accurately ripped (confidence 2) [118C5CA8] (AR v2)
Track 8 accurately ripped (confidence 2) [675BC41C] (AR v2)
Track 9 accurately ripped (confidence 2) [D42C76AC] (AR v2)
Track 10 accurately ripped (confidence 2) [61EB7378] (AR v2)

All tracks accurately ripped

End of status report

==== Log checksum D1D5CFB51BC4D0F7F840DC6939C654895D8F94F246CB0B6A1F4DE5FC8A8B74E4 ====


foobar2000 1.2.9 / Dynamic Range Meter 1.1.1
log date: 2017-06-27 18:16:24

––––––––––––––––––––––––––––––––––––––––
Analyzed: Tempest / Shapeshifter
––––––––––––––––––––––––––––––––––––––––

DR Peak RMS Duration Track
––––––––––––––––––––––––––––––––––––––––
DR7 -0.72 dB -9.41 dB 3:36 01-Tamosher
DR8 -0.28 dB -9.80 dB 4:07 02-Catalina Island
DR7 -0.74 dB -10.28 dB 3:39 03-Old Man At The Mill
DR8 -0.10 dB -9.84 dB 3:56 04-Natural Law
DR8 -0.07 dB -9.35 dB 3:12 05-Byker Hill
DR10 -0.14 dB -11.99 dB 4:34 06-Carnival
DR10 -0.07 dB -11.47 dB 5:01 07-Coalminers'
DR9 -0.13 dB -11.33 dB 4:14 08-Winter
DR9 -0.60 dB -11.40 dB 4:48 09-Fjellmannjenta
DR9 -0.24 dB -11.88 dB 10:05 10-Cruel Brother
––––––––––––––––––––––––––––––––––––––––

Number of tracks: 10
Official DR value: DR8

Samplerate: 44100 Hz
Channels: 2
Bits per sample: 16
Bitrate: 961 kbps
Codec: FLAC
================================================================================



[CUETools log; Date: 27.06.2017 18:16:24; Version: 2.1.4]
[CTDB TOCID: j1VIM2D6uwEhGhNb7t17JlIOl.Y-] found.
Track | CTDB Status
1 | (9/9) Accurately ripped
2 | (9/9) Accurately ripped
3 | (9/9) Accurately ripped
4 | (9/9) Accurately ripped
5 | (9/9) Accurately ripped
6 | (9/9) Accurately ripped
7 | (9/9) Accurately ripped
8 | (9/9) Accurately ripped
9 | (9/9) Accurately ripped
10 | (9/9) Accurately ripped
[AccurateRip ID: 000f6a0b-007dd3e4-820b120a] found.
Track [ CRC | V2 ] Status
01 [59b62e9c|e98c2ebe] (06+05/13) Accurately ripped
02 [a53a99c9|e4a7936c] (06+05/13) Accurately ripped
03 [5d9188ff|661a7449] (06+05/13) Accurately ripped
04 [a03d5ed0|d8a3645b] (06+05/13) Accurately ripped
05 [5eb877f6|b26c099f] (06+05/13) Accurately ripped
06 [2d110ce7|63623e28] (06+05/13) Accurately ripped
07 [31b9826c|118c5ca8] (06+05/13) Accurately ripped
08 [c7fdba9f|675bc41c] (06+05/13) Accurately ripped
09 [39b7a939|d42c76ac] (06+05/13) Accurately ripped
10 [0af3ccf8|61eb7378] (06+05/13) Accurately ripped
Offsetted by -664:
01 [b86017c4] (02/13) Accurately ripped
02 [f3959771] (02/13) Accurately ripped
03 [0c0c8daf] (02/13) Accurately ripped
04 [a8a2b400] (02/13) Accurately ripped
05 [ccc856be] (02/13) Accurately ripped
06 [d4199bf7] (02/13) Accurately ripped
07 [b0be1e34] (02/13) Accurately ripped
08 [ad7590d7] (02/13) Accurately ripped
09 [cb1635a1] (02/13) Accurately ripped
10 [b94d5000] (02/13) Accurately ripped

Track Peak [ CRC32 ] [W/O NULL] [ LOG ]
– 99,1 [E2FF3808] [3E962A1F] CRC32
01 92,0 [CE45AA2D] [D6A190A2]
02 96,8 [5FD699CB] [ED87D1C1]
03 91,8 [3EB0C6AA] [FD7A49D8]
04 98,8 [DBC5E39C] [E0E2985F]
05 99,1 [0650AF71] [D0C42633]
06 98,3 [E3B8B6B4] [B2F5A26D]
07 99,1 [21046B02] [F67E9153]
08 98,5 [6FE2F296] [E86ECA9D]
09 93,3 [718DAC20] [281C8B97]
10 97,2 [833B0A33] [F305777A]


* * * * *

Tempest: CD Collection (1992 - 2010)

CD06: Tempest - The Double Cross (2006)
EAC | Flac(Image) + Cue + Log & MP3 CBR 320Kbps
Magna Carta, MA-9083-2 | ~ 361 or 119 Mb | Scans
Folk-Rock, Prog Folk, Celtic Rock

Celtic music – Irish and Scottish as well as Breton – has moved in many different directions in the '90s and the 21st century. There are still plenty of traditional Celtic artists (both singers and instrumentalists) playing standards that their ancestors embraced in Dublin, Glasgow, or Belfast long ago – and on the contemporary side, everything from Celtic new age to Celtic electronica to Celtic punk can be found if one knows where to look. The fact that there are so many styles to choose from shows the overall health of Celtic music, and the fact that a Celtic folk-rock band like Tempest is willing to look to many different places for inspiration on The Double-Cross exemplifies the sort of open-mindedness that isn't hard to find on the modern Celtic scene. Essentially, Celtic folk-rock is the best way to describe this 50-minute CD; there is no reason why Tempest and similar outfits shouldn't wear that term like a badge of honor. But that doesn't mean that their material cannot come from a variety of places – and on The Double-Cross, Tempest puts their stamp on everything from "Eppy Moray" (a traditional Scottish song) to the traditional Norwegian folk song "Per Spelmann" to the Finnish polka "Sakijarven Polka" (which is incorporated on lead singer Lief Sorbye's "Black Eddy"). Of course, performing Scandinavian songs in a Celtic-oriented setting isn't a stretch when you consider the Nordic influence in Celtic culture – the Vikings who invaded the British Isles before and during the medieval period (which lasted from 1000-1450, according to historians) clearly left their mark – but still, the inclusion of songs that didn't originate in Ireland, Scotland, or Brittany shows Tempest's very global outlook. The Double-Cross is an album that rocks passionately on both instrumentals and vocal offerings, although there is never any doubt that Tempest's roots run deep on this fine addition to their catalog.

by Alex Henderson, allmusic
Tracklist:

01 - Captain Kidd
02 - Slippery Slide
03 - Hangman
04 - Black Eddy
05 - Whoever You Are
06 - Vision Quest
07 - Per Spelmann
08 - Cabar Feidh
09 - Eppy Moray
10 - Wizard's Walk

Exact Audio Copy V1.0 beta 3 from 29. August 2011

EAC extraction logfile from 29. January 2014, 14:23

Tempest / The Double Cross

Used drive : PLEXTOR DVDR PX-891SA Adapter: 0 ID: 2

Read mode : Secure
Utilize accurate stream : Yes
Defeat audio cache : Yes
Make use of C2 pointers : No

Read offset correction : 6
Overread into Lead-In and Lead-Out : No
Fill up missing offset samples with silence : Yes
Delete leading and trailing silent blocks : No
Null samples used in CRC calculations : Yes
Used interface : Installed external ASPI interface

Used output format : User Defined Encoder
Selected bitrate : 320 kBit/s
Quality : High
Add ID3 tag : No
Command line compressor : C:\Program Files\Exact Audio Copy 1.0\Flac\flac.exe
Additional command line options : -V -8 -T "Genre=%genre%" -T "Artist=%artist%" -T "Title=%title%" -T "Album=%albumtitle%" -T "Date=%year%" -T "Tracknumber=%tracknr%" -T "Comment=%comment%" %source%


TOC of the extracted CD

Track | Start | Length | Start sector | End sector
––––––––––––––––––––––––––––-
1 | 0:00.00 | 4:24.74 | 0 | 19873
2 | 4:24.74 | 3:04.33 | 19874 | 33706
3 | 7:29.32 | 4:47.54 | 33707 | 55285
4 | 12:17.11 | 5:28.08 | 55286 | 79893
5 | 17:45.19 | 4:10.67 | 79894 | 98710
6 | 21:56.11 | 5:40.50 | 98711 | 124260
7 | 27:36.61 | 3:49.10 | 124261 | 141445
8 | 31:25.71 | 3:12.57 | 141446 | 155902
9 | 34:38.53 | 5:34.47 | 155903 | 180999
10 | 40:13.25 | 10:12.13 | 181000 | 226912
11 | 52:57.38 | 7:34.56 | 238313 | 272418


Range status and errors

Selected range

Filename K:\Lossless Temp\Tempest\Tempest - The Double Cross - 2006 (2006 Magna Carta, MA-9083-2)\Tempest - The Double Cross.wav

Peak level 99.1 %
Extraction speed 6.2 X
Range quality 99.9 %
Test CRC E7854F16
Copy CRC E7854F16
Copy OK

No errors occurred


AccurateRip summary

Track 1 accurately ripped (confidence 2) [7A7E1125] (AR v2)
Track 2 accurately ripped (confidence 2) [86B7F234] (AR v2)
Track 3 accurately ripped (confidence 2) [3BBB26AA] (AR v2)
Track 4 accurately ripped (confidence 2) [9DB755CB] (AR v2)
Track 5 accurately ripped (confidence 2) [01150853] (AR v2)
Track 6 accurately ripped (confidence 2) [DE8C0D24] (AR v2)
Track 7 accurately ripped (confidence 2) [400A1FF9] (AR v2)
Track 8 accurately ripped (confidence 2) [F89C2F16] (AR v2)
Track 9 accurately ripped (confidence 2) [E15C1AAF] (AR v2)
Track 10 accurately ripped (confidence 2) [3F1E264E] (AR v2)

All tracks accurately ripped

End of status report

==== Log checksum F84148103B1E40D8299EDAA56B9A5BE4EA10070B6550B17C50E604BB60C9229B ====


foobar2000 1.2.9 / Dynamic Range Meter 1.1.1
log date: 2017-06-27 18:17:18

––––––––––––––––––––––––––––––––––––––––
Analyzed: Tempest / The Double Cross
––––––––––––––––––––––––––––––––––––––––

DR Peak RMS Duration Track
––––––––––––––––––––––––––––––––––––––––
DR6 -0.10 dB -7.70 dB 4:25 01-Captain Kidd
DR7 -0.10 dB -8.04 dB 3:04 02-Slippery Slide
DR8 -0.10 dB -9.02 dB 4:48 03-Hangman
DR7 -0.10 dB -9.83 dB 5:28 04-Black Eddy
DR6 -0.13 dB -7.65 dB 4:11 05-Whoever You Are
DR6 -0.10 dB -8.13 dB 5:41 06-Vision Quest
DR6 -0.10 dB -7.73 dB 3:49 07-Per Spelmann
DR6 -0.10 dB -7.41 dB 3:13 08-Cabar Feidh
DR7 -0.10 dB -8.17 dB 5:35 09-Eppy Moray
DR5 -0.07 dB -6.96 dB 10:12 10-Wizard's Walk
––––––––––––––––––––––––––––––––––––––––

Number of tracks: 10
Official DR value: DR6

Samplerate: 44100 Hz
Channels: 2
Bits per sample: 16
Bitrate: 971 kbps
Codec: FLAC
================================================================================



[CUETools log; Date: 27.06.2017 18:17:18; Version: 2.1.4]
CD-Extra data track length 07:34:56.
[CTDB TOCID: .HIcBO1sxpDVMN.b4OONThQeWWY-] found.
Track | CTDB Status
1 | (5/5) Accurately ripped
2 | (5/5) Accurately ripped
3 | (5/5) Accurately ripped
4 | (5/5) Accurately ripped
5 | (5/5) Accurately ripped
6 | (5/5) Accurately ripped
7 | (5/5) Accurately ripped
8 | (5/5) Accurately ripped
9 | (5/5) Accurately ripped
10 | (5/5) Accurately ripped
[AccurateRip ID: 0011bd05-0091f2d1-9e0e300b] found.
Track [ CRC | V2 ] Status
01 [218c5976|7a7e1125] (02+04/10) Accurately ripped
02 [e540e475|86b7f234] (00+04/08) Accurately ripped
03 [494f2924|3bbb26aa] (02+04/10) Accurately ripped
04 [261dcdf8|9db755cb] (02+04/10) Accurately ripped
05 [de0c941f|01150853] (02+04/10) Accurately ripped
06 [3ab34502|de8c0d24] (02+04/10) Accurately ripped
07 [cfb2bb0c|400a1ff9] (02+04/10) Accurately ripped
08 [c95c9e6b|f89c2f16] (02+04/10) Accurately ripped
09 [6cc5643a|e15c1aaf] (02+04/10) Accurately ripped
10 [3a4f7964|3f1e264e] (02+04/10) Accurately ripped
Offsetted by -664:
01 [966f0b56] (04/10) Accurately ripped
02 [9ce92cad] (04/08) Accurately ripped
03 [404ca969] (04/10) Accurately ripped
04 [82f573b7] (04/10) Accurately ripped
05 [3d69dfb7] (04/10) Accurately ripped
06 [6c5bc572] (04/10) Accurately ripped
07 [b6184fd4] (04/10) Accurately ripped
08 [173ce7db] (04/10) Accurately ripped
09 [7b335cc2] (04/10) Accurately ripped
10 [4826748c] (04/10) Accurately ripped

Track Peak [ CRC32 ] [W/O NULL] [ LOG ]
– 99,1 [E7854F16] [C55097CC] CRC32
01 98,8 [6FFFF423] [39A0B9E5]
02 98,8 [A91E94A2] [36360966]
03 98,8 [4B5B73B0] [10565345]
04 98,8 [3C904BB9] [0D6CE9D1]
05 98,5 [47E3812B] [61EE1B5B]
06 98,8 [6AE1B3B6] [EEDFB1A1]
07 98,8 [BDE6FA94] [2F323C76]
08 98,8 [38FACEDB] [2638973A]
09 98,8 [8BEFB39C] [22A06C35]
10 99,1 [5105153E] [D5803A58]


* * * * *

Tempest: CD Collection (1992 - 2010)

CD07: Tempest - Another Down (2010)
EAC | Flac(Image) + Cue + Log & MP3 CBR 320Kbps
Magna Carta, MA 9104-2 | ~ 330 or 111 Mb | Scans
Folk-Rock, Prog Folk, Celtic Rock

Tempest have been on the road for 20 years, but they still mange to make their music – a blend of Celtic, Norwegian, British, and American folk and good ol' rock & roll – sound fresh. Like all good folkies, Lief Sorbye and his mates constantly reinvent themselves by blending contemporary and traditional sounds. Another Dawn continues their evolution by showing off their songwriting on seven tracks and featuring their first pop cover, a Celtodelic reinvention of the Grass Roots hit "Let's Live for Today" featuring a blazing wah-wah guitar solo from James Crocker and a vaguely Caribbean backbeat supplied by drummer Adolfo Lazo. Ewan MacColl's "The Moving-on Song" is a tune about the Celtic Gypsies known in Britain as tinkers. It's played in Tempest's more acoustic style, with fiddler Michael Mullen providing his usual energetic fills to complement the tune's singalong chorus. "Black Jack Davy" is Sorbye's take on the old ballad "The Gypsy Laddie," here given a dark, dramatic reading with Sorbye growling out the lyric with Crocker adding a searing solo. "Never Tire of the Road" is an Andy Irvine song that he wrote as a tribute to Woody Guthrie, but it could just as easily be Tempest's theme song. It's played with a boozy élan that's halfway between Oklahoma and the Emerald Isle. Sorbye wrote "The Great Departure" after his father's passing as a celebration of the cycle of life and death; Crocker's long sustained notes and Sorbye's tinkling mandolin play off each other, creating musical tension that suggests the struggle of life and death, darkness and dawn. "Jomfru" is one of oldest songs in the Norwegian vocal tradition. Sorbye sings it in Norwegian with Lazo's funeral beat and Mullen's emotional fiddling giving the moody tune the gravitas it requires.

by j. poet, allmusic
Tracklist:

01. Let's Live For Today (3:31)
02. Verses Of Grace (4:29)
03. The New Squire (5:55)
04. Great Departure (4:05)
05. Never Tire Of The Road (3:50)
06. Jomfru (6:28)
07. Dagda's Harp (6:07)
08. The Moving-On Song (3:16)
09. Black Jack Davy (3:11)
10. High Rise (6:07)

Exact Audio Copy V1.0 beta 3 from 29. August 2011

EAC extraction logfile from 19. February 2014, 23:06

Tempest / Another Dawn

Used drive : PLEXTOR DVDR PX-891SA Adapter: 0 ID: 2

Read mode : Secure
Utilize accurate stream : Yes
Defeat audio cache : Yes
Make use of C2 pointers : No

Read offset correction : 6
Overread into Lead-In and Lead-Out : No
Fill up missing offset samples with silence : Yes
Delete leading and trailing silent blocks : No
Null samples used in CRC calculations : Yes
Used interface : Installed external ASPI interface

Used output format : User Defined Encoder
Selected bitrate : 320 kBit/s
Quality : High
Add ID3 tag : No
Command line compressor : C:\Program Files\Exact Audio Copy 1.0\Flac\flac.exe
Additional command line options : -V -8 -T "Genre=%genre%" -T "Artist=%artist%" -T "Title=%title%" -T "Album=%albumtitle%" -T "Date=%year%" -T "Tracknumber=%tracknr%" -T "Comment=%comment%" %source%


TOC of the extracted CD

Track | Start | Length | Start sector | End sector
––––––––––––––––––––––––––––-
1 | 0:00.00 | 3:31.65 | 0 | 15889
2 | 3:31.65 | 4:29.06 | 15890 | 36070
3 | 8:00.71 | 5:55.57 | 36071 | 62752
4 | 13:56.53 | 4:05.47 | 62753 | 81174
5 | 18:02.25 | 3:50.51 | 81175 | 98475
6 | 21:53.01 | 6:28.26 | 98476 | 127601
7 | 28:21.27 | 6:07.24 | 127602 | 155150
8 | 34:28.51 | 3:16.22 | 155151 | 169872
9 | 37:44.73 | 3:11.40 | 169873 | 184237
10 | 40:56.38 | 6:07.74 | 184238 | 211836


Range status and errors

Selected range

Filename K:\Lossless Temp\Tempest\Tempest - Another Down - 2010 (2010 Magna Carta, MA 9104-2)\Tempest - Another Dawn.wav

Peak level 100.0 %
Extraction speed 6.2 X
Range quality 99.9 %
Test CRC 807988C8
Copy CRC 807988C8
Copy OK

No errors occurred


AccurateRip summary

Track 1 cannot be verified as accurate (confidence 1) [E41A965C], AccurateRip returned [046D52CE] (AR v2)
Track 2 cannot be verified as accurate (confidence 1) [258FA905], AccurateRip returned [FBAAB394] (AR v2)
Track 3 cannot be verified as accurate (confidence 1) [4596B596], AccurateRip returned [9A6B6576] (AR v2)
Track 4 cannot be verified as accurate (confidence 1) [FE6FC10E], AccurateRip returned [825A44FB] (AR v2)
Track 5 cannot be verified as accurate (confidence 1) [48F36ECC], AccurateRip returned [E57D65FA] (AR v2)
Track 6 cannot be verified as accurate (confidence 1) [ADB93159], AccurateRip returned [7BE5EFCA] (AR v2)
Track 7 cannot be verified as accurate (confidence 1) [47D1C418], AccurateRip returned [5EDA49F3] (AR v2)
Track 8 cannot be verified as accurate (confidence 1) [90D8A16F], AccurateRip returned [9E5FD77A] (AR v2)
Track 9 cannot be verified as accurate (confidence 1) [F30F5BC6], AccurateRip returned [D43824A6] (AR v2)
Track 10 cannot be verified as accurate (confidence 1) [80657D6B], AccurateRip returned [D55F30DF] (AR v2)

No tracks could be verified as accurate
You may have a different pressing from the one(s) in the database

End of status report

==== Log checksum 61EFCD8F42EE44095574049F498B478CB43A4FF9E68FD7E91D5416E85ACE1EA9 ====


foobar2000 1.2.9 / Dynamic Range Meter 1.1.1
log date: 2017-06-27 18:17:46

––––––––––––––––––––––––––––––––––––––––
Analyzed: Tempest / Another Dawn
––––––––––––––––––––––––––––––––––––––––

DR Peak RMS Duration Track
––––––––––––––––––––––––––––––––––––––––
DR7 0.00 dB -8.66 dB 3:32 01-Let's Live For Today
DR7 0.00 dB -8.89 dB 4:29 02-Verses Of Grace
DR7 0.00 dB -8.99 dB 5:56 03-The New Squire
DR8 0.00 dB -9.99 dB 4:06 04-Great Departure
DR8 0.00 dB -9.26 dB 3:51 05-Never Tire Of The Road
DR6 0.00 dB -7.94 dB 6:28 06-Jomfru
DR7 0.00 dB -9.99 dB 6:07 07-Dagda's Harp
DR8 0.00 dB -10.06 dB 3:16 08-The Moving-on Song
DR7 0.00 dB -8.57 dB 3:12 09-Black Jack Davy
DR7 0.00 dB -8.71 dB 6:08 10-High Rise
––––––––––––––––––––––––––––––––––––––––

Number of tracks: 10
Official DR value: DR7

Samplerate: 44100 Hz
Channels: 2
Bits per sample: 16
Bitrate: 952 kbps
Codec: FLAC
================================================================================



[CUETools log; Date: 27.06.2017 18:17:47; Version: 2.1.4]
[CTDB TOCID: 3Y2P7YSYYB2wFFIXkW6mXGPx27c-] found.
Track | CTDB Status
1 | (2/2) Accurately ripped
2 | (2/2) Accurately ripped
3 | (2/2) Accurately ripped
4 | (2/2) Accurately ripped
5 | (2/2) Accurately ripped
6 | (2/2) Accurately ripped
7 | (2/2) Accurately ripped
8 | (2/2) Accurately ripped
9 | (2/2) Accurately ripped
10 | (2/2) Accurately ripped
[AccurateRip ID: 0011711a-008cbdb3-770b080a] found.
Track [ CRC | V2 ] Status
01 [fec9a332|e41a965c] (0+0/1) No match
02 [68727c66|258fa905] (0+0/1) No match
03 [6b934f1e|4596b596] (0+0/1) No match
04 [5a4c25db|fe6fc10e] (0+0/1) No match
05 [0533cde2|48f36ecc] (0+0/1) No match
06 [7b2b4b3e|adb93159] (0+0/1) No match
07 [2fe252f1|47d1c418] (0+0/1) No match
08 [0ea6d744|90d8a16f] (0+0/1) No match
09 [3eb11fb8|f30f5bc6] (0+0/1) No match
10 [9daa0073|80657d6b] (0+0/1) No match
Offsetted by 62:
01 [046d52ce] (1/1) Accurately ripped
02 [fbaab394] (1/1) Accurately ripped
03 [9a6b6576] (1/1) Accurately ripped
04 [825a44fb] (1/1) Accurately ripped
05 [e57d65fa] (1/1) Accurately ripped
06 [7be5efca] (1/1) Accurately ripped
07 [5eda49f3] (1/1) Accurately ripped
08 [9e5fd77a] (1/1) Accurately ripped
09 [d43824a6] (1/1) Accurately ripped
10 [d55f30df] (1/1) Accurately ripped

Track Peak [ CRC32 ] [W/O NULL] [ LOG ]
– 100,0 [807988C8] [A4C5FBE8] CRC32
01 100,0 [A2EF89E6] [5069BA6E]
02 100,0 [276BBC5E] [37CF35DC]
03 100,0 [F20CDCD8] [4F458271]
04 100,0 [97CF2D70] [55495FA1]
05 100,0 [9D8CAAED] [3E500235]
06 100,0 [248A071C] [8462C8A2]
07 100,0 [E95E0556] [1C90C08E]
08 100,0 [C156E853] [42FFB43E]
09 100,0 [3904216E] [155CF783]
10 100,0 [34B617E4] [4382FD60]


* * *

All thanks go to the Swamp Fox, Musicgate and RedWizard

Tempest in my Blog

Download Tempest: CD Collection (1992 - 2010):