Subcategories

Terence Trent D'Arby - Introducing The Hardline According To Terence Trent D'Arby (1987)

Posted By: popsakov
Terence Trent D'Arby - Introducing The Hardline According To Terence Trent D'Arby (1987)

Terence Trent D'Arby - Introducing The Hardline According To Terence Trent D'Arby (1987)
EAC Rip | WavPack (Img) + Cue + Log ~ 300 Mb | MP3 CBR320 ~ 115 Mb
Full Scans (PNG, 400 dpi) ~ 132 Mb | RAR 5% Recovery
Contemporary Pop Rock, Dance-Rock, Funk Rock, Contemporary R&B, Soul | Columbia #450911 2

Introducing the Hardline According to Terence Trent D'Arby is the debut studio album by Terence Trent D'Arby. It was released in July 1987 on Columbia Records, and became an instant number one smash in the UK, spending a total of nine weeks at the top of the UK Albums Chart. It was eventually certified 5x Platinum. Worldwide, the album sold a million copies within the first three days of going on sale. The album's success was slower in the U.S. It was released there in October 1987, eventually peaking at number four on May 7, 1988 – the same week that the single "Wishing Well" hit number one on the U.S. Billboard Hot 100. It did peak higher on the Billboard R&B Albums chart at #1 around the same time.

Other singles from the album included "If You Let Me Stay", which was a top ten hit in the UK, and "Sign Your Name", which reached #4 on the Billboard Hot 100 and #2 in the UK. A fourth single, "Dance, Little Sister", reached the UK Top 20 as well.
~ Wiki

Introducing the Hardline According to Terence Trent d'Arby is a strong debut by this young singer, who wrote virtually every note, played a multitude of instruments, and claimed that this was the most important album since the Beatles' Sgt. Pepper. Hits included "If You Let Me Stay," "Dance Little Sister," "Sign Your Name," and the number one "Wishing Well." His first album is a curious mixture of old and new styles. Although the production is quite modern, d'Arby shows his roots in the work of older artists, borrowing a page or two from Michael Jackson and Stevie Wonder, while James Brown appears to have had the strongest influence on d'Arby's stage presence.
~ Rob Bowman, All Music
Terence Trent D'Arby - Introducing The Hardline According To Terence Trent D'Arby (1987)


***************

Terence Trent D'Arby - Introducing The Hardline According To Terence Trent D'Arby (1987)

Terence Trent D'Arby - Introducing The Hardline According To Terence Trent D'Arby (1987)

Track List:

01. If You All Get To Heaven [0:05:17.05]
02. If You Let Me Stay [0:03:13.70]
03. Wishing Well [0:03:30.35]
04. I'll Never Turn My Back On You (Father's Words) [0:03:36.47]
05. Dance Little Sister [0:03:54.48]
06. Seven More Days [0:04:31.22]
07. Let's Go Forward [0:05:32.13]
08. Rain [0:02:59.15]
09. Sign Your Name [0:04:38.22]
10. As Yet Untitled [0:05:36.13]
11. Who's Loving You [0:04:21.27]

Exact Audio Copy V1.3 from 2. September 2016

EAC extraction logfile from 8. April 2017, 9:07

Terence Trent D'Arby / Introducing The Hardline According To Terence Trent D'Arby

Used drive : HL-DT-STDVDRAM GH24NSC0 Adapter: 1 ID: 0

Read mode : Secure
Utilize accurate stream : Yes
Defeat audio cache : Yes
Make use of C2 pointers : No

Read offset correction : 6
Overread into Lead-In and Lead-Out : No
Fill up missing offset samples with silence : Yes
Delete leading and trailing silent blocks : No
Null samples used in CRC calculations : Yes
Used interface : Native Win32 interface for Win NT & 2000

Used output format : Internal WAV Routines
Sample format : 44.100 Hz; 16 Bit; Stereo


TOC of the extracted CD

Track | Start | Length | Start sector | End sector
––––––––––––––––––––––––––––-
1 | 0:00.00 | 5:17.05 | 0 | 23779
2 | 5:17.05 | 3:13.70 | 23780 | 38324
3 | 8:31.00 | 3:30.35 | 38325 | 54109
4 | 12:01.35 | 3:36.47 | 54110 | 70356
5 | 15:38.07 | 3:54.48 | 70357 | 87954
6 | 19:32.55 | 4:31.22 | 87955 | 108301
7 | 24:04.02 | 5:32.13 | 108302 | 133214
8 | 29:36.15 | 2:59.15 | 133215 | 146654
9 | 32:35.30 | 4:38.22 | 146655 | 167526
10 | 37:13.52 | 5:36.13 | 167527 | 192739
11 | 42:49.65 | 4:21.27 | 192740 | 212341


Range status and errors

Selected range

Filename C:\Music CD\Terence Trent D'Arby - Introducing The Hardline According To Terence Trent D'Arby.wav

Peak level 100.0 %
Extraction speed 1.7 X
Range quality 100.0 %
Test CRC 11BCFE7F
Copy CRC 11BCFE7F
Copy OK

No errors occurred


AccurateRip summary

Track 1 accurately ripped (confidence 23) [30E3B979] (AR v2)
Track 2 accurately ripped (confidence 23) [4E06508F] (AR v2)
Track 3 accurately ripped (confidence 23) [C1482355] (AR v2)
Track 4 accurately ripped (confidence 23) [8028261B] (AR v2)
Track 5 accurately ripped (confidence 23) [BFE0EFAE] (AR v2)
Track 6 accurately ripped (confidence 23) [70890211] (AR v2)
Track 7 accurately ripped (confidence 23) [5D97F8BF] (AR v2)
Track 8 accurately ripped (confidence 23) [DC5B2ECA] (AR v2)
Track 9 accurately ripped (confidence 23) [F2B18B62] (AR v2)
Track 10 accurately ripped (confidence 23) [0131F704] (AR v2)
Track 11 accurately ripped (confidence 23) [C9223263] (AR v2)

All tracks accurately ripped

End of status report

–– CUETools DB Plugin V2.1.6

[CTDB TOCID: t8PDlb31IYXSxqtkcsPqFiilb.4-] found
Submit result: t8PDlb31IYXSxqtkcsPqFiilb.4- has been confirmed
Track | CTDB Status
1 | (1116/1124) Accurately ripped
2 | (1117/1124) Accurately ripped
3 | (1120/1124) Accurately ripped
4 | (1120/1124) Accurately ripped
5 | (1116/1124) Accurately ripped
6 | (1116/1124) Accurately ripped
7 | (1119/1124) Accurately ripped
8 | (1119/1124) Accurately ripped
9 | (157/1124) Accurately ripped, or (948/1124) differs in 1000 samples @01:06:09-01:06:10,01:06:40,01:07:11,01:07:26-01:07:27,01:07:42,01:07:72-01:07:73,01:08:13-01:08:14,01:08:44,01:08:74-01:09:00,01:09:15-01:09:16,01:09:30-01:09:31,01:09:61-01:09:62,01:10:01-01:10:02,01:10:17-01:10:18,01:10:33,01:11:04,01:11:19-01:11:20,01:11:34-01:11:35,01:12:06,01:12:36-01:12:37,01:12:52-01:12:53,01:13:08-01:13:09,01:13:39,01:13:69-01:13:70,01:14:10-01:14:11,01:14:25-01:14:26,01:14:41,01:14:56-01:14:57,01:14:72,01:15:12-01:15:13,01:15:27,01:15:43-01:15:44,01:16:30,01:16:45,01:17:01,01:17:17,01:17:32,01:17:47,01:17:63,01:18:03-01:18:04,01:18:18-01:18:19,01:19:06,01:19:52,01:20:08,01:20:54,01:23:45
10 | (1117/1124) Accurately ripped
11 | (1120/1124) Accurately ripped
If you are sure that your rip contains errors, you can use CUETools to repair it.


==== Log checksum 65B23117A582DAE2C1D97E9D3FC0D09FDAB24B09CB9B173D0DE97FE158FFEE65 ====

foobar2000 1.3.16 / Dynamic Range Meter 1.1.1
log date: 2018-04-16 16:25:57

––––––––––––––––––––––––––––––––––––––––
Analyzed: Terence Trent D'Arby / Introducing The Hardline According To Terence Trent D'Arby
––––––––––––––––––––––––––––––––––––––––

DR Peak RMS Duration Track
––––––––––––––––––––––––––––––––––––––––
DR14 -0.21 dB -17.62 dB 5:17 01-If You All Get To Heaven
DR12 -4.23 dB -17.29 dB 3:14 02-If You Let Me Stay
DR16 -0.20 dB -18.48 dB 3:30 03-Wishing Well
DR16 -0.20 dB -17.76 dB 3:37 04-I'll Never Turn My Back On You (Father's Words)
DR15 -0.20 dB -17.21 dB 3:55 05-Dance Little Sister
DR15 -0.20 dB -17.75 dB 4:31 06-Seven More Days
DR13 -0.13 dB -16.24 dB 5:32 07-Let's Go Forward
DR15 0.00 dB -16.30 dB 2:59 08-Rain
DR14 0.00 dB -16.78 dB 4:38 09-Sign Your Name
DR12 -6.20 dB -24.45 dB 5:36 10-As Yet Untitled
DR15 0.00 dB -18.65 dB 4:21 11-Who's Loving You
––––––––––––––––––––––––––––––––––––––––

Number of tracks: 11
Official DR value: DR14

Samplerate: 44100 Hz
Channels: 2
Bits per sample: 16
Bitrate: 839 kbps
Codec: WavPack
================================================================================

[CUETools log; Date: 16.04.2018 16:26:20; Version: 2.1.6]
[CTDB TOCID: t8PDlb31IYXSxqtkcsPqFiilb.4-] found.
Track | CTDB Status
1 | (1443/1455) Accurately ripped
2 | (1447/1455) Accurately ripped
3 | (1449/1455) Accurately ripped
4 | (1450/1455) Accurately ripped
5 | (1444/1455) Accurately ripped
6 | (1445/1455) Accurately ripped
7 | (1445/1455) Accurately ripped
8 | (1446/1455) Accurately ripped
9 | (215/1455) Accurately ripped, or (1215/1455) differs in 1000 samples @01:06:09-01:06:10,01:06:40,01:07:11,01:07:26-01:07:27,01:07:42,01:07:72-01:07:73,01:08:13-01:08:14,01:08:44,01:08:74-01:09:00,01:09:15-01:09:16,01:09:30-01:09:31,01:09:61-01:09:62,01:10:01-01:10:02,01:10:17-01:10:18,01:10:33,01:11:04,01:11:19-01:11:20,01:11:34-01:11:35,01:12:06,01:12:36-01:12:37,01:12:52-01:12:53,01:13:08-01:13:09,01:13:39,01:13:69-01:13:70,01:14:10-01:14:11,01:14:25-01:14:26,01:14:41,01:14:56-01:14:57,01:14:72,01:15:12-01:15:13,01:15:27,01:15:43-01:15:44,01:16:30,01:16:45,01:17:01,01:17:17,01:17:32,01:17:47,01:17:63,01:18:03-01:18:04,01:18:18-01:18:19,01:19:06,01:19:52,01:20:08,01:20:54,01:23:45
10 | (1447/1455) Accurately ripped
11 | (1448/1455) Accurately ripped
[AccurateRip ID: 0012d96c-00a3f786-950b0f0b] found.
Track [ CRC | V2 ] Status
01 [66a61d0b|30e3b979] (023+026/1186) Accurately ripped
02 [6a27110f|4e06508f] (024+026/1194) Accurately ripped
03 [79887e66|c1482355] (023+026/1197) Accurately ripped
04 [61b1da90|8028261b] (022+026/1189) Accurately ripped
05 [1fb5dee9|bfe0efae] (022+026/1190) Accurately ripped
06 [7e77a3e0|70890211] (021+026/1189) Accurately ripped
07 [1bee5665|5d97f8bf] (023+026/1188) Accurately ripped
08 [1fa6c864|dc5b2eca] (023+026/1190) Accurately ripped
09 [e2ec46b7|f2b18b62] (023+026/1193) Accurately ripped
10 [27e2b414|0131f704] (022+026/1183) Accurately ripped
11 [335fc595|c9223263] (022+026/1182) Accurately ripped
Offsetted by -659:
01 [301b0828] (057/1186) Accurately ripped
02 [0bae5b46] (057/1194) Accurately ripped
03 [482b442e] (058/1197) Accurately ripped
04 [1012daf4] (056/1189) Accurately ripped
05 [aa73f9cf] (057/1190) Accurately ripped
06 [62911ead] (057/1189) Accurately ripped
07 [2861bcc4] (057/1188) Accurately ripped
08 [e6a27f3b] (057/1190) Accurately ripped
09 [39362794] (058/1193) Accurately ripped
10 [4bb236f2] (056/1183) Accurately ripped
11 [507c3bc3] (056/1182) Accurately ripped
Offsetted by 148:
01 [dd8cc49a] (014/1186) Accurately ripped
02 [cc625adf] (014/1194) Accurately ripped
03 [d2e53e33] (014/1197) Accurately ripped
04 [5a7a4b04] (013/1189) Accurately ripped
05 [7e30b862] (013/1190) Accurately ripped
06 [b5ba1eab] (014/1189) Accurately ripped
07 [2c3dd2cd] (014/1188) Accurately ripped
08 [2b23199f] (013/1190) Accurately ripped
09 [a9318706] (000/1193) No match (V2 was not tested)
10 [15925524] (013/1183) Accurately ripped
11 [cf354c5a] (012/1182) Accurately ripped
Offsetted by 207:
01 [864f0b02] (000/1186) No match (V2 was not tested)
02 [9184525e] (000/1194) No match (V2 was not tested)
03 [93fc67a9] (000/1197) No match (V2 was not tested)
04 [20288787] (000/1189) No match (V2 was not tested)
05 [1015dd2c] (000/1190) No match (V2 was not tested)
06 [422b1f9d] (000/1189) No match (V2 was not tested)
07 [b9375534] (000/1188) No match (V2 was not tested)
08 [760a201e] (000/1190) No match (V2 was not tested)
09 [05a1ccd5] (000/1193) No match (V2 was not tested)
10 [0d397b9a] (000/1183) No match (V2 was not tested)
11 [43b7eb5f] (000/1182) No match (V2 was not tested)
Offsetted by 677:
01 [af5e3ba4] (056/1186) Accurately ripped
02 [32b0926a] (058/1194) Accurately ripped
03 [561e3681] (058/1197) Accurately ripped
04 [c420f886] (058/1189) Accurately ripped
05 [d9c880f5] (058/1190) Accurately ripped
06 [08791c6d] (058/1189) Accurately ripped
07 [d5daacae] (058/1188) Accurately ripped
08 [1aaa5487] (058/1190) Accurately ripped
09 [b4f61eb3] (000/1193) No match (V2 was not tested)
10 [f36bf513] (058/1183) Accurately ripped
11 [aa0be769] (057/1182) Accurately ripped
Offsetted by 745:
01 [9b28ee62] (093/1186) Accurately ripped
02 [e04df9d2] (093/1194) Accurately ripped
03 [69cabb1d] (093/1197) Accurately ripped
04 [c2b4867d] (094/1189) Accurately ripped
05 [56a81300] (093/1190) Accurately ripped
06 [9f19ee14] (093/1189) Accurately ripped
07 [3ca158aa] (092/1188) Accurately ripped
08 [630f1d03] (093/1190) Accurately ripped
09 [dab3de11] (000/1193) No match (V2 was not tested)
10 [48b95f6c] (092/1183) Accurately ripped
11 [94a277b0] (091/1182) Accurately ripped
Offsetted by 842:
01 [e8253236] (041/1186) Accurately ripped
02 [ccd6bef1] (042/1194) Accurately ripped
03 [c40b804d] (042/1197) Accurately ripped
04 [b6ce149c] (041/1189) Accurately ripped
05 [eefadf9d] (041/1190) Accurately ripped
06 [51058483] (041/1189) Accurately ripped
07 [2edd0be2] (041/1188) Accurately ripped
08 [71af2f75] (041/1190) Accurately ripped
09 [47f5c74c] (000/1193) No match (V2 was not tested)
10 [1d87adcc] (038/1183) Accurately ripped
11 [bbe00c5d] (040/1182) Accurately ripped
Offsetted by 871:
01 [2e36194e] (200/1186) Accurately ripped
02 [025b7228] (200/1194) Accurately ripped
03 [4a763c34] (200/1197) Accurately ripped
04 [d5da0beb] (200/1189) Accurately ripped
05 [b5b783ec] (200/1190) Accurately ripped
06 [04195b19] (200/1189) Accurately ripped
07 [a3bffa3b] (200/1188) Accurately ripped
08 [53875a58] (200/1190) Accurately ripped
09 [f5201dce] (000/1193) No match (V2 was not tested)
10 [cd8567c1] (200/1183) Accurately ripped
11 [8ed56b5f] (200/1182) Accurately ripped
Offsetted by 877:
01 [671fff3b] (000/1186) No match
02 [c041d411] (000/1194) No match
03 [314e9ba5] (000/1197) No match (V2 was not tested)
04 [2b1bd7a4] (000/1189) No match (V2 was not tested)
05 [f11f12c2] (000/1190) No match (V2 was not tested)
06 [e4863e22] (000/1189) No match
07 [5f50f3f5] (000/1188) No match
08 [32421dc3] (000/1190) No match (V2 was not tested)
09 [cc82809a] (000/1193) No match
10 [b7c5d057] (000/1183) No match
11 [b9c0b158] (000/1182) No match
Offsetted by 887:
01 [cddc2b71] (044/1186) Accurately ripped
02 [7fa49e0b] (045/1194) Accurately ripped
03 [6fa6d3ec] (045/1197) Accurately ripped
04 [4f78645f] (045/1189) Accurately ripped
05 [eb6e6f99] (045/1190) Accurately ripped
06 [104352cf] (045/1189) Accurately ripped
07 [c9fd8084] (045/1188) Accurately ripped
08 [5c17b1c7] (045/1190) Accurately ripped
09 [481c25ed] (000/1193) No match (V2 was not tested)
10 [c56a77a4] (045/1183) Accurately ripped
11 [89c246c4] (044/1182) Accurately ripped

Track Peak [ CRC32 ] [W/O NULL] [ LOG ]
– 100,0 [11BCFE7F] [C86EF0D0] CRC32
01 97,6 [AD855959] [3A216B6D]
02 61,4 [A3CE518E] [E338F274]
03 97,7 [5C9FE0F5] [25676470]
04 97,7 [D85FA301] [FFB6EDBA]
05 97,7 [1D263B4B] [6791845A]
06 97,7 [986F34E3] [A0D234D7]
07 98,5 [78BBA6D9] [DBBCEDB6]
08 100,0 [CD68AB86] [76B05CA1]
09 100,0 [766CEFCE] [0D91700F]
10 48,9 [6B947ADD] [3A46D432]
11 100,0 [46621BAE] [422B29BD]

Terence Trent D'Arby - Introducing The Hardline According To Terence Trent D'Arby (1987)

All thanks go to edenika

>>> My Blog <<<

Download from icerbox.com: