Tags
Language
Tags

The Alan Parsons Project - Ammonia Avenue (1984) {1985, Japan 1st Press}

Posted By: popsakov
The Alan Parsons Project - Ammonia Avenue (1984) {1985, Japan 1st Press}

The Alan Parsons Project - Ammonia Avenue (1984) {1985, Japan 1st Press}
EAC Rip | FLAC (Img) + Cue + Log ~ 258 Mb | MP3 CBR320 ~ 101 Mb
Covers Included | 00:40:03 | RAR 5% Recovery
Progressive Rock | Arista #32RD-16

One of the most interesting aspects about the Alan Parsons Project is the band's ability to forge a main theme with each of its songs, while at the same time sounding extremely sharp and polished. Much of this formula is used in Ammonia Avenue, only this time the songs rise above Parsons' overall message due to the sheer beauty of the lyrics partnered with the luster of the instruments. The album touches upon how the lines of communication between people are diminishing, and how we as a society grow more spiritually isolated and antisocial. But aside from the philosophical concepts prevalent in the lyrics, it is the music on this album that comes to the forefront. The enchanting saxophone of Mel Collins on "Don't Answer Me" adds to its lonely atmosphere, while the briskness of Eric Woolfson's wording throughout "Prime Time" makes it one of the Project's best singles. On "You Don't Believe," the seriousness of the lyrics works well with the song's energetic pace. The subtlety of the ballad comes to life on the elegant "Since the Last Goodbye," which focuses on a failed attempt at a relationship. With Ammonia Avenue, the sum of the parts is greater than the whole product, which can't be said for all of the Alan Parsons Project's albums. Vocalists Eric Woolfson, Chris Rainbow, Lenny Zakatek, and Colin Blunstone equally shine, placing their talents above and beyond the album's main idea.

~ Mike DeGagne, All Music

***************

The Alan Parsons Project - Ammonia Avenue (1984) {1985, Japan 1st Press}

The Alan Parsons Project - Ammonia Avenue (1984) {1985, Japan 1st Press}

Track List:

01. Prime Time [0:05:02.47]
02. Let Me Go Home [0:03:21.03]
03. One Good Reason [0:03:36.62]
04. Since The Last Goodbye [0:04:34.55]
05. Don't Answer Me [0:04:10.00]
06. Dancing On A Hig Wire [0:04:22.68]
07. You Don't Believe [0:04:26.07]
08. Pipeline [0:03:56.30]
09. Ammonia Avenue [0:06:32.28]

Personnel:
Ian Bairnson - acoustic guitar, guitar, electric guitar
Colin Blunstone - vocals
Mel Collins - synthesizer, saxophone
Stuart Elliott - percussion, drums
Alan Parsons - keyboards, programming, vocals
David Paton - bass, guitar, vocals
Chris Rainbow - vocals
Eric Woolfson - keyboards, vocals
Lenny Zakatek - vocals
Ken Zidar - bass, vocals
The Philharmonia Orchestra leader - Christopher Warren-Green

Exact Audio Copy V1.3 from 2. September 2016

EAC extraction logfile from 24. May 2019, 15:24

The Alan Parson Project / Ammonia Avenue [32RD-16]

Used drive : HL-DT-STBD-RE BH10LS38 Adapter: 1 ID: 0

Read mode : Secure
Utilize accurate stream : Yes
Defeat audio cache : Yes
Make use of C2 pointers : No

Read offset correction : 667
Overread into Lead-In and Lead-Out : No
Fill up missing offset samples with silence : Yes
Delete leading and trailing silent blocks : No
Null samples used in CRC calculations : Yes
Used interface : Native Win32 interface for Win NT & 2000

Used output format : User Defined Encoder
Selected bitrate : 128 kBit/s
Quality : High
Add ID3 tag : No
Command line compressor : C:\Program Files (x86)\Exact Audio Copy\Flac\flac.exe
Additional command line options : -V -8 -T "Date=%year%" -T "Genre=%genre%" %source%


TOC of the extracted CD

Track | Start | Length | Start sector | End sector
––––––––––––––––––––––––––––-
1 | 0:00.00 | 5:02.47 | 0 | 22696
2 | 5:02.47 | 3:21.03 | 22697 | 37774
3 | 8:23.50 | 3:36.62 | 37775 | 54036
4 | 12:00.37 | 4:34.55 | 54037 | 74641
5 | 16:35.17 | 4:10.00 | 74642 | 93391
6 | 20:45.17 | 4:22.68 | 93392 | 113109
7 | 25:08.10 | 4:26.07 | 113110 | 133066
8 | 29:34.17 | 3:56.30 | 133067 | 150796
9 | 33:30.47 | 6:32.28 | 150797 | 180224


Range status and errors

Selected range

Filename D:\Rips by Alder\The Alan Parson Project - Ammonia Avenue [32RD-16].wav

Peak level 100.0 %
Extraction speed 7.3 X
Range quality 100.0 %
Test CRC A37AF4D1
Copy CRC A37AF4D1
Copy OK

No errors occurred


AccurateRip summary

Track 1 accurately ripped (confidence 7) [FD44E5D3] (AR v2)
Track 2 accurately ripped (confidence 6) [19F17F7B] (AR v2)
Track 3 accurately ripped (confidence 7) [9812BD5B] (AR v2)
Track 4 accurately ripped (confidence 7) [B948CB68] (AR v2)
Track 5 accurately ripped (confidence 7) [C8B6388B] (AR v2)
Track 6 accurately ripped (confidence 7) [74E8EB15] (AR v2)
Track 7 accurately ripped (confidence 7) [38D9C833] (AR v2)
Track 8 accurately ripped (confidence 7) [B1900513] (AR v2)
Track 9 accurately ripped (confidence 7) [A929228A] (AR v2)

All tracks accurately ripped

End of status report

–– CUETools DB Plugin V2.1.6

[CTDB TOCID: 2hxTIL4KbgixJyKPoTwoW_DwMyM-] found
Submit result: 2hxTIL4KbgixJyKPoTwoW_DwMyM- has been confirmed
Track | CTDB Status
1 | (9/9) Accurately ripped
2 | (9/9) Accurately ripped
3 | (9/9) Accurately ripped
4 | (9/9) Accurately ripped
5 | (9/9) Accurately ripped
6 | (9/9) Accurately ripped
7 | (9/9) Accurately ripped
8 | (9/9) Accurately ripped
9 | (9/9) Accurately ripped


==== Log checksum 602F3B27ABF7EF4E6AAC4A6E93C2EFC81B973FFA656B97706600D5FD158EA29A ====

[CUETools log; Date: 25.05.2019 22:11:25; Version: 2.1.6]
[CTDB TOCID: 2hxTIL4KbgixJyKPoTwoW_DwMyM-] found.
Track | CTDB Status
1 | (10/10) Accurately ripped
2 | (10/10) Accurately ripped
3 | (10/10) Accurately ripped
4 | (10/10) Accurately ripped
5 | (10/10) Accurately ripped
6 | (10/10) Accurately ripped
7 | (10/10) Accurately ripped
8 | (10/10) Accurately ripped
9 | (10/10) Accurately ripped
[AccurateRip ID: 000d1e5e-00607fbf-66096309] found.
Track [ CRC | V2 ] Status
01 [88dd9128|fd44e5d3] (0+7/7) Accurately ripped
02 [d92ed020|19f17f7b] (0+6/6) Accurately ripped
03 [b98a9a33|9812bd5b] (0+7/7) Accurately ripped
04 [a5ba59ce|b948cb68] (0+7/7) Accurately ripped
05 [fee9fcc2|c8b6388b] (0+7/7) Accurately ripped
06 [33454d40|74e8eb15] (0+7/7) Accurately ripped
07 [1fd73ef8|38d9c833] (0+7/7) Accurately ripped
08 [e246b3ec|b1900513] (0+7/7) Accurately ripped
09 [798eb992|a929228a] (0+7/7) Accurately ripped

Track Peak [ CRC32 ] [W/O NULL] [ LOG ]
– 100,0 [A37AF4D1] [1CC32133] CRC32
01 100,0 [33254D4B] [743E3DE2]
02 100,0 [D7EBE9B8] [3F9C78C0]
03 98,0 [846F22A6] [0DF78712]
04 87,2 [A8748CFC] [B9E56B8F]
05 93,0 [BD59231E] [58EA3100]
06 100,0 [C6E41EAA] [EEDD6689]
07 100,0 [8FB2AF09] [13A34464]
08 100,0 [D426A551] [4F882F45]
09 100,0 [815E46D0] [8BCAC94A]

The Alan Parsons Project - Ammonia Avenue (1984) {1985, Japan 1st Press}


All thanks go to Alder

>>> Alan Parson in my Blog <<<

DOWNLOAD: