Subcategories

The Alan Parsons Project - I Robot (1977) {1993, Japanese Reissue}

Posted By: popsakov
The Alan Parsons Project - I Robot (1977) {1993, Japanese Reissue}

The Alan Parsons Project - I Robot (1977) {1993, Japanese Reissue}
EAC Rip | FLAC (Img) + Cue + Log ~ 237 Mb | MP3 CBR320 ~ 99 Mb
Full Scans ~ 96 Mb | RAR 5% Recovery
Progressive Rock | Arista / BMG Victor Inc. #BVCA-1004

I Robot is the second studio album by the English progressive rock band The Alan Parsons Project (Alan Parsons and Eric Woolfson), released by Arista Records in June 1977. It is an art rock album that draws conceptually on author Isaac Asimov's science fiction Robot trilogy, exploring philosophical themes regarding artificial intelligence.

***************

The Alan Parsons Project - I Robot (1977) {1993, Japanese Reissue}

The Alan Parsons Project - I Robot (1977) {1993, Japanese Reissue}

Track List:

01. I Robot [0:06:03.38]
02. I Wouldn't Want To Be Like You [0:03:22.37]
03. Some Other Time [0:04:05.53]
04. Breakdown [0:03:53.10]
05. Don't Let It Show [0:04:24.60]
06. The Voice [0:05:23.27]
07. Nucleus [0:03:22.30]
08. Day After Day (The Show Must Go On) [0:03:56.65]
09. Total Eclipse [0:03:12.45]
10. Genesis Ch. 1 IV. 32 [0:03:24.43]

Personnel:
David Paton - bass, acoustic guitars
Stuart Tosh - drums, percussion
Ian Bairnson - electric and acoustic guitars
Eric Woolfson, Alan Parsons, Duncan Mackay - keyboards
B.J. Cole - steel guitar
John Leach - cimbalom and kantele
Lenny Zakatek, Allan Clarke, Steve Harley, Jack Harris, Peter Straker, Jaki Whitren, Steve Davies and Dave Townsend - vocals
Produced and engineered by Alan Parsons
«Some Other Time» harmonies sung by Tony Rivers, John Perry and Stu Calver

Exact Audio Copy V1.3 from 2. September 2016

EAC extraction logfile from 18. September 2019, 11:02

The Alan Parsons Project / I Robot [BVCA-1004]

Used drive : HL-DT-STBD-RE BH10LS38 Adapter: 1 ID: 0

Read mode : Secure
Utilize accurate stream : Yes
Defeat audio cache : Yes
Make use of C2 pointers : No

Read offset correction : 667
Overread into Lead-In and Lead-Out : No
Fill up missing offset samples with silence : Yes
Delete leading and trailing silent blocks : No
Null samples used in CRC calculations : Yes
Used interface : Native Win32 interface for Win NT & 2000

Used output format : User Defined Encoder
Selected bitrate : 128 kBit/s
Quality : High
Add ID3 tag : No
Command line compressor : C:\Program Files (x86)\Exact Audio Copy\Flac\flac.exe
Additional command line options : -V -8 -T "Date=%year%" -T "Genre=%genre%" %source%


TOC of the extracted CD

Track | Start | Length | Start sector | End sector
––––––––––––––––––––––––––––-
1 | 0:00.37 | 6:03.38 | 37 | 27299
2 | 6:04.00 | 3:22.37 | 27300 | 42486
3 | 9:26.37 | 4:05.53 | 42487 | 60914
4 | 13:32.15 | 3:53.10 | 60915 | 78399
5 | 17:25.25 | 4:24.60 | 78400 | 98259
6 | 21:50.10 | 5:23.27 | 98260 | 122511
7 | 27:13.37 | 3:22.30 | 122512 | 137691
8 | 30:35.67 | 3:56.65 | 137692 | 155456
9 | 34:32.57 | 3:12.45 | 155457 | 169901
10 | 37:45.27 | 3:24.43 | 169902 | 185244


Range status and errors

Selected range

Filename D:\Rips by Alder\The Alan Parsons Project - I Robot [BVCA-1004].wav

Peak level 84.2 %
Extraction speed 7.4 X
Range quality 100.0 %
Test CRC DE62E790
Copy CRC DE62E790
Copy OK

No errors occurred


AccurateRip summary

Track 1 accurately ripped (confidence 4) [3BC8CB83] (AR v2)
Track 2 accurately ripped (confidence 4) [22DF9E63] (AR v2)
Track 3 accurately ripped (confidence 4) [33EE058D] (AR v2)
Track 4 accurately ripped (confidence 4) [DC7F10F0] (AR v2)
Track 5 accurately ripped (confidence 4) [CA7CEBA6] (AR v2)
Track 6 accurately ripped (confidence 4) [D2EC8F97] (AR v2)
Track 7 accurately ripped (confidence 4) [E50E0F6C] (AR v2)
Track 8 accurately ripped (confidence 4) [911D9E5B] (AR v2)
Track 9 accurately ripped (confidence 4) [E71EA568] (AR v2)
Track 10 accurately ripped (confidence 4) [FA149742] (AR v2)

All tracks accurately ripped

End of status report

–– CUETools DB Plugin V2.1.6

[CTDB TOCID: IvsGnZqTN2qcnJhuKtwypAkSSrc-] found
Submit result: IvsGnZqTN2qcnJhuKtwypAkSSrc- has been confirmed
Track | CTDB Status
1 | (14/15) Accurately ripped, or (1/15) differs in 229 samples @04:44:35
2 | (15/15) Accurately ripped
3 | (13/15) Accurately ripped, or (1/15) differs in 688 samples @01:26:59,02:02:40,02:03:02-02:03:03,02:03:71
4 | (13/15) Accurately ripped, or (1/15) differs in 234 samples @01:58:62,02:49:46
5 | (13/15) Accurately ripped, or (1/15) differs in 460 samples @01:48:59,02:54:04
6 | (14/15) Accurately ripped
7 | (14/15) Accurately ripped, or (1/15) differs in 228 samples @02:55:23
8 | (14/15) Accurately ripped, or (1/15) differs in 243 samples @00:58:38,01:41:50,01:44:06,01:44:67,01:48:23,01:52:11,02:19:49
9 | (15/15) Accurately ripped
10 | (12/15) Accurately ripped, or (1/15) differs in 454 samples @00:26:72,00:38:47,01:18:34


==== Log checksum CDA28E39185D1B67CEF905F46861BA6A119755C54CE1DF0189718934C9BA8A77 ====

[CUETools log; Date: 18.09.2019 14:01:31; Version: 2.1.6]
Pregap length 00:00:37.
[CTDB TOCID: IvsGnZqTN2qcnJhuKtwypAkSSrc-] found.
Track | CTDB Status
1 | (15/16) Accurately ripped, or (1/16) differs in 229 samples @04:44:35
2 | (16/16) Accurately ripped
3 | (14/16) Accurately ripped, or (1/16) differs in 688 samples @01:26:59,02:02:40,02:03:02-02:03:03,02:03:71
4 | (14/16) Accurately ripped, or (1/16) differs in 234 samples @01:58:62,02:49:46
5 | (14/16) Accurately ripped, or (1/16) differs in 460 samples @01:48:59,02:54:04
6 | (15/16) Accurately ripped
7 | (15/16) Accurately ripped, or (1/16) differs in 228 samples @02:55:23
8 | (15/16) Accurately ripped, or (1/16) differs in 243 samples @00:58:38,01:41:50,01:44:06,01:44:67,01:48:23,01:52:11,02:19:49
9 | (16/16) Accurately ripped
10 | (13/16) Accurately ripped, or (1/16) differs in 454 samples @00:26:72,00:38:47,01:18:34
[AccurateRip ID: 001073bf-0081bbfa-8409a50a] found.
Track [ CRC | V2 ] Status
01 [5fdca0ce|3bc8cb83] (2+4/6) Accurately ripped
02 [9be05068|22df9e63] (2+4/6) Accurately ripped
03 [0442a320|33ee058d] (2+4/6) Accurately ripped
04 [be8c8f95|dc7f10f0] (2+4/6) Accurately ripped
05 [1389abaf|ca7ceba6] (2+4/6) Accurately ripped
06 [04e1554d|d2ec8f97] (2+4/6) Accurately ripped
07 [f0d006b2|e50e0f6c] (2+4/6) Accurately ripped
08 [094b9aef|911d9e5b] (2+4/6) Accurately ripped
09 [2ceb114a|e71ea568] (2+4/6) Accurately ripped
10 [444beb97|fa149742] (2+4/6) Accurately ripped

Track Peak [ CRC32 ] [W/O NULL] [ LOG ]
– 84,2 [DE62E790] [CB0DF0E3] CRC32
01 72,7 [AFCEF316] [BE6B9A85]
02 74,3 [BAFB56C8] [9D8BDD81]
03 78,5 [2099B000] [9C718372]
04 82,1 [1ECC2E59] [F45EFB22]
05 79,6 [52AA3485] [A86A74FB]
06 84,2 [4E80D3E2] [126F23DF]
07 50,5 [9F8CF367] [113E6DF5]
08 73,5 [37C5496B] [EAF395CA]
09 56,6 [F00A1014] [EACAB925]
10 76,8 [4AE41AE9] [533BD4D1]

The Alan Parsons Project - I Robot (1977) {1993, Japanese Reissue}


All thanks go to Alder

>>> Alan Parsons in my Blog <<<

DOWNLOAD: