Subcategories

The Alan Parsons Symphonic Project - Live In Colombia (2016) {Japanese Edition}

Posted By: popsakov
The Alan Parsons Symphonic Project - Live In Colombia (2016) {Japanese Edition}

The Alan Parsons Symphonic Project - Live In Colombia (2016) {Japanese Edition}
EAC Rip | WV (Img) + Cue + Log ~ 697 Mb | Covers Included (JPG, 300 dpi) | RAR 5% Recovery
Progressive Rock, Symphonic Rock, Electronic | Ward Records #GQCS-90176-7

Alan Parsons was 19 years old when he landed a job at the world famous Abbey Road Studios, an important first step on his journey to becoming a world class engineer, producer and artist. Following his beginnings with George Martin and The Beatles, his contribution to Pink Floyd's classic 'The Dark Side Of The Moon' earned him worldwide attention. As a producer he had many hits with Pilot, John Miles, Ambrosia and Al Stewart. Together with his manager and creative partner at the time, Eric Woolfson, he developed the Alan Parsons Project. Following their debut album "Tales Of Mystery And Imagination" (1976), they released a series of hit albums; namely "I Robot" (1977), "Pyramid" (1978), "The Turn of a Friendly Card" (1980), "Eye in the Sky" (1982), "Ammonia Avenue" (1984), "Vulture Culture" (1985), "Stereotomy" (1986) and "Gaudi" (1987). Then Parsons and Woolfson called it a day, but Parsons had ambitions to perform the amazing music live. Now to the great delight of his fans, for the first time on a live video and audio recording, THE ALAN PARSONS SYMPHONIC PROJECT combines the talents of his amazing band with the lush sound of a 70-piece symphony orchestra, creating a very special show with unmatched quality. Together, they revitalize hits such as "Eye In The Sky", "Don't Answer Me" and "Sirius". The concert was recorded on August 31st 2013 at the exotic location of the Parque Pies Descalzos in Medellín, Colombia. The lineup consists of Alan Parsons on acoustic guitar, keys, and vocals, P.J. Olsson (lead vocals), Alastair Greene (guitar, vocals), Guy Erez (bass,vocals), Danny Thompson (drums, vocals), Tom Brooks (keyboards, vocals) und Todd Cooper (saxophone, guitar, percussion, vocals). Alejandro Posada conducts the Medellin Philharmonic Orchestra.

***************

The Alan Parsons Symphonic Project - Live In Colombia (2016) {Japanese Edition}

The Alan Parsons Symphonic Project - Live In Colombia (2016) {Japanese Edition}

Track List CD1:

01. I Robot [0:06:24.04]
02. Damned If I Do [0:04:33.09]
03. Don't Answer Me [0:04:36.15]
04. Breakdown [0:04:04.48]
05. The Raven [0:02:51.43]
06. Time [0:05:29.22]
07. I Wouldn't Want To Be Like You [0:04:59.24]
08. La Sagrada Familia [0:06:04.26]
09. The Turn Of A Friendly Card (Part One) [0:02:53.53]
10. Snake Eyes [0:03:00.74]
11. The Ace Of Swords [0:02:47.24]
12. Nothing Left To Lose [0:04:34.15]
13. The Turn Of A Friendly Card (Part Two) [0:04:22.67]

Exact Audio Copy V1.2 from 12. August 2016

EAC extraction logfile from 31. October 2017, 17:47

The Alan Parsons Symphonic Project / Live In Colombia (CD1)[GQCS-90176]

Used drive : HL-DT-STBD-RE BH10LS38 Adapter: 1 ID: 1

Read mode : Secure
Utilize accurate stream : Yes
Defeat audio cache : Yes
Make use of C2 pointers : No

Read offset correction : 667
Overread into Lead-In and Lead-Out : No
Fill up missing offset samples with silence : Yes
Delete leading and trailing silent blocks : No
Null samples used in CRC calculations : Yes
Used interface : Installed external ASPI interface

Used output format : User Defined Encoder
Selected bitrate : 128 kBit/s
Quality : High
Add ID3 tag : No
Command line compressor : C:\Program Files (x86)\Exact Audio Copy\wavpack-4.60.1\wavpack.exe
Additional command line options : -hm -w "Year=%year%" -w "Genre=%genre%" %source% %dest%


TOC of the extracted CD

Track | Start | Length | Start sector | End sector
––––––––––––––––––––––––––––-
1 | 0:01.01 | 6:24.04 | 76 | 28879
2 | 6:25.05 | 4:33.09 | 28880 | 49363
3 | 10:58.14 | 4:36.15 | 49364 | 70078
4 | 15:34.29 | 4:04.48 | 70079 | 88426
5 | 19:39.02 | 2:51.43 | 88427 | 101294
6 | 22:30.45 | 5:29.22 | 101295 | 125991
7 | 27:59.67 | 4:59.24 | 125992 | 148440
8 | 32:59.16 | 6:04.26 | 148441 | 175766
9 | 39:03.42 | 2:53.53 | 175767 | 188794
10 | 41:57.20 | 3:00.74 | 188795 | 202368
11 | 44:58.19 | 2:47.24 | 202369 | 214917
12 | 47:45.43 | 4:34.15 | 214918 | 235482
13 | 52:19.58 | 4:22.67 | 235483 | 255199


Range status and errors

Selected range

Filename G:\Rips by Alder\The Alan Parsons Symphonic Project - Live In Colombia (CD1)[GQCS-90176].wav

Peak level 97.6 %
Extraction speed 7.4 X
Range quality 99.9 %
Test CRC B25FE89A
Copy CRC B25FE89A
Copy OK

No errors occurred


AccurateRip summary

Track 1 accurately ripped (confidence 34) [FB19E2AB] (AR v2)
Track 2 accurately ripped (confidence 34) [194724E7] (AR v2)
Track 3 accurately ripped (confidence 34) [4FE791A8] (AR v2)
Track 4 accurately ripped (confidence 34) [E949C8A7] (AR v2)
Track 5 accurately ripped (confidence 34) [31CE95E2] (AR v2)
Track 6 accurately ripped (confidence 34) [082058F9] (AR v2)
Track 7 accurately ripped (confidence 34) [27473E63] (AR v2)
Track 8 accurately ripped (confidence 34) [5493381A] (AR v2)
Track 9 accurately ripped (confidence 34) [427293DA] (AR v2)
Track 10 accurately ripped (confidence 34) [581CC1A0] (AR v2)
Track 11 accurately ripped (confidence 34) [7FE287D6] (AR v2)
Track 12 accurately ripped (confidence 34) [A843C4E7] (AR v2)
Track 13 accurately ripped (confidence 34) [4F27AD8D] (AR v2)

All tracks accurately ripped

End of status report

–– CUETools DB Plugin V2.1.6

[CTDB TOCID: 7OMNMCRCQp7O311wd2zwwvRh4JM-] found
Submit result: 7OMNMCRCQp7O311wd2zwwvRh4JM- has been confirmed
Track | CTDB Status
1 | (127/127) Accurately ripped
2 | (127/127) Accurately ripped
3 | (127/127) Accurately ripped
4 | (127/127) Accurately ripped
5 | (127/127) Accurately ripped
6 | (127/127) Accurately ripped
7 | (127/127) Accurately ripped
8 | (127/127) Accurately ripped
9 | (127/127) Accurately ripped
10 | (127/127) Accurately ripped
11 | (127/127) Accurately ripped
12 | (127/127) Accurately ripped
13 | (125/127) Accurately ripped


==== Log checksum 4C8C3CD2CF478F37CB0E4999ED3FA9E7E60A99149D310D9116380CA16A3471D2 ====

foobar2000 1.3.16 / Dynamic Range Meter 1.1.1
log date: 2017-11-05 12:33:07

––––––––––––––––––––––––––––––––––––––––
Analyzed: The Alan Parsons Symphonic Project / Live In Colombia (CD1)[GQCS-90176]
––––––––––––––––––––––––––––––––––––––––

DR Peak RMS Duration Track
––––––––––––––––––––––––––––––––––––––––
DR10 -0.21 dB -13.34 dB 6:24 01-I Robot
DR10 -0.21 dB -12.36 dB 4:33 02-Damned If I Do
DR10 -0.21 dB -12.17 dB 4:36 03-Don't Answer Me
DR11 -0.21 dB -13.86 dB 4:05 04-Breakdown
DR11 -0.21 dB -13.79 dB 2:52 05-The Raven
DR10 -1.10 dB -13.92 dB 5:29 06-Time
DR13 -0.21 dB -16.51 dB 4:59 07-I Wouldn't Want To Be Like You
DR10 -1.10 dB -15.30 dB 6:04 08-La Sagrada Familia
DR11 -0.21 dB -13.64 dB 2:54 09-The Turn Of A Friendly Card (Part One)
DR10 -0.21 dB -12.34 dB 3:01 10-Snake Eyes
DR11 -0.21 dB -14.71 dB 2:47 11-The Ace Of Swords
DR11 -0.22 dB -15.16 dB 4:34 12-Nothing Left To Lose
DR11 -0.21 dB -13.59 dB 4:23 13-The Turn Of A Friendly Card (Part Two)
––––––––––––––––––––––––––––––––––––––––

Number of tracks: 13
Official DR value: DR11

Samplerate: 44100 Hz
Channels: 2
Bits per sample: 16
Bitrate: 906 kbps
Codec: WavPack
================================================================================

[CUETools log; Date: 05.11.2017 12:35:13; Version: 2.1.5]
Pregap length 00:01:01.
[CTDB TOCID: 7OMNMCRCQp7O311wd2zwwvRh4JM-] found.
Track | CTDB Status
1 | (130/130) Accurately ripped
2 | (130/130) Accurately ripped
3 | (130/130) Accurately ripped
4 | (130/130) Accurately ripped
5 | (130/130) Accurately ripped
6 | (130/130) Accurately ripped
7 | (130/130) Accurately ripped
8 | (130/130) Accurately ripped
9 | (130/130) Accurately ripped
10 | (130/130) Accurately ripped
11 | (130/130) Accurately ripped
12 | (130/130) Accurately ripped
13 | (128/130) Accurately ripped
[AccurateRip ID: 001cc39e-011a82c4-b40d490d] found.
Track [ CRC | V2 ] Status
01 [e153c934|fb19e2ab] (04+34/40) Accurately ripped
02 [b9afc663|194724e7] (04+34/40) Accurately ripped
03 [d4c863c9|4fe791a8] (04+34/40) Accurately ripped
04 [cd4ed921|e949c8a7] (04+34/40) Accurately ripped
05 [05b87bcc|31ce95e2] (04+34/40) Accurately ripped
06 [d79be7af|082058f9] (04+34/40) Accurately ripped
07 [3e5d7c56|27473e63] (04+34/40) Accurately ripped
08 [c0aae7ff|5493381a] (04+34/40) Accurately ripped
09 [52461a65|427293da] (04+34/40) Accurately ripped
10 [6fcafcc7|581cc1a0] (04+34/40) Accurately ripped
11 [eb62f749|7fe287d6] (04+34/40) Accurately ripped
12 [9ca0bef1|a843c4e7] (04+34/40) Accurately ripped
13 [22b05ac1|4f27ad8d] (04+34/40) Accurately ripped
Offsetted by 12:
01 [35f69586] (00/40) No match (V2 was not tested)
02 [fc91dc96] (00/40) No match (V2 was not tested)
03 [d4c66d1c] (00/40) No match (V2 was not tested)
04 [ea8f9c1f] (00/40) No match (V2 was not tested)
05 [d17e118c] (00/40) No match (V2 was not tested)
06 [00314189] (00/40) No match (V2 was not tested)
07 [53fff407] (00/40) No match (V2 was not tested)
08 [2e829cac] (00/40) No match (V2 was not tested)
09 [a2f82e24] (00/40) No match (V2 was not tested)
10 [cb644955] (00/40) No match (V2 was not tested)
11 [61216fdc] (00/40) No match (V2 was not tested)
12 [8500da7a] (00/40) No match (V2 was not tested)
13 [47a4ef60] (00/40) No match (V2 was not tested)

Track Peak [ CRC32 ] [W/O NULL] [ LOG ]
– 97,6 [B25FE89A] [BDBA2FB1] CRC32
01 97,6 [E7E74E0D] [9928AA64]
02 97,6 [36CA76CE] [5C373270]
03 97,6 [DD3D3A91] [B9C9D5AB]
04 97,6 [BAA38606] [7C3B9D7F]
05 97,6 [05C65AB2] [A8357EC9]
06 88,1 [492E8D3E] [AE2D968C]
07 97,6 [8C00F05B] [465AE8AF]
08 88,1 [EFE11F70] [4928CD2D]
09 97,6 [0C7AD27C] [A0DA3B2E]
10 97,6 [DBCB88D8] [D07C3E85]
11 97,6 [2A679FC4] [615597F8]
12 97,5 [71117819] [70EDC12A]
13 97,6 [875DDFD0] [65BF773D]

The Alan Parsons Symphonic Project - Live In Colombia (2016) {Japanese Edition}

The Alan Parsons Symphonic Project - Live In Colombia (2016) {Japanese Edition}

Track List CD2:

01. What Goes Up … [0:04:37.72]
02. Luciferama [0:05:21.52]
03. Silence And I [0:07:46.13]
04. Prime Time [0:08:12.47]
05. Sirius [0:02:12.55]
06. Eye In The Sky [0:05:11.30]
07. Old And Wise [0:05:39.37]
08. Games People Play [0:04:54.61]

Exact Audio Copy V1.2 from 12. August 2016

EAC extraction logfile from 31. October 2017, 18:03

The Alan Parsons Symphonic Project / Live in Colombia (CD2)[GQCS-90177]

Used drive : HL-DT-STBD-RE BH10LS38 Adapter: 1 ID: 1

Read mode : Secure
Utilize accurate stream : Yes
Defeat audio cache : Yes
Make use of C2 pointers : No

Read offset correction : 667
Overread into Lead-In and Lead-Out : No
Fill up missing offset samples with silence : Yes
Delete leading and trailing silent blocks : No
Null samples used in CRC calculations : Yes
Used interface : Installed external ASPI interface

Used output format : User Defined Encoder
Selected bitrate : 128 kBit/s
Quality : High
Add ID3 tag : No
Command line compressor : C:\Program Files (x86)\Exact Audio Copy\wavpack-4.60.1\wavpack.exe
Additional command line options : -hm -w "Year=%year%" -w "Genre=%genre%" %source% %dest%


TOC of the extracted CD

Track | Start | Length | Start sector | End sector
––––––––––––––––––––––––––––-
1 | 0:05.12 | 4:37.72 | 387 | 21233
2 | 4:43.09 | 5:21.52 | 21234 | 45360
3 | 10:04.61 | 7:46.13 | 45361 | 80323
4 | 17:50.74 | 8:12.47 | 80324 | 117270
5 | 26:03.46 | 2:12.55 | 117271 | 127225
6 | 28:16.26 | 5:11.30 | 127226 | 150580
7 | 33:27.56 | 5:39.37 | 150581 | 176042
8 | 39:07.18 | 4:54.61 | 176043 | 198153


Range status and errors

Selected range

Filename G:\Rips by Alder\The Alan Parsons Symphonic Project - Live in Colombia (CD2)[GQCS-90177].wav

Peak level 97.6 %
Extraction speed 7.0 X
Range quality 99.9 %
Test CRC 85EDAE3E
Copy CRC 85EDAE3E
Copy OK

No errors occurred


AccurateRip summary

Track 1 accurately ripped (confidence 33) [90B5E7DB] (AR v2)
Track 2 accurately ripped (confidence 33) [4CD71888] (AR v2)
Track 3 accurately ripped (confidence 33) [AFA2E24F] (AR v2)
Track 4 accurately ripped (confidence 33) [D1B129BA] (AR v2)
Track 5 accurately ripped (confidence 33) [022AF86E] (AR v2)
Track 6 accurately ripped (confidence 33) [6A79CCE5] (AR v2)
Track 7 accurately ripped (confidence 33) [4F1C174C] (AR v2)
Track 8 accurately ripped (confidence 33) [B31E0156] (AR v2)

All tracks accurately ripped

End of status report

–– CUETools DB Plugin V2.1.6

[CTDB TOCID: ujrpuZv2RU2MeXbO6_T_OeJHjxI-] found
Submit result: ujrpuZv2RU2MeXbO6_T_OeJHjxI- has been confirmed
Track | CTDB Status
1 | (126/127) Accurately ripped
2 | (127/127) Accurately ripped
3 | (127/127) Accurately ripped
4 | (127/127) Accurately ripped
5 | (127/127) Accurately ripped
6 | (127/127) Accurately ripped
7 | (127/127) Accurately ripped
8 | (127/127) Accurately ripped


==== Log checksum F38C748150C1D5025566B52813BC3B83E080620B0E88F8A868353BCA8BCE2B7B ====

foobar2000 1.3.16 / Dynamic Range Meter 1.1.1
log date: 2017-11-05 12:36:04

––––––––––––––––––––––––––––––––––––––––
Analyzed: The Alan Parsons Symphonic Project / Live in Colombia (CD2)[GQCS-90177]
––––––––––––––––––––––––––––––––––––––––

DR Peak RMS Duration Track
––––––––––––––––––––––––––––––––––––––––
DR12 -0.21 dB -15.23 dB 4:38 01-What Goes Up …
DR11 -0.21 dB -13.41 dB 5:22 02-Luciferama
DR11 -0.21 dB -14.28 dB 7:46 03-Silence And I
DR11 -0.21 dB -13.59 dB 8:13 04-Prime Time
DR11 -0.21 dB -13.68 dB 2:13 05-Sirius
DR10 -0.21 dB -13.06 dB 5:11 06-Eye In The Sky
DR10 -0.21 dB -13.51 dB 5:39 07-Old And Wise
DR10 -0.21 dB -12.20 dB 4:55 08-Games People Play
––––––––––––––––––––––––––––––––––––––––

Number of tracks: 8
Official DR value: DR11

Samplerate: 44100 Hz
Channels: 2
Bits per sample: 16
Bitrate: 890 kbps
Codec: WavPack
================================================================================

[CUETools log; Date: 05.11.2017 12:36:08; Version: 2.1.5]
Pregap length 00:05:12.
[CTDB TOCID: ujrpuZv2RU2MeXbO6_T_OeJHjxI-] found.
Track | CTDB Status
1 | (129/130) Accurately ripped
2 | (130/130) Accurately ripped
3 | (130/130) Accurately ripped
4 | (130/130) Accurately ripped
5 | (130/130) Accurately ripped
6 | (130/130) Accurately ripped
7 | (130/130) Accurately ripped
8 | (130/130) Accurately ripped
[AccurateRip ID: 000dfc65-005d037e-720a4d08] found.
Track [ CRC | V2 ] Status
01 [02c102d1|90b5e7db] (04+33/39) Accurately ripped
02 [2107d062|4cd71888] (04+33/39) Accurately ripped
03 [4cb53951|afa2e24f] (04+33/39) Accurately ripped
04 [f8e86c0b|d1b129ba] (04+33/39) Accurately ripped
05 [ea565433|022af86e] (04+33/39) Accurately ripped
06 [5525db69|6a79cce5] (04+33/39) Accurately ripped
07 [c213c258|4f1c174c] (04+33/39) Accurately ripped
08 [76d9bb85|b31e0156] (04+33/39) Accurately ripped
Offsetted by 12:
01 [7252bbc8] (00/39) No match (V2 was not tested)
02 [ef475120] (00/39) No match (V2 was not tested)
03 [70018e3e] (00/39) No match (V2 was not tested)
04 [6702489a] (00/39) No match (V2 was not tested)
05 [3a1b2096] (00/39) No match (V2 was not tested)
06 [91d29cca] (00/39) No match (V2 was not tested)
07 [873035e3] (00/39) No match (V2 was not tested)
08 [63818cf3] (00/39) No match (V2 was not tested)

Track Peak [ CRC32 ] [W/O NULL] [ LOG ]
– 97,6 [85EDAE3E] [9BE24E6C] CRC32
01 97,6 [48948158] [68CD693D]
02 97,6 [B9291422] [AFD833F6]
03 97,6 [5DD36D6B] [B0AEBF6B]
04 97,6 [2891F1C1] [8F39EF76]
05 97,6 [1EDE9431] [7BA4CB6D]
06 97,6 [4AB07120] [5F018769]
07 97,6 [750DAD51] [04437843]
08 97,6 [F591DE2B] [96B8D7B4]

Personnel:
Bass Guitar, Vocals – Guy Erez
Chorus – Estudio Polifónico De Medellínchorus
Drums, Vocals – Danny Thompson
Guitar, Keyboards, Vocals – Alan Parsons
Guitar, Vocals – Alastair Greene
Keyboards, Vocals – Tom Brooks
Lead Vocals – P.J. Olsson
Orchestra – The Philharmonic Orchestra Of Medellin
Saxophone, Guitar, Percussion, Vocals – Todd Cooper

The Alan Parsons Symphonic Project - Live In Colombia (2016) {Japanese Edition}

All thanks go to Alder

>>> My Blog <<<

Download from icerbox.com: