Subcategories

The Avengers - Everyone's Gonna Wonder (2016)

Posted By: v3122
The Avengers - Everyone's Gonna Wonder (2016)

The Avengers - Everyone's Gonna Wonder (2016)
EAC | Flac(Image) + Cue + Log & MP3 CBR 320Kbps
RPM Records, RETRO0983 | ~ 431 or 162 Mb | Scans(jpg) -> 92 Mb
Psychedelic Rock, Pop Rock, Beat

Digitally remastered collection. The members of The Avengers (from New Zealand) were hand-picked by their manager Ken Cooper in early 1966 - to be the resident band at his new club in Wellington, New Zealand. After signing with HMV Records in early 1967, and their first single came from an itinerant songwriter Chris Malcom who made up a song during an evening performance in front of an HMV A&R man. By the end of that week Chris and the group had recorded 'Everyone's Gonna Wonder', which was released in October 1967 and stormed into the National Top 20. The Avengers' harmony pop-psych sound soon got them noticed around the world, and 'Everyone's Gonna Wonder' was released in the UK on Parlophone and Jubilee in the USA where Billboard reviewed it as a 'Hit Pick'. Legendary Australian singer- songwriter Brian Cadd (then with The Groop) predicated that "the Australian public is demanding a change and this must come. I think that The Avengers from New Zealand will be this change, their musical ability is exceptional".
The Avengers - Everyone's Gonna Wonder (2016):

The Avengers - Everyone's Gonna Wonder (2016)

Tracklist:

01. Everybody's Gonna Wonder
02. Midnight Visitation
03. Summer Set Morning
04. Sunshine Lady
05. Love-Hate-Revenge
06. Days of Pearly Spencer
07. 1941
08. Daniel the Postman
09. You Don't Understand
10. Waterpipe
11. Only Once in My Life
12. I Wouldn't Do That
13. Night Time
14. Fisherwoman
15. Take My Hand
16. You Better Come Home
17. Night in the City
18. Sally
19. September Winds
20. Only Last Year
21. What Price Love
22. Flower Girl
23. Out of Sight, Out of Mind
24. Love Is a One Way Ticket
25. Top 20 (Radio Spot)
26. Top 20 Time Check (Radio Spot)
27. This Show Is Groovy (Radio Spot)

Exact Audio Copy V1.1 from 23. June 2015

Отчёт EAC об извлечении, выполненном 5. ноября 2017, 16:11

The Avengers / Everyone's Gonna Wonder

Дисковод: ASUS DRW-24B3ST Adapter: 0 ID: 0

Режим чтения : Достоверность
Использование точного потока : Да
Отключение кэша аудио : Да
Использование указателей C2 : Нет

Коррекция смещения при чтении : 6
Способность читать области Lead-in и Lead-out : Нет
Заполнение пропущенных сэмплов тишиной : Да
Удаление блоков с тишиной в начале и конце : Нет
При вычислениях CRC использовались нулевые сэмплы : Да
Интерфейс : Установленный внешний ASPI-интерфейс

Выходной формат : Пользовательский кодировщик
Выбранный битрейт : 1024 kBit/s
Качество : Высокий
Добавление ID3-тега : Нет
Утилита сжатия : C:\Program Files (x86)\Exact Audio Copy\Flac\flac.exe
Дополнительные параметры : -V -8 -T "Date=%year%" -T "Genre=%genre%" %source%


TOC извлечённого CD

Трек | Старт | Длительность | Начальный сектор | Конечный сектор
––––––––––––––––––––––––––––––––––-
1 | 0:00.00 | 2:40.04 | 0 | 12003
2 | 2:40.04 | 2:43.06 | 12004 | 24234
3 | 5:23.10 | 2:28.21 | 24235 | 35355
4 | 7:51.31 | 2:03.02 | 35356 | 44582
5 | 9:54.33 | 2:37.59 | 44583 | 56416
6 | 12:32.17 | 2:29.30 | 56417 | 67621
7 | 15:01.47 | 2:39.30 | 67622 | 79576
8 | 17:41.02 | 2:10.48 | 79577 | 89374
9 | 19:51.50 | 2:39.64 | 89375 | 101363
10 | 22:31.39 | 4:02.53 | 101364 | 119566
11 | 26:34.17 | 2:20.71 | 119567 | 130137
12 | 28:55.13 | 2:55.12 | 130138 | 143274
13 | 31:50.25 | 3:00.29 | 143275 | 156803
14 | 34:50.54 | 2:22.71 | 156804 | 167524
15 | 37:13.50 | 2:04.40 | 167525 | 176864
16 | 39:18.15 | 3:07.41 | 176865 | 190930
17 | 42:25.56 | 3:12.62 | 190931 | 205392
18 | 45:38.43 | 2:31.40 | 205393 | 216757
19 | 48:10.08 | 3:08.15 | 216758 | 230872
20 | 51:18.23 | 2:51.22 | 230873 | 243719
21 | 54:09.45 | 2:34.38 | 243720 | 255307
22 | 56:44.08 | 2:11.22 | 255308 | 265154
23 | 58:55.30 | 3:36.23 | 265155 | 281377
24 | 62:31.53 | 4:08.03 | 281378 | 299980
25 | 66:39.56 | 0:08.14 | 299981 | 300594
26 | 66:47.70 | 0:07.10 | 300595 | 301129
27 | 66:55.05 | 0:07.32 | 301130 | 301686


Характеристики диапазона извлечения и сообщения об ошибках

Выбранный диапазон

Имя файла E:\Torrents\The Avengers - 2016 - Everyone's Gonna Wonder\The Avengers - Everyone's Gonna Wonder.wav

Пиковый уровень 98.8 %
Скорость извлечения 9.2 X
Качество диапазона 99.9 %
CRC теста 96B2B06F
CRC копии 96B2B06F
Копирование… OK

Ошибок не произошло


AccurateRip: сводка

Трек 1 отсутствует в базе данных
Трек 2 отсутствует в базе данных
Трек 3 отсутствует в базе данных
Трек 4 отсутствует в базе данных
Трек 5 отсутствует в базе данных
Трек 6 отсутствует в базе данных
Трек 7 отсутствует в базе данных
Трек 8 отсутствует в базе данных
Трек 9 отсутствует в базе данных
Трек 10 отсутствует в базе данных
Трек 11 отсутствует в базе данных
Трек 12 отсутствует в базе данных
Трек 13 отсутствует в базе данных
Трек 14 отсутствует в базе данных
Трек 15 отсутствует в базе данных
Трек 16 отсутствует в базе данных
Трек 17 отсутствует в базе данных
Трек 18 отсутствует в базе данных
Трек 19 отсутствует в базе данных
Трек 20 отсутствует в базе данных
Трек 21 отсутствует в базе данных
Трек 22 отсутствует в базе данных
Трек 23 отсутствует в базе данных
Трек 24 отсутствует в базе данных
Трек 25 отсутствует в базе данных
Трек 26 отсутствует в базе данных
Трек 27 отсутствует в базе данных

Ни одного трека нет в базе AccurateRip

Конец отчёта

==== Контрольная сумма отчёта 538F6B7385ED9685A86E37A9C71FF9446C68E8335559E9D3D288CEE47CB5DB27 ====


[CUETools log; Date: 06.11.2017 12:17:15; Version: 2.1.5]
[AccurateRip ID: 0044a0d0-05320088-690fb61b] disk not present in database.

Track Peak [ CRC32 ] [W/O NULL] [ LOG ]
– 98,8 [96B2B06F] [9F137581] CRC32
01 98,8 [9D3B4E3A] [2567F4BA]
02 98,8 [4442D87F] [7909DDD1]
03 98,8 [77BAB420] [E3386A00]
04 98,8 [257610D3] [5E3C716E]
05 98,8 [B56FF15D] [574DA150]
06 98,8 [921331B8] [B8DC61BC]
07 98,8 [C1B59ECC] [476BD3D6]
08 98,8 [ACF5A754] [E488A6D8]
09 98,8 [3B52B733] [2177904F]
10 98,8 [500F9663] [F97AE39B]
11 98,4 [20E8D7C4] [2671B5D6]
12 88,1 [5539F777] [E6BECD82]
13 98,8 [3894C4FA] [30B26BE7]
14 98,8 [2490F368] [65AB6341]
15 98,8 [EDBDC3F4] [87D9B5C8]
16 98,8 [323509F1] [2983D786]
17 98,8 [7F7ACE09] [7670255B]
18 98,8 [794ADBFB] [15A948B2]
19 98,8 [86C916AE] [5597F4FB]
20 98,8 [DD13010E] [405C1432]
21 98,8 [DBAEAC89] [837159DC]
22 98,8 [95E8F509] [18362FF0]
23 98,8 [3680103F] [0468E02D]
24 88,1 [416F8E25] [02CB72A2]
25 90,0 [4781966B] [19EBA66D]
26 84,6 [611E6432] [F17B7DAA]
27 94,4 [80919F74] [402FA117]


The Avengers - Everyone's Gonna Wonder (2016)

All thanks go to Копысов

Download The Avengers - Everyone's Gonna Wonder (2016):