Subcategories

The Bach Choir, Thames Chamber Orchestra, David Willcocks - J.S. Bach: St. Matthew Passion (1994) (Repost)

Posted By: tirexiss
The Bach Choir, Thames Chamber Orchestra, David Willcocks - J.S. Bach: St. Matthew Passion (1994) (Repost)

The Bach Choir, Thames Chamber Orchestra, David Willcocks - J.S. Bach: St. Matthew Passion (1994)
EAC | FLAC (image+.cue, log) | Covers Included | 03:08:38 | 826 MB
Genre: Classical, Choral | Label: ASV | Catalog: QSS 324

This performance of Bach's St. Matthew Passion is sung in English and played on modern instrument. If that bothers you, don't bother checking out this recording. If it doesn't bother you, and you like the idea of a heartrending, awe-inspiring, and profoundly moving performance of Bach's sacred dramatic masterpiece, by all means, try this recording. David Willcocks, the dean of English choral conductors, leads the combined forces of the Bach Choir, the Boys' Choir of St. Paul's Cathedral, and the Thames Chamber Orchestra along with six A-list British soloists in a deeply human, intensely spiritual, and amazingly dramatic performance of the work. But if you worry that modern flutes and updated English horns, or a round-toned chorus and warm-toned chorus, or a language you can readily comprehend might diminish your edification and enjoyment, don't bother with this recording. One might, of course, legitimately complain that some of the soloists take getting used to – and Alfreda Hodgson's chesty alto will surely be a stiff dose for those not accustomed to English altos – but, for those with an open ear, no more of an adjustment than understanding what's going on without a translation. Decca's 1979 late stereo sound is transparent but present, translucent but vivid.

The Bach Choir, Thames Chamber Orchestra, David Willcocks - J.S. Bach: St. Matthew Passion (1994) (Repost)

Track List:

CD 1:
01. Chorus: Come ye daughters, share my mourning 08:34
02. Recitative: When Jesus had completed all these sayings 00:50
03. Chorale: O blessed Jesu, how hast thou offended? 00:54
04. Recitative: At that time there assembled the chief priests 00:26
05. Chorus: Not upon the feast 00:17
06. Recitative: Now when Jesus was in Bethany 00:35
07. Chorus: To what purpose is this waste? 00:32
08. Recitative: When Jesus understood it 01:37
09. Recitative: My Master and my Lord 01:03
10. Contralto Aria: Grief for sin 04:52
11. Recitative: Then went one of the disciples 00:40
12. Soprano Aria: Break in grief 05:20
13. Recitative: Now on the first day of the unleavened bread 00:13
14. Chorus: Where wilt thou? 00:22
15. Recitative & Chorus: He said, Go to one in the city yonder 01:57
16. Chorale: Tis I, whose sins have bound thee 00:56
17. Recitative: He answered then and said 03:30
18. Recitative: Although our eyes with tears o'erflow 01:27
19. Soprano Aria: Jesus, Saviour, I am thine 03:57
20. Recitative: And after they had sung an hymn together 01:13
21. Chorale: Receive me, my Redeemer 01:03
22. Recitative: Simon Peter made answer 01:14
23. Chorale: Here would I stand beside them 01:07
24. Recitative: Then came Jesus with them 02:16
25. Tenor Solo with Chorus: O grief! how throbs His heavy-laden breast 02:12
26. Tenor Solo with Chorus: I would beside my Lord be watching 05:34

Exact Audio Copy V1.0 beta 3 from 29. August 2011

EAC extraction logfile from 7. May 2014, 14:31

The Bach Choir - David Willcocks / St Matthew Passion (Disc 1)

Used drive : TSSTcorp CDDVDW Adapter: 0 ID: 0

Read mode : Secure
Utilize accurate stream : Yes
Defeat audio cache : Yes
Make use of C2 pointers : No

Read offset correction : 6
Overread into Lead-In and Lead-Out : No
Fill up missing offset samples with silence : Yes
Delete leading and trailing silent blocks : No
Null samples used in CRC calculations : Yes
Used interface : Installed external ASPI interface

Used output format : User Defined Encoder
Selected bitrate : 768 kBit/s
Quality : High
Add ID3 tag : No
Command line compressor : C:\Program Files (x86)\Exact Audio Copy\FLAC\FLAC.EXE
Additional command line options : -6 -V -T "ARTIST=%artist%" -T "TITLE=%title%" -T "ALBUM=%albumtitle%" -T "DATE=%year%" -T "TRACKNUMBER=%tracknr%" -T "GENRE=%genre%" -T "COMMENT=%comment%" -T "BAND=%albuminterpret%" -T "ALBUMARTIST=%albuminterpret%" -T "COMPOSER=%composer%" %haslyrics%–tag-from-file=LYRICS="%lyricsfile%"%haslyrics% -T "DISCNUMBER=%cdnumber%" -T "TOTALDISCS=%totalcds%" -T "TOTALTRACKS=%numtracks%" %hascover%–picture="%coverfile%"%hascover% %source% -o %dest%


TOC of the extracted CD

Track | Start | Length | Start sector | End sector
––––––––––––––––––––––––––––-
1 | 0:00.32 | 8:34.08 | 32 | 38589
2 | 8:34.40 | 0:50.55 | 38590 | 42394
3 | 9:25.20 | 0:54.42 | 42395 | 46486
4 | 10:19.62 | 0:26.30 | 46487 | 48466
5 | 10:46.17 | 0:17.00 | 48467 | 49741
6 | 11:03.17 | 0:35.20 | 49742 | 52386
7 | 11:38.37 | 0:32.40 | 52387 | 54826
8 | 12:11.02 | 1:37.50 | 54827 | 62151
9 | 13:48.52 | 1:03.05 | 62152 | 66881
10 | 14:51.57 | 4:52.20 | 66882 | 88801
11 | 19:44.02 | 0:40.60 | 88802 | 91861
12 | 20:24.62 | 5:20.53 | 91862 | 115914
13 | 25:45.40 | 0:13.15 | 115915 | 116904
14 | 25:58.55 | 0:22.50 | 116905 | 118604
15 | 26:21.30 | 1:57.12 | 118605 | 127391
16 | 28:18.42 | 0:56.70 | 127392 | 131661
17 | 29:15.37 | 3:30.48 | 131662 | 147459
18 | 32:46.10 | 1:27.15 | 147460 | 153999
19 | 34:13.25 | 3:57.22 | 154000 | 171796
20 | 38:10.47 | 1:13.10 | 171797 | 177281
21 | 39:23.57 | 1:03.73 | 177282 | 182079
22 | 40:27.55 | 1:14.62 | 182080 | 187691
23 | 41:42.42 | 1:07.38 | 187692 | 192754
24 | 42:50.05 | 2:16.35 | 192755 | 202989
25 | 45:06.40 | 2:12.70 | 202990 | 212959
26 | 47:19.35 | 5:34.12 | 212960 | 238021


Range status and errors

Selected range

Filename C:\RIP\Bach - St Matthew Passion CD1.wav

Peak level 98.5 %
Extraction speed 2.8 X
Range quality 99.9 %
Test CRC 06A86350
Copy CRC 06A86350
Copy OK

No errors occurred


AccurateRip summary

Track 1 cannot be verified as accurate (confidence 2) [E738EC09], AccurateRip returned [3074BFFC] (AR v2)
Track 2 cannot be verified as accurate (confidence 2) [9D990BCD], AccurateRip returned [7ECBC637] (AR v2)
Track 3 cannot be verified as accurate (confidence 2) [AB3BE1F2], AccurateRip returned [ACDB4CA0] (AR v2)
Track 4 cannot be verified as accurate (confidence 2) [4BA2067A], AccurateRip returned [31C6C0B0] (AR v2)
Track 5 cannot be verified as accurate (confidence 2) [EC31E24A], AccurateRip returned [8F7D563C] (AR v2)
Track 6 cannot be verified as accurate (confidence 2) [2F2B55F9], AccurateRip returned [DDAC59C7] (AR v2)
Track 7 cannot be verified as accurate (confidence 2) [ACFE8319], AccurateRip returned [DF479F40] (AR v2)
Track 8 cannot be verified as accurate (confidence 2) [94908933], AccurateRip returned [51AC194F] (AR v2)
Track 9 cannot be verified as accurate (confidence 2) [148F981E], AccurateRip returned [AFA5D52D] (AR v2)
Track 10 cannot be verified as accurate (confidence 2) [DD8A59F8], AccurateRip returned [FC032FF8] (AR v2)
Track 11 cannot be verified as accurate (confidence 2) [C5EFBB02], AccurateRip returned [A64DE1B8] (AR v2)
Track 12 cannot be verified as accurate (confidence 2) [48AE2B52], AccurateRip returned [1274323C] (AR v2)
Track 13 cannot be verified as accurate (confidence 2) [0816578C], AccurateRip returned [14A1FD60] (AR v2)
Track 14 cannot be verified as accurate (confidence 2) [52A6CD0A], AccurateRip returned [3C519849] (AR v2)
Track 15 cannot be verified as accurate (confidence 2) [74C9F314], AccurateRip returned [AB7A3589] (AR v2)
Track 16 cannot be verified as accurate (confidence 2) [5F786660], AccurateRip returned [D546542E] (AR v2)
Track 17 cannot be verified as accurate (confidence 2) [8585D804], AccurateRip returned [616D0949] (AR v2)
Track 18 cannot be verified as accurate (confidence 2) [527E01FA], AccurateRip returned [E7D386D2] (AR v2)
Track 19 cannot be verified as accurate (confidence 2) [8051E7B7], AccurateRip returned [E4EF47F2] (AR v2)
Track 20 cannot be verified as accurate (confidence 2) [337F1E87], AccurateRip returned [27112792] (AR v2)
Track 21 cannot be verified as accurate (confidence 2) [B26F6530], AccurateRip returned [83574613] (AR v2)
Track 22 cannot be verified as accurate (confidence 2) [5345B453], AccurateRip returned [23324CA0] (AR v2)
Track 23 cannot be verified as accurate (confidence 2) [01F26706], AccurateRip returned [FC69FF2C] (AR v2)
Track 24 cannot be verified as accurate (confidence 2) [1A34E6DE], AccurateRip returned [FDA2CD7A] (AR v2)
Track 25 cannot be verified as accurate (confidence 2) [8EF3CDC3], AccurateRip returned [C13FC5AD] (AR v2)
Track 26 cannot be verified as accurate (confidence 2) [BC4B105A], AccurateRip returned [E6907846] (AR v2)

No tracks could be verified as accurate
You may have a different pressing from the one(s) in the database

End of status report

==== Log checksum 9E19CD6E8E0BDEAD58C427502B36C7F18A31F32B1BC90CE0EC95A4C3F0B684BC ====

[CUETools log; Date: 22.11.2017 11:20:33; Version: 2.1.5]
Pregap length 00:00:32.
[CTDB TOCID: VVIXDQvl4ennmXwLT5vdwC7UnEk-] found.
Track | CTDB Status
1 | (4/4) Accurately ripped
2 | (4/4) Accurately ripped
3 | (4/4) Accurately ripped
4 | (4/4) Accurately ripped
5 | (4/4) Accurately ripped
6 | (4/4) Accurately ripped
7 | (4/4) Accurately ripped
8 | (4/4) Accurately ripped
9 | (4/4) Accurately ripped
10 | (4/4) Accurately ripped
11 | (4/4) Accurately ripped
12 | (4/4) Accurately ripped
13 | (4/4) Accurately ripped
14 | (4/4) Accurately ripped
15 | (4/4) Accurately ripped
16 | (4/4) Accurately ripped
17 | (4/4) Accurately ripped
18 | (4/4) Accurately ripped
19 | (4/4) Accurately ripped
20 | (4/4) Accurately ripped
21 | (4/4) Accurately ripped
22 | (4/4) Accurately ripped
23 | (4/4) Accurately ripped
24 | (4/4) Accurately ripped
25 | (4/4) Accurately ripped
26 | (4/4) Accurately ripped
[AccurateRip ID: 002f9c0e-03654803-740c651a] found.
Track [ CRC | V2 ] Status
01 [c95958cc|e738ec09] (00+03/09) Accurately ripped
02 [dd1dfd6c|9d990bcd] (00+03/11) Accurately ripped
03 [bdbec0a6|ab3be1f2] (00+03/11) Accurately ripped
04 [d405eaae|4ba2067a] (00+03/11) Accurately ripped
05 [2ad074c4|ec31e24a] (00+03/11) Accurately ripped
06 [ec11cd2f|2f2b55f9] (00+03/11) Accurately ripped
07 [5cb770d1|acfe8319] (00+03/11) Accurately ripped
08 [ec4fef6d|94908933] (00+03/11) Accurately ripped
09 [f2ec92b7|148f981e] (00+03/11) Accurately ripped
10 [ca229e99|dd8a59f8] (00+03/11) Accurately ripped
11 [8cc8a554|c5efbb02] (00+03/11) Accurately ripped
12 [3bb5f8ee|48ae2b52] (00+03/11) Accurately ripped
13 [1f55ab56|0816578c] (00+03/11) Accurately ripped
14 [4153c7f5|52a6cd0a] (00+03/11) Accurately ripped
15 [28e69f21|74c9f314] (00+03/11) Accurately ripped
16 [7123f6e4|5f786660] (00+03/11) Accurately ripped
17 [bc001a2c|8585d804] (00+03/11) Accurately ripped
18 [c55fadbe|527e01fa] (00+03/11) Accurately ripped
19 [3ffba4c8|8051e7b7] (00+03/11) Accurately ripped
20 [d7f0847f|337f1e87] (00+03/11) Accurately ripped
21 [13aebdf0|b26f6530] (00+03/11) Accurately ripped
22 [f1a10afd|5345b453] (00+03/11) Accurately ripped
23 [f85ae955|01f26706] (00+03/11) Accurately ripped
24 [63ec1fec|1a34e6de] (00+03/11) Accurately ripped
25 [9261200b|8ef3cdc3] (00+03/11) Accurately ripped
26 [5c342d84|bc4b105a] (00+03/11) Accurately ripped
Offsetted by -2043:
01 [141cd3cf] (00/09) No match (V2 was not tested)
02 [7ecbc637] (02/11) Accurately ripped
03 [acdb4ca0] (02/11) Accurately ripped
04 [31c6c0b0] (02/11) Accurately ripped
05 [8f7d563c] (02/11) Accurately ripped
06 [ddac59c7] (02/11) Accurately ripped
07 [df479f40] (02/11) Accurately ripped
08 [51ac194f] (02/11) Accurately ripped
09 [afa5d52d] (02/11) Accurately ripped
10 [fc032ff8] (02/11) Accurately ripped
11 [a64de1b8] (02/11) Accurately ripped
12 [1274323c] (02/11) Accurately ripped
13 [14a1fd60] (02/11) Accurately ripped
14 [3c519849] (02/11) Accurately ripped
15 [ab7a3589] (02/11) Accurately ripped
16 [d546542e] (02/11) Accurately ripped
17 [616d0949] (02/11) Accurately ripped
18 [e7d386d2] (02/11) Accurately ripped
19 [e4ef47f2] (02/11) Accurately ripped
20 [27112792] (02/11) Accurately ripped
21 [83574613] (02/11) Accurately ripped
22 [23324ca0] (02/11) Accurately ripped
23 [fc69ff2c] (02/11) Accurately ripped
24 [fda2cd7a] (02/11) Accurately ripped
25 [c13fc5ad] (02/11) Accurately ripped
26 [e6907846] (02/11) Accurately ripped
Offsetted by -343:
01 [7dcfa7da] (00/09) No match (V2 was not tested)
02 [d041e1af] (00/11) No match (V2 was not tested)
03 [e4894ea4] (00/11) No match (V2 was not tested)
04 [1d4f5e1c] (00/11) No match (V2 was not tested)
05 [49ac972c] (00/11) No match (V2 was not tested)
06 [5cbb71f5] (00/11) No match (V2 was not tested)
07 [40324ef9] (00/11) No match (V2 was not tested)
08 [80416bad] (00/11) No match (V2 was not tested)
09 [057a3366] (00/11) No match (V2 was not tested)
10 [36342aa9] (00/11) No match (V2 was not tested)
11 [fe6aa585] (00/11) No match (V2 was not tested)
12 [00467ce8] (00/11) No match (V2 was not tested)
13 [a81cc2e4] (00/11) No match (V2 was not tested)
14 [21698ab3] (00/11) No match (V2 was not tested)
15 [f510fb41] (00/11) No match (V2 was not tested)
16 [b4b0ae69] (00/11) No match (V2 was not tested)
17 [ec744151] (00/11) No match (V2 was not tested)
18 [ad447177] (00/11) No match (V2 was not tested)
19 [d5943ae5] (00/11) No match (V2 was not tested)
20 [5d57d1df] (00/11) No match (V2 was not tested)
21 [f892b92c] (00/11) No match (V2 was not tested)
22 [8167d364] (00/11) No match (V2 was not tested)
23 [d957db5d] (00/11) No match (V2 was not tested)
24 [3cf2bb94] (00/11) No match (V2 was not tested)
25 [d92bdb12] (00/11) No match (V2 was not tested)
26 [3c1189f1] (00/11) No match (V2 was not tested)

Track Peak [ CRC32 ] [W/O NULL] [ LOG ]
– 98,5 [06A86350] [E98B61B2] CRC32
01 98,5 [CC2F9DF3] [AED892F9]
02 33,0 [85A0E626] [F67C0C52]
03 73,5 [B9A84C51] [C85B720C]
04 32,6 [B8F72811] [3012366B]
05 82,6 [41451AB8] [AEED1CD2]
06 79,8 [5CACEDE0] [9CCDFB59]
07 90,5 [6D2E5F9C] [7B34ED2E]
08 51,8 [21924FD6] [095E3041]
09 46,5 [0ABE0DAB] [35C2FBD2]
10 54,2 [FC5E6FF4] [BA98655B]
11 29,1 [34B7C0B7] [7F48D423]
12 61,7 [71D476F6] [0C56F7E9]
13 27,9 [C2CC3D08] [F0F7E422]
14 80,8 [994CAA55] [C98CC775]
15 74,7 [2DE40B86] [DB4956AE]
16 66,1 [5FA9E43D] [DF46D009]
17 42,6 [C825DBB0] [D99F917C]
18 63,6 [52AA32D9] [2E30CFC1]
19 68,6 [7E906A81] [96537AEB]
20 61,3 [653308F9] [FF677847]
21 72,4 [234381D5] [E729D71B]
22 50,8 [A8894F82] [DF103190]
23 87,7 [B6EBF235] [139AEED2]
24 18,6 [F8C0E285] [E8C7B9A0]
25 36,0 [6EFD1448] [848A448B]
26 48,8 [20A3E933] [6258650A]

CD 2:
01. Recitative: And he went away 00:50
02. Recitative: The Saviour, low before His Father bending 01:08
03. Bass Aria: Gladly would I take upon me 04:26
04. Recitative: And he came to his disciples 01:30
05. Chorale: O Father, let thy will be done 01:15
06. Recitative: And he came again and found them sleeping 02:33
07. Duet & Chorus: Behold, my Saviour now is taken 04:54
08. Recitative: And behold, one of the others that were there with Jesus 02:34
09. Chorus: O man, thy grievous sin bemoan 06:56
10. Contralto Aria with Chorus: Ah! now is my Saviour gone 04:33
11. Recitative: And they that had laid hold on Jesus 01:02
12. Chorale: How falsely doth the world accuse! 00:56
13. Recitative: Yea, though many lying witnesses came forward 01:23
14. Recitative: He holds his peace though men accuse him falsely 01:05
15. Tenor Aria: Endure, endure 03:44
16. Recitative with Chorus: And the high priest answered and said unto him 01:43
17. Recitative with Chorus: And then with one accord did they spit in his face 00:39
18. Chorale: O Lord, who dares to smite Thee? 00:55
19. Recitative with Chorus: Simon Peter sat outside the court 01:11
20. Recitative: And then began he to curse and to swear 01:26
21. Contralto Aria: Have mercy, Lord, on me 06:44
22. Chorale: Lamb of God, I fall before Thee 01:09
23. Recitative with Chorus: Now when the morning came 00:56
24. Recitative: And he cast the silver pieces down in the temple 00:57
25. Bass Aria: Give, O give me back my Lord 03:35
26. Recitative: And they took counsel together 02:18
27. Chorale: Commit thy way to Jesus 01:11

Exact Audio Copy V1.0 beta 3 from 29. August 2011

EAC extraction logfile from 7. May 2014, 18:31

The Bach Choir - David Willcocks / St Matthew Passion (Disc 2/3)

Used drive : TSSTcorp CDDVDW Adapter: 0 ID: 0

Read mode : Secure
Utilize accurate stream : Yes
Defeat audio cache : Yes
Make use of C2 pointers : No

Read offset correction : 6
Overread into Lead-In and Lead-Out : No
Fill up missing offset samples with silence : Yes
Delete leading and trailing silent blocks : No
Null samples used in CRC calculations : Yes
Used interface : Installed external ASPI interface

Used output format : User Defined Encoder
Selected bitrate : 768 kBit/s
Quality : High
Add ID3 tag : No
Command line compressor : C:\Program Files (x86)\Exact Audio Copy\FLAC\FLAC.EXE
Additional command line options : -6 -V -T "ARTIST=%artist%" -T "TITLE=%title%" -T "ALBUM=%albumtitle%" -T "DATE=%year%" -T "TRACKNUMBER=%tracknr%" -T "GENRE=%genre%" -T "COMMENT=%comment%" -T "BAND=%albuminterpret%" -T "ALBUMARTIST=%albuminterpret%" -T "COMPOSER=%composer%" %haslyrics%–tag-from-file=LYRICS="%lyricsfile%"%haslyrics% -T "DISCNUMBER=%cdnumber%" -T "TOTALDISCS=%totalcds%" -T "TOTALTRACKS=%numtracks%" %hascover%–picture="%coverfile%"%hascover% %source% -o %dest%


TOC of the extracted CD

Track | Start | Length | Start sector | End sector
––––––––––––––––––––––––––––-
1 | 0:00.33 | 0:50.05 | 33 | 3787
2 | 0:50.38 | 1:08.15 | 3788 | 8902
3 | 1:58.53 | 4:26.27 | 8903 | 28879
4 | 6:25.05 | 1:30.15 | 28880 | 35644
5 | 7:55.20 | 1:15.10 | 35645 | 41279
6 | 9:10.30 | 2:33.70 | 41280 | 52824
7 | 11:44.25 | 4:54.48 | 52825 | 74922
8 | 16:38.73 | 2:34.40 | 74923 | 86512
9 | 19:13.38 | 6:56.00 | 86513 | 117712
10 | 26:09.38 | 4:33.10 | 117713 | 138197
11 | 30:42.48 | 1:02.55 | 138198 | 142902
12 | 31:45.28 | 0:56.40 | 142903 | 147142
13 | 32:41.68 | 1:23.37 | 147143 | 153404
14 | 34:05.30 | 1:05.28 | 153405 | 158307
15 | 35:10.58 | 3:44.72 | 158308 | 175179
16 | 38:55.55 | 1:43.13 | 175180 | 182917
17 | 40:38.68 | 0:39.37 | 182918 | 185879
18 | 41:18.30 | 0:55.00 | 185880 | 190004
19 | 42:13.30 | 1:11.03 | 190005 | 195332
20 | 43:24.33 | 1:26.22 | 195333 | 201804
21 | 44:50.55 | 6:44.10 | 201805 | 232114
22 | 51:34.65 | 1:09.00 | 232115 | 237289
23 | 52:43.65 | 0:56.48 | 237290 | 241537
24 | 53:40.38 | 0:57.70 | 241538 | 245882
25 | 54:38.33 | 3:35.62 | 245883 | 262069
26 | 58:14.20 | 2:18.15 | 262070 | 272434
27 | 60:32.35 | 1:11.65 | 272435 | 277824


Range status and errors

Selected range

Filename C:\RIP\Bach - St Matthew Passion CD2.wav

Peak level 100.0 %
Extraction speed 3.2 X
Range quality 100.0 %
Test CRC 275DE225
Copy CRC 275DE225
Copy OK

No errors occurred


AccurateRip summary

Track 1 cannot be verified as accurate (confidence 2) [2FB2E125], AccurateRip returned [E37D20AC] (AR v2)
Track 2 cannot be verified as accurate (confidence 2) [3865E947], AccurateRip returned [F0819A05] (AR v2)
Track 3 cannot be verified as accurate (confidence 2) [18CAAF90], AccurateRip returned [644330BB] (AR v2)
Track 4 cannot be verified as accurate (confidence 2) [C87F5499], AccurateRip returned [B328FA5E] (AR v2)
Track 5 cannot be verified as accurate (confidence 2) [E4A74F08], AccurateRip returned [070B1853] (AR v2)
Track 6 cannot be verified as accurate (confidence 2) [29D2F092], AccurateRip returned [592AB241] (AR v2)
Track 7 cannot be verified as accurate (confidence 2) [20B52B1F], AccurateRip returned [81AE0035] (AR v2)
Track 8 cannot be verified as accurate (confidence 2) [231FEE5F], AccurateRip returned [CD0DD6DD] (AR v2)
Track 9 cannot be verified as accurate (confidence 2) [3AF03AFC], AccurateRip returned [52D8FB57] (AR v2)
Track 10 cannot be verified as accurate (confidence 2) [83ABA418], AccurateRip returned [54575667] (AR v2)
Track 11 cannot be verified as accurate (confidence 2) [B0E66EA9], AccurateRip returned [A7D772F5] (AR v2)
Track 12 cannot be verified as accurate (confidence 2) [8214E6E7], AccurateRip returned [8968653C] (AR v2)
Track 13 cannot be verified as accurate (confidence 2) [13CEFDA6], AccurateRip returned [BBA6DB4E] (AR v2)
Track 14 cannot be verified as accurate (confidence 2) [AF67FAD4], AccurateRip returned [711EBB44] (AR v2)
Track 15 cannot be verified as accurate (confidence 2) [11EC056A], AccurateRip returned [62904547] (AR v2)
Track 16 cannot be verified as accurate (confidence 2) [3305C005], AccurateRip returned [0AF56AC2] (AR v2)
Track 17 cannot be verified as accurate (confidence 2) [F9878D51], AccurateRip returned [FD940D80] (AR v2)
Track 18 cannot be verified as accurate (confidence 2) [769BBB4E], AccurateRip returned [EE0776A2] (AR v2)
Track 19 cannot be verified as accurate (confidence 2) [86F3A683], AccurateRip returned [0A34F8E2] (AR v2)
Track 20 cannot be verified as accurate (confidence 2) [AC598EFF], AccurateRip returned [C8260B29] (AR v2)
Track 21 cannot be verified as accurate (confidence 2) [1F066FAD], AccurateRip returned [73B65914] (AR v2)
Track 22 cannot be verified as accurate (confidence 2) [C5466449], AccurateRip returned [868BD1E0] (AR v2)
Track 23 cannot be verified as accurate (confidence 2) [73F897BD], AccurateRip returned [1B4F70E0] (AR v2)
Track 24 cannot be verified as accurate (confidence 2) [BF81852B], AccurateRip returned [A7C0D312] (AR v2)
Track 25 cannot be verified as accurate (confidence 2) [B1EE690A], AccurateRip returned [FB5F1574] (AR v2)
Track 26 cannot be verified as accurate (confidence 2) [E0A5C948], AccurateRip returned [F92CA031] (AR v2)
Track 27 cannot be verified as accurate (confidence 2) [C48E5A83], AccurateRip returned [05C1BB7E] (AR v2)

No tracks could be verified as accurate
You may have a different pressing from the one(s) in the database

End of status report

==== Log checksum 5C005E29D76AFB08748D32A634E01BEED7FC213D6ABFE394D698174E274DDA73 ====

[CUETools log; Date: 22.11.2017 11:20:59; Version: 2.1.5]
Pregap length 00:00:33.
[CTDB TOCID: z3NZXCQ2L2TeSOfJhSnmG.xcdNw-] found.
Track | CTDB Status
1 | (2/3) Accurately ripped
2 | (2/3) Accurately ripped
3 | (2/3) Accurately ripped
4 | (2/3) Accurately ripped
5 | (2/3) Accurately ripped
6 | (2/3) Accurately ripped
7 | (2/3) Accurately ripped
8 | (2/3) Accurately ripped
9 | (2/3) Accurately ripped
10 | (2/3) Accurately ripped
11 | (2/3) Accurately ripped
12 | (2/3) Accurately ripped
13 | (2/3) Accurately ripped
14 | (2/3) Accurately ripped
15 | (2/3) Accurately ripped
16 | (2/3) Accurately ripped
17 | (2/3) Accurately ripped
18 | (2/3) Accurately ripped
19 | (2/3) Accurately ripped
20 | (2/3) Accurately ripped
21 | (2/3) Accurately ripped
22 | (2/3) Accurately ripped
23 | (2/3) Accurately ripped
24 | (2/3) Accurately ripped
25 | (2/3) Accurately ripped
26 | (2/3) Accurately ripped
27 | (2/3) Accurately ripped
[AccurateRip ID: 003e6b71-04aff60a-610e781b] found.
Track [ CRC | V2 ] Status
01 [2599498c|2fb2e125] (0+3/7) Accurately ripped
02 [ad8ce2bd|3865e947] (0+3/7) Accurately ripped
03 [a1a8fa2f|18caaf90] (0+3/7) Accurately ripped
04 [e3259791|c87f5499] (0+3/7) Accurately ripped
05 [079a9ee5|e4a74f08] (0+3/7) Accurately ripped
06 [ed5b53b8|29d2f092] (0+3/7) Accurately ripped
07 [fdafe158|20b52b1f] (0+3/7) Accurately ripped
08 [c5f0ef75|231fee5f] (0+3/7) Accurately ripped
09 [6612da13|3af03afc] (0+3/7) Accurately ripped
10 [2ee1e1ec|83aba418] (0+3/7) Accurately ripped
11 [46a3deb7|b0e66ea9] (0+3/7) Accurately ripped
12 [d8c82f87|8214e6e7] (0+3/7) Accurately ripped
13 [cbecf349|13cefda6] (0+3/7) Accurately ripped
14 [d2c7f896|af67fad4] (0+3/7) Accurately ripped
15 [d20e6f49|11ec056a] (0+3/7) Accurately ripped
16 [54b0dad4|3305c005] (0+3/7) Accurately ripped
17 [423fc953|f9878d51] (0+3/7) Accurately ripped
18 [a1187ec8|769bbb4e] (0+3/7) Accurately ripped
19 [8a3b88ed|86f3a683] (0+3/7) Accurately ripped
20 [ef25381a|ac598eff] (0+3/7) Accurately ripped
21 [ce62f5b2|1f066fad] (0+3/7) Accurately ripped
22 [fdda1d40|c5466449] (0+3/7) Accurately ripped
23 [e3563d6a|73f897bd] (0+3/7) Accurately ripped
24 [12b48872|bf81852b] (0+3/7) Accurately ripped
25 [60b7f4c4|b1ee690a] (0+3/7) Accurately ripped
26 [6eac01d5|e0a5c948] (0+3/7) Accurately ripped
27 [33051094|c48e5a83] (0+3/7) Accurately ripped
Offsetted by 1666:
01 [e4b04216] (0/7) No match (V2 was not tested)
02 [8aff8007] (0/7) No match (V2 was not tested)
03 [427437e4] (0/7) No match (V2 was not tested)
04 [d9c1e79c] (0/7) No match (V2 was not tested)
05 [26ec6f5a] (0/7) No match (V2 was not tested)
06 [0e5c0193] (0/7) No match (V2 was not tested)
07 [4fc63a41] (0/7) No match (V2 was not tested)
08 [404f9789] (0/7) No match (V2 was not tested)
09 [7b434f0e] (0/7) No match (V2 was not tested)
10 [f037550e] (0/7) No match (V2 was not tested)
11 [4f8eddbc] (0/7) No match (V2 was not tested)
12 [e98a46e8] (0/7) No match (V2 was not tested)
13 [660183ce] (0/7) No match (V2 was not tested)
14 [a9b1e2e8] (0/7) No match (V2 was not tested)
15 [54352265] (0/7) No match (V2 was not tested)
16 [2b417a32] (0/7) No match (V2 was not tested)
17 [4860e917] (0/7) No match (V2 was not tested)
18 [138a3d27] (0/7) No match (V2 was not tested)
19 [f9e47391] (0/7) No match (V2 was not tested)
20 [1128ec6e] (0/7) No match (V2 was not tested)
21 [f6d97155] (0/7) No match (V2 was not tested)
22 [c54c554f] (0/7) No match (V2 was not tested)
23 [8a12cdd7] (0/7) No match (V2 was not tested)
24 [01649a09] (0/7) No match (V2 was not tested)
25 [80221d8d] (0/7) No match (V2 was not tested)
26 [64134dd2] (0/7) No match (V2 was not tested)
27 [8218b237] (0/7) No match (V2 was not tested)

Track Peak [ CRC32 ] [W/O NULL] [ LOG ]
– 100,0 [275DE225] [AA9EBC28] CRC32
01 44,4 [856F6048] [6B126BCF]
02 42,3 [CA6DA4C2] [58D81541]
03 59,8 [694CFAE6] [68569634]
04 42,7 [E9931632] [CFD7E256]
05 74,1 [8C6C5313] [DF391C94]
06 44,9 [D96AD242] [CF6BDD3A]
07 100,0 [96DCD89F] [40F2EA22]
08 51,2 [D18C37E2] [7AAFC3F2]
09 61,2 [55162FDF] [D9911684]
10 78,6 [86860DF2] [9CDFE453]
11 36,5 [469AB342] [D5859128]
12 80,3 [08184E62] [45E51728]
13 51,3 [953E64AA] [B9192EB8]
14 40,9 [B174A019] [BBE6B7FE]
15 63,9 [13A2F07D] [5D766A48]
16 95,5 [97A57F59] [A0E4762F]
17 80,2 [CC160D8B] [8983464C]
18 52,8 [55E53DB7] [34D27836]
19 78,0 [83B891A6] [8B6F58DA]
20 36,3 [CF698D72] [DDF138AB]
21 75,0 [072F1888] [000F570E]
22 82,0 [F3B1CC8A] [4743A798]
23 40,5 [D899F7A7] [04FADE09]
24 63,7 [BFD9B049] [57E55677]
25 67,3 [E89AEF81] [F82DE494]
26 44,6 [71D8D62E] [D82F132A]
27 64,0 [302CAC68] [63D32E6A]

CD 3:
01. Recitative with Chorus: At that feast then 02:29
02. Chorale: O wondrous love, that suffers this correction! 00:55
03. Recitative: The governor answered 00:15
04. Recitative: To all men Jesus good hath done 01:17
05. Soprano Aria: For love my Saviour now is dying 05:14
06. Recitative with Chorus: But they cried out the more 02:23
07. Recitative: O gracious God! 01:19
08. Contralto Aria: If my tears be unavailing 07:46
09. Recitative with Chorus: And then did the soldiers of the governor 01:30
10. Chorale: O Sacred Head surrounded by crown of piercing thorn 02:28
11. Recitative: And after they had mocked at him 01:28
12. Recitative: In truth, to bear the cross 00:42
13. Bass Aria: Come, healing cross 07:09
14. Recitative with Chorus: And when they came unto the place that is called Golgotha 03:51
15. Recitative: The same was cast in His teeth by the robbers 00:16
16. Recitative: Ah Golgotha! Unhappy Golgotha! 01:47
17. Contralto Aria with Chorus: See ye! See the Saviour's outstretched hands! 03:48
18. Recitative with Chorus: Now from the sixth hour 02:46
19. Chorale: Be near me Lord, when dying 01:44
20. Recitative with Chorus: And then, behold, the veil of the temple was rent 03:06
21. Recitative: At evening, hour of calm and peace 02:31
22. Bass Aria: Make thee clean, my heart, from sin 06:48
23. Recitative with Chorus: And Joseph took the body 02:50
24. Recitative with Chorus: And now the Lord to rest is laid 02:18
25. Chorus: In tears of grief, dear Lord, we leave thee 07:09

Exact Audio Copy V1.0 beta 3 from 29. August 2011

EAC extraction logfile from 7. May 2014, 19:35

The Bach Choir - David Willcocks / St Matthew Passion (Disc 3/3)

Used drive : TSSTcorp CDDVDW Adapter: 0 ID: 0

Read mode : Secure
Utilize accurate stream : Yes
Defeat audio cache : Yes
Make use of C2 pointers : No

Read offset correction : 6
Overread into Lead-In and Lead-Out : No
Fill up missing offset samples with silence : Yes
Delete leading and trailing silent blocks : No
Null samples used in CRC calculations : Yes
Used interface : Installed external ASPI interface

Used output format : User Defined Encoder
Selected bitrate : 768 kBit/s
Quality : High
Add ID3 tag : No
Command line compressor : C:\Program Files (x86)\Exact Audio Copy\FLAC\FLAC.EXE
Additional command line options : -6 -V -T "ARTIST=%artist%" -T "TITLE=%title%" -T "ALBUM=%albumtitle%" -T "DATE=%year%" -T "TRACKNUMBER=%tracknr%" -T "GENRE=%genre%" -T "COMMENT=%comment%" -T "BAND=%albuminterpret%" -T "ALBUMARTIST=%albuminterpret%" -T "COMPOSER=%composer%" %haslyrics%–tag-from-file=LYRICS="%lyricsfile%"%haslyrics% -T "DISCNUMBER=%cdnumber%" -T "TOTALDISCS=%totalcds%" -T "TOTALTRACKS=%numtracks%" %hascover%–picture="%coverfile%"%hascover% %source% -o %dest%


TOC of the extracted CD

Track | Start | Length | Start sector | End sector
––––––––––––––––––––––––––––-
1 | 0:00.33 | 2:29.72 | 33 | 11279
2 | 2:30.30 | 0:55.43 | 11280 | 15447
3 | 3:25.73 | 0:15.65 | 15448 | 16637
4 | 3:41.63 | 1:17.12 | 16638 | 22424
5 | 4:59.00 | 5:14.20 | 22425 | 45994
6 | 10:13.20 | 2:23.60 | 45995 | 56779
7 | 12:37.05 | 1:19.05 | 56780 | 62709
8 | 13:56.10 | 7:46.28 | 62710 | 97687
9 | 21:42.38 | 1:30.17 | 97688 | 104454
10 | 23:12.55 | 2:28.63 | 104455 | 115617
11 | 25:41.43 | 1:28.22 | 115618 | 122239
12 | 27:09.65 | 0:42.18 | 122240 | 125407
13 | 27:52.08 | 7:09.10 | 125408 | 157592
14 | 35:01.18 | 3:51.65 | 157593 | 174982
15 | 38:53.08 | 0:16.27 | 174983 | 176209
16 | 39:09.35 | 1:47.15 | 176210 | 184249
17 | 40:56.50 | 3:48.55 | 184250 | 201404
18 | 44:45.30 | 2:46.50 | 201405 | 213904
19 | 47:32.05 | 1:44.73 | 213905 | 221777
20 | 49:17.03 | 3:06.12 | 221778 | 235739
21 | 52:23.15 | 2:31.45 | 235740 | 247109
22 | 54:54.60 | 6:48.25 | 247110 | 277734
23 | 61:43.10 | 2:50.50 | 277735 | 290534
24 | 64:33.60 | 2:18.08 | 290535 | 300892
25 | 66:51.68 | 7:09.45 | 300893 | 333112


Range status and errors

Selected range

Filename C:\RIP\Bach - St Matthew Passion CD3.wav

Peak level 93.5 %
Extraction speed 3.5 X
Range quality 99.9 %
Test CRC 8FC47515
Copy CRC 8FC47515
Copy OK

No errors occurred


AccurateRip summary

Track 1 not present in database
Track 2 not present in database
Track 3 not present in database
Track 4 not present in database
Track 5 not present in database
Track 6 not present in database
Track 7 not present in database
Track 8 not present in database
Track 9 not present in database
Track 10 not present in database
Track 11 not present in database
Track 12 not present in database
Track 13 not present in database
Track 14 not present in database
Track 15 not present in database
Track 16 not present in database
Track 17 not present in database
Track 18 not present in database
Track 19 not present in database
Track 20 not present in database
Track 21 not present in database
Track 22 not present in database
Track 23 not present in database
Track 24 not present in database
Track 25 not present in database

None of the tracks are present in the AccurateRip database

End of status report

==== Log checksum 6D4109D82E3A2E245798D74C9919658CD41A164820A5DD9DC8643C25FDFED2D1 ====

[CUETools log; Date: 22.11.2017 11:21:22; Version: 2.1.5]
Pregap length 00:00:33.
[CTDB TOCID: eJGnGbpzPFsc8hXtyDHt9FZGZJU-] found.
Track | CTDB Status
1 | (2/2) Accurately ripped
2 | (2/2) Accurately ripped
3 | (2/2) Accurately ripped
4 | (2/2) Accurately ripped
5 | (2/2) Accurately ripped
6 | (2/2) Accurately ripped
7 | (2/2) Accurately ripped
8 | (2/2) Accurately ripped
9 | (2/2) Accurately ripped
10 | (2/2) Accurately ripped
11 | (2/2) Accurately ripped
12 | (2/2) Accurately ripped
13 | (2/2) Accurately ripped
14 | (2/2) Accurately ripped
15 | (2/2) Accurately ripped
16 | (2/2) Accurately ripped
17 | (2/2) Accurately ripped
18 | (2/2) Accurately ripped
19 | (2/2) Accurately ripped
20 | (2/2) Accurately ripped
21 | (2/2) Accurately ripped
22 | (2/2) Accurately ripped
23 | (2/2) Accurately ripped
24 | (2/2) Accurately ripped
25 | (2/2) Accurately ripped
[AccurateRip ID: 003a2a80-04349206-59115919] found.
Track [ CRC | V2 ] Status
01 [25cfa54f|6fece608] (0+3/6) Accurately ripped
02 [7660fc3f|75ff57b0] (0+3/6) Accurately ripped
03 [53af7a45|e2fbab1e] (0+3/6) Accurately ripped
04 [82876f11|775b742b] (0+3/6) Accurately ripped
05 [a23f1f3a|58d38da9] (0+3/6) Accurately ripped
06 [291bf03b|dde4c226] (0+3/6) Accurately ripped
07 [f969f6c2|089a2994] (0+3/6) Accurately ripped
08 [f4045308|35708e67] (0+3/6) Accurately ripped
09 [2abd50ba|a53933aa] (0+3/6) Accurately ripped
10 [646f45f1|e730bb2b] (0+3/6) Accurately ripped
11 [86b945fa|56c77496] (0+3/6) Accurately ripped
12 [693a2a48|99244da7] (0+3/6) Accurately ripped
13 [f8236c8b|8e68799a] (0+3/6) Accurately ripped
14 [73980357|cc4f6e61] (0+3/6) Accurately ripped
15 [79359e0e|e4153728] (0+3/6) Accurately ripped
16 [07d4a3a6|b87e17c3] (0+3/6) Accurately ripped
17 [4f71ba99|d51e846f] (0+3/6) Accurately ripped
18 [0597b202|95383830] (0+3/6) Accurately ripped
19 [447a39de|952ce9e0] (0+3/6) Accurately ripped
20 [36e45483|c8a69e7a] (0+3/6) Accurately ripped
21 [a08ed7f6|72c52626] (0+3/6) Accurately ripped
22 [462dab53|67aa69dd] (0+3/6) Accurately ripped
23 [21263967|ecb8bfd7] (0+3/6) Accurately ripped
24 [3a8cc32f|28820183] (0+3/6) Accurately ripped
25 [b94b741b|4b71f0e4] (0+3/6) Accurately ripped
Offsetted by 58:
01 [dd0679a4] (0/6) No match (V2 was not tested)
02 [df07d5df] (0/6) No match (V2 was not tested)
03 [0711475e] (0/6) No match (V2 was not tested)
04 [3f8ab41f] (0/6) No match (V2 was not tested)
05 [97fd27af] (0/6) No match (V2 was not tested)
06 [fa815f9c] (0/6) No match (V2 was not tested)
07 [44f98212] (0/6) No match (V2 was not tested)
08 [70d9bb39] (0/6) No match (V2 was not tested)
09 [134e9fb9] (0/6) No match (V2 was not tested)
10 [db05a0c4] (0/6) No match (V2 was not tested)
11 [b3d35a58] (0/6) No match (V2 was not tested)
12 [673a3e92] (0/6) No match (V2 was not tested)
13 [9ac3ba39] (0/6) No match (V2 was not tested)
14 [af343905] (0/6) No match (V2 was not tested)
15 [78650cb1] (0/6) No match (V2 was not tested)
16 [8aff6e74] (0/6) No match (V2 was not tested)
17 [6985521b] (0/6) No match (V2 was not tested)
18 [efa9e318] (0/6) No match (V2 was not tested)
19 [e9901814] (0/6) No match (V2 was not tested)
20 [4fbe60d9] (0/6) No match (V2 was not tested)
21 [eabfab7f] (0/6) No match (V2 was not tested)
22 [851cb350] (0/6) No match (V2 was not tested)
23 [011a7274] (0/6) No match (V2 was not tested)
24 [6a6ffee3] (0/6) No match (V2 was not tested)
25 [3e5ab2f2] (0/6) No match (V2 was not tested)

Track Peak [ CRC32 ] [W/O NULL] [ LOG ]
– 93,5 [8FC47515] [E2281EFF] CRC32
01 93,4 [C8597D97] [69509463]
02 40,7 [99BD85A7] [578C6ED2]
03 16,6 [BD54095E] [088A0E6E]
04 54,2 [8FB77DF3] [2C79DEA1]
05 65,7 [581640A1] [85F0CD4F]
06 87,7 [03718811] [6A23B462]
07 75,3 [A6BC30FA] [3F0F7958]
08 58,5 [E1132977] [6FECFF63]
09 76,2 [E707C810] [8ECBA12E]
10 67,7 [50EDAFAD] [27B3C453]
11 26,8 [9B782312] [2E915AEF]
12 33,4 [08CC72DC] [58A4E7B0]
13 45,1 [D397EEBD] [3FFC591A]
14 93,5 [0C1924EA] [3BE02BC2]
15 33,9 [A3E4FB89] [791FFC12]
16 44,6 [DB8339E9] [464B5207]
17 56,2 [247C29CA] [613FF8D1]
18 70,5 [BD8B4A1C] [ABBF6A97]
19 41,7 [DC02E8F4] [9E05FC8F]
20 74,4 [3BD333D3] [A8BE9B45]
21 49,2 [21DC666F] [23272B81]
22 52,7 [66952E51] [D683FA2D]
23 80,7 [B9BC7306] [C104B843]
24 42,7 [39FB8608] [CDF98D88]
25 85,6 [E5BCB9B3] [629160B5]

Performers:
Tenor [Evangelist]: Robert Tear
Bass [Jesus]: John Shirley-Quirk
Soprano: Felicity Lott
Contralto: Alfreda Hodgson
Tenor: Neil Jenkins
Baritone: Stephen Roberts
Baritone: Paul Hillier
Alto: Catherine Wyn-Rogers
Boys' voices of St. Paul's Cathedral Choir & The Bach Choir
Thames Chamber Orchestra
Conductor - David Willcocks

Thanks to the Original ripper Dementio81!

Download: