Subcategories

The Beatles featuring Tony Sheridan - Hamburg 1961 (1987)

Posted By: v3122
The Beatles featuring Tony Sheridan - Hamburg 1961 (1987)

The Beatles featuring Tony Sheridan - Hamburg 1961 (1987)
EAC | Flac(Image) + Cue + Log & MP3 CBR 320Kbps
ARC Records, TOP CD 510 | ~ 92 or 50 Mb | Scans(jpg) -> 5.23 Mb
Rock & Roll

It's the Beatles and that's about it. None of their best songs (they were written years later) this cd brings us the lads as uncut gems very early in their careers. But can already hear glimpses of their future greatness. Facinating little album, good buy for anyone interested in pophistory and a gem for the collector. Just don't make a mistake and think that this is a standard Beatles album, far from it.

by Jan Patrik Sahlstrøm, allmusic
The Beatles featuring Tony Sheridan - Hamburg 1961 (1987):

The Beatles featuring Tony Sheridan - Hamburg 1961 (1987)

Tracklist:

1 Why (Can't You Love Me Again) 2:57
2 Cry For A Shadow 2:24
3 Let's Dance 2:29
4 Ya, Ya 2:27
5 What'd I Say 2:37
6 Ruby Baby 2:50
7 Take Out Some Insurance 2:53
8 Sweet Georgia Brown 2:03

Exact Audio Copy V1.1 from 23. June 2015

EAC extraction logfile from 11. September 2015, 20:29

Tony Sheridan And The Beatles / Hamburg 1961

Used drive : ASUS SDRW-08D1S-U Adapter: 1 ID: 1

Read mode : Secure
Utilize accurate stream : Yes
Defeat audio cache : Yes
Make use of C2 pointers : No

Read offset correction : 667
Overread into Lead-In and Lead-Out : No
Fill up missing offset samples with silence : Yes
Delete leading and trailing silent blocks : No
Null samples used in CRC calculations : Yes
Used interface : Native Win32 interface for Win NT & 2000

Used output format : User Defined Encoder
Selected bitrate : 128 kBit/s
Quality : High
Add ID3 tag : No
Command line compressor : C:\Program Files (x86)\Exact Audio Copy\Flac\flac.exe
Additional command line options : -V -8 -T "Date=%year%" -T "Genre=%genre%" %source%


TOC of the extracted CD

Track | Start | Length | Start sector | End sector
––––––––––––––––––––––––––––-
1 | 0:00.33 | 2:58.50 | 33 | 13432
2 | 2:59.08 | 2:24.00 | 13433 | 24232
3 | 5:23.08 | 2:29.37 | 24233 | 35444
4 | 7:52.45 | 2:27.63 | 35445 | 46532
5 | 10:20.33 | 2:38.12 | 46533 | 58394
6 | 12:58.45 | 2:51.13 | 58395 | 71232
7 | 15:49.58 | 2:52.00 | 71233 | 84132
8 | 18:41.58 | 2:03.17 | 84133 | 93374


Range status and errors

Selected range

Filename C:\Users\Олег\Desktop\Tony Sheridan And The Beatles -Hamburg 1961\Tony Sheridan And The Beatles - Hamburg 1961.wav

Peak level 97.6 %
Extraction speed 3.1 X
Range quality 99.9 %
Test CRC 969C24CD
Copy CRC 969C24CD
Copy OK

No errors occurred


AccurateRip summary

Track 1 accurately ripped (confidence 7) [8404C154] (AR v2)
Track 2 accurately ripped (confidence 7) [A51FB6BA] (AR v2)
Track 3 accurately ripped (confidence 7) [4E05B20A] (AR v2)
Track 4 accurately ripped (confidence 7) [3AA30539] (AR v2)
Track 5 accurately ripped (confidence 7) [6E23635B] (AR v2)
Track 6 accurately ripped (confidence 7) [D7D6E376] (AR v2)
Track 7 accurately ripped (confidence 7) [FF0C2864] (AR v2)
Track 8 accurately ripped (confidence 7) [40ECBBA6] (AR v2)

All tracks accurately ripped

End of status report

–– CUETools DB Plugin V2.1.6

[CTDB TOCID: D7eRqWuoUQsxIRY.36T8.yxOxqE-] found
Submit result: D7eRqWuoUQsxIRY.36T8.yxOxqE- has been confirmed
Track | CTDB Status
1 | (4/4) Accurately ripped
2 | (4/4) Accurately ripped
3 | (4/4) Accurately ripped
4 | (4/4) Accurately ripped
5 | (4/4) Accurately ripped
6 | (4/4) Accurately ripped
7 | (4/4) Accurately ripped
8 | (4/4) Accurately ripped


==== Log checksum 35D7A2E073FE91C8AB1F6DB101EB07D54936D6F3E214BAB0AACDDF055C788455 ====


[CUETools log; Date: 29.04.2018 13:18:00; Version: 2.1.5]
Pregap length 00:00:33.
[AccurateRip ID: 0006833d-002b4803-5404dd08] found.
Track [ CRC | V2 ] Status
01 [4fb74669|8404c154] (11+15/26) Accurately ripped
02 [e70871b9|a51fb6ba] (11+15/26) Accurately ripped
03 [c9e33c2c|4e05b20a] (11+15/26) Accurately ripped
04 [9065a264|3aa30539] (11+15/26) Accurately ripped
05 [1e08745e|6e23635b] (10+15/25) Accurately ripped
06 [fa023ed5|d7d6e376] (12+15/27) Accurately ripped
07 [51dda644|ff0c2864] (11+15/26) Accurately ripped
08 [700b17ca|40ecbba6] (11+15/26) Accurately ripped

Track Peak [ CRC32 ] [W/O NULL] [ LOG ]
– 97,6 [969C24CD] [036CB6A9] CRC32
01 88,1 [4820DFDF] [68D20E05]
02 90,0 [A9049096] [265B220D]
03 89,1 [D2E18B70] [56FC7C9A]
04 88,3 [234FDBBF] [56AB06BD]
05 90,2 [1B12A6B9] [006BD72F]
06 91,0 [81C74356] [C1B5DD0C]
07 89,9 [AFC9780B] [A8900803]
08 97,6 [8F94C1D4] [082BEED7]


The Beatles featuring Tony Sheridan - Hamburg 1961 (1987)

All thanks go to the original releaser

The Beatles or The Beatles in my Blog

Download The Beatles featuring Tony Sheridan - Hamburg 1961 (1987):