Subcategories

The Bee Gees - One For All Tour: Live in Australia 1989 (2018) [BDRip 1080p]

Posted By: v3122
The Bee Gees - One For All Tour: Live in Australia 1989 (2018) [BDRip 1080p]

The Bee Gees - One For All Tour: Live in Australia 1989 (2018)
MKV: MPEG4 Video (H264) 1920x1080 29.97fps | DTS 6ch, 1509 kb/s
Pop, Pop Rock | 01:47:01 | ~ 8.54 Gb

Recorded live in Melbourne, Australia at The National Tennis Centre in November 1989, this release captures the third stop on The Bee Gee's One for All World Tour celebrating their eighteenth studio album One. The concert has been fully restored with newly mixed and mastered surround sound for its first official release on DVD, SD Blu-ray and digital, and now delivers the best possible quality for you to enjoy at home.
This is a classic Bee Gees concert with the Gibb brothers performing tracks from as far back as their 1966 breakthrough hit Spicks And Specks, through their classic seventies and eighties hits and on to selections from the One album.
The Bee Gees - One For All Tour: Live in Australia 1989 (2018):

Tracklist:

01. Ordinary Lives
02. Giving Up The Ghost
03. To Love Somebody
04. I.ve Gotta Get A Message To You
05. One
06. Tokyo Nights
07. Words
08. Juliet
09. New York Mining Disaster 1941
10. Holiday
11. Too Much Heaven
12. Heartbreaker / Islands in The Stream
13. Run To Me
14. World
15. Spicks And Specks
16. Lonely Days
17. How Deep is Your Love
18. It's My Neighborhood
19. How Can You Mend A Broken Heart
20. House Of Shame
21. I Started A Joke
22. Massachusetts
23. Stayin Alive
24. Nights On Broadway
25. Jive Talkin
26. Band Jam
27. You Win Again
28. You Should Be Dancing

General
Unique ID : 247047920274948826357999951891107846547 (0xB9DBB2E05647B723999F562FB0AA9993)
Complete name : W:\UP\Mix\The Bee Gees - One For All Tour Live in Australia 1989\The Bee Gees - One For All Tour Live in Australia 1989 (2018).mkv
Format : Matroska
Format version : Version 4 / Version 2
File size : 7.94 GiB
Duration : 1h 47mn
Overall bit rate : 10.6 Mbps
Encoded date : UTC 2018-02-10 17:29:41
Writing application : mkvmerge v7.9.0 ('Birds') 64bit
Writing library : libebml v1.3.1 + libmatroska v1.4.2
DURATION : 01:47:01.323000000
NUMBER_OF_FRAMES : 601999
NUMBER_OF_BYTES : 1211221988
_STATISTICS_WRITING_APP : mkvmerge v7.9.0 ('Birds') 64bit
_STATISTICS_WRITING_DATE_UTC : 2018-02-10 17:29:41
_STATISTICS_TAGS : BPS DURATION NUMBER_OF_FRAMES NUMBER_OF_BYTES

Video
ID : 1
Format : AVC
Format/Info : Advanced Video Codec
Format profile : High@L4.1
Format settings, CABAC : Yes
Format settings, ReFrames : 4 frames
Codec ID : V_MPEG4/ISO/AVC
Duration : 1h 47mn
Bit rate : 9 112 Kbps
Width : 1 920 pixels
Height : 1 080 pixels
Display aspect ratio : 16:9
Frame rate mode : Constant
Frame rate : 29.970 fps
Color space : YUV
Chroma subsampling : 4:2:0
Bit depth : 8 bits
Scan type : Progressive
Bits/(Pixel*Frame) : 0.147
Stream size : 6.66 GiB (84%)
Writing library : x264 core 155 r2901 7d0ff22
Encoding settings : cabac=1 / ref=4 / deblock=1:0:0 / analyse=0x3:0x133 / me=umh / subme=7 / psy=1 / psy_rd=1.00:0.00 / mixed_ref=1 / me_range=16 / chroma_me=1 / trellis=2 / 8x8dct=1 / cqm=0 / deadzone=21,11 / fast_pskip=0 / chroma_qp_offset=-2 / threads=12 / lookahead_threads=2 / sliced_threads=0 / nr=0 / decimate=1 / interlaced=0 / bluray_compat=0 / constrained_intra=0 / bframes=3 / b_pyramid=2 / b_adapt=1 / b_bias=0 / direct=3 / weightb=1 / open_gop=0 / weightp=2 / keyint=250 / keyint_min=25 / scenecut=40 / intra_refresh=0 / rc_lookahead=50 / rc=2pass / mbtree=1 / bitrate=9112 / ratetol=1.0 / qcomp=0.60 / qpmin=0 / qpmax=69 / qpstep=4 / cplxblur=20.0 / qblur=0.5 / ip_ratio=1.40 / aq=1:1.00
Language : English
Default : Yes
Forced : No
DURATION : 01:47:01.315000000
NUMBER_OF_FRAMES : 192447
NUMBER_OF_BYTES : 7314490663
_STATISTICS_WRITING_APP : mkvmerge v7.9.0 ('Birds') 64bit
_STATISTICS_WRITING_DATE_UTC : 2018-02-10 17:29:41
_STATISTICS_TAGS : BPS DURATION NUMBER_OF_FRAMES NUMBER_OF_BYTES

Audio
ID : 2
Format : DTS
Format/Info : Digital Theater Systems
Mode : 16
Format settings, Endianness : Big
Codec ID : A_DTS
Duration : 1h 47mn
Bit rate mode : Constant
Bit rate : 1 509 Kbps
Channel(s) : 6 channels
Channel positions : Front: L C R, Side: L R, LFE
Sampling rate : 48.0 KHz
Bit depth : 24 bits
Compression mode : Lossy
Stream size : 1.13 GiB (14%)
Default : Yes
Forced : No

Menu
00:00:00.000 : en:00:00:00.000
00:05:47.347 : en:00:05:47.347
00:10:10.610 : en:00:10:10.610
00:13:58.838 : en:00:13:58.838
00:17:56.075 : en:00:17:56.075
00:23:07.386 : en:00:23:07.386
00:26:55.614 : en:00:26:55.614
00:32:35.587 : en:00:32:35.587
00:36:30.688 : en:00:36:30.688
00:38:47.325 : en:00:38:47.325
00:40:29.427 : en:00:40:29.427
00:42:37.255 : en:00:42:37.255
00:45:13.711 : en:00:45:13.711
00:46:33.524 : en:00:46:33.524
00:48:12.890 : en:00:48:12.890
00:51:07.064 : en:00:51:07.064
00:54:56.293 : en:00:54:56.293
00:59:26.563 : en:00:59:26.563
01:03:29.806 : en:01:03:29.806
01:07:26.042 : en:01:07:26.042
01:12:05.321 : en:01:12:05.321
01:15:24.520 : en:01:15:24.520
01:18:32.374 : en:01:18:32.374
01:22:44.726 : en:01:22:44.726
01:27:10.225 : en:01:27:10.225
01:31:45.500 : en:01:31:45.500
01:36:05.760 : en:01:36:05.760
01:39:35.770 : en:01:39:35.770



The Bee Gees - One For All Tour: Live in Australia 1989 (2018) [BDRip 1080p]

The Bee Gees - One For All Tour: Live in Australia 1989 (2018) [BDRip 1080p]

The Bee Gees - One For All Tour: Live in Australia 1989 (2018) [BDRip 1080p]

The Bee Gees - One For All Tour: Live in Australia 1989 (2018) [BDRip 1080p]

The Bee Gees - One For All Tour: Live in Australia 1989 (2018) [BDRip 1080p]

The Bee Gees - One For All Tour: Live in Australia 1989 (2018) [BDRip 1080p]

All thanks go to the original releaser

Bee Gees or Bee Gees in my Blog

Download The Bee Gees - One For All Tour: Live in Australia 1989 (2018):