The Future Sound of London - Teachings From The Electronic Brain (The Best of FSOL) (2006)

Posted By: Designol
The Future Sound of London - Teachings From The Electronic Brain (The Best of FSOL) (2006)

The Future Sound of London - Teachings From The Electronic Brain (The Best of FSOL) (2006)
EAC | FLAC | Tracks (Cue&Log) ~ 398 Mb | Mp3 (CBR320) ~ 156 Mb | Scans ~ 174 Mb | Time: 01:08:10
Electronic, Ambient, IDM, Experimental, Downtempo, Trip-Hop | Label: Virgin | # 0946 3 70522 2 8

One of the first of the blissed-out rave acts to storm the charts, and also one of the longest lasting, the Future Sound of London deserved a good singles compilation, and fortunately they get one with the Virgin retrospective Teachings from the Electronic Brain. Their highest moments were virtually always their singles, and short-form tracks offer a much easier path to understanding the music of Brian Dougans and Garry Cobain than their occasionally bloated LPs. Teachings from the Electronic Brain neglects nothing of real value, beginning with their first chart hit ("Papua New Guinea") and grabbing the best tracks from their albums Accelerator ("Expander"), Lifeforms (the title track), the live-in-the-studio ISDN ("Far-Out Son of Lung and the Ramblings of a Madman," "Smokin' Japanese Babe"), and Dead Cities ("We Have Explosive"). Best of all, licensing requirements prevented the addition of material from 2002's half-baked The Isness.

Review by John Bush, Allmusic.com

The Future Sound of London - Teachings From The Electronic Brain (The Best of FSOL) (2006)



Tracklist:

01. Papua New Guinea (12" Version) (04:59)
02. Max (02:55)
03. Everyone In The World Is Doing Something Without Me (01:59)
04. My Kingdom (05:38)
05. Smokin' Japanese Babe (05:13)
06. Antique Toy (04:14)
07. Lifeforms (Radio Edit) (04:39)
08. Yage (06:22)
09. Expander (12" Version) (04:52)
10. Glass (04:55)
11. Far-Out Son Of Lung And The Ramblings Of A Madman (04:14)
12. The Lovers (05:56)
13. Mountain Goat (04:41)
14. Cascade (Shortform) (04:17)
15. We Have Explosive (7" Edit) (03:10)


Exact Audio Copy V0.99 prebeta 5 from 4. May 2009

EAC extraction logfile from 23. February 2010, 3:45

The Future Sound of London / Teachings From The Electronic Brain (The Best of FSOL)

Used drive : Optiarc DVD RW AD-7200S Adapter: 2 ID: 1

Read mode : Secure
Utilize accurate stream : Yes
Defeat audio cache : Yes
Make use of C2 pointers : No

Read offset correction : 48
Overread into Lead-In and Lead-Out : No
Fill up missing offset samples with silence : Yes
Delete leading and trailing silent blocks : No
Null samples used in CRC calculations : Yes
Used interface : Native Win32 interface for Win NT & 2000
Gap handling : Appended to previous track

Used output format : User Defined Encoder
Selected bitrate : 80 kBit/s
Quality : High
Add ID3 tag : No
Command line compressor : C:\Program Files (x86)\Exact Audio Copy\Flac\flac.exe
Additional command line options : -8 -A tukey(0.25) -A gauss(0.1875) -b 4096 -V -T "artist=%a" -T "title=%t" -T "album=%g" -T "date=%y" -T "tracknumber=%n" -T "genre=%m" %s


TOC of the extracted CD

Track | Start | Length | Start sector | End sector
––––––––––––––––––––––––––––-
1 | 0:00.00 | 4:59.21 | 0 | 22445
2 | 4:59.21 | 2:55.00 | 22446 | 35570
3 | 7:54.21 | 1:59.43 | 35571 | 44538
4 | 9:53.64 | 5:38.41 | 44539 | 69929
5 | 15:32.30 | 5:13.64 | 69930 | 93468
6 | 20:46.19 | 4:14.64 | 93469 | 112582
7 | 25:01.08 | 4:39.16 | 112583 | 133523
8 | 29:40.24 | 6:22.68 | 133524 | 162241
9 | 36:03.17 | 4:52.21 | 162242 | 184162
10 | 40:55.38 | 4:55.23 | 184163 | 206310
11 | 45:50.61 | 4:14.59 | 206311 | 225419
12 | 50:05.45 | 5:56.55 | 225420 | 252174
13 | 56:02.25 | 4:41.07 | 252175 | 273256
14 | 60:43.32 | 4:17.36 | 273257 | 292567
15 | 65:00.68 | 3:10.18 | 292568 | 306835


Track 1

Filename C:\Users\Administrator\Desktop\Teachings From The Electronic Brain (The Best of FSOL)\01 - The Future Sound of London - Papua New Guinea (12' Version).wav

Pre-gap length 0:00:02.00

Peak level 88.6 %
Track quality 100.0 %
Test CRC D3FD82E3
Copy CRC D3FD82E3
Accurately ripped (confidence 20) [706F350B]
Copy OK

Track 2

Filename C:\Users\Administrator\Desktop\Teachings From The Electronic Brain (The Best of FSOL)\02 - The Future Sound of London - Max.wav

Peak level 97.7 %
Track quality 99.9 %
Test CRC 806BA8B0
Copy CRC 806BA8B0
Accurately ripped (confidence 19) [CC04CFF5]
Copy OK

Track 3

Filename C:\Users\Administrator\Desktop\Teachings From The Electronic Brain (The Best of FSOL)\03 - The Future Sound of London - Everyone in the World is Doing Something Without Me.wav

Peak level 96.1 %
Track quality 100.0 %
Test CRC D68BEE74
Copy CRC D68BEE74
Accurately ripped (confidence 19) [AA4DCD71]
Copy OK

Track 4

Filename C:\Users\Administrator\Desktop\Teachings From The Electronic Brain (The Best of FSOL)\04 - The Future Sound of London - My Kingdom.wav

Peak level 98.6 %
Track quality 100.0 %
Test CRC C466700B
Copy CRC C466700B
Accurately ripped (confidence 19) [CDCCE123]
Copy OK

Track 5

Filename C:\Users\Administrator\Desktop\Teachings From The Electronic Brain (The Best of FSOL)\05 - The Future Sound of London - Smokin' Japanese Babe.wav

Peak level 99.2 %
Track quality 100.0 %
Test CRC 6A5C28FA
Copy CRC 6A5C28FA
Accurately ripped (confidence 19) [1872A633]
Copy OK

Track 6

Filename C:\Users\Administrator\Desktop\Teachings From The Electronic Brain (The Best of FSOL)\06 - The Future Sound of London - Antique Toy.wav

Peak level 89.4 %
Track quality 100.0 %
Test CRC 9A2C7300
Copy CRC 9A2C7300
Accurately ripped (confidence 18) [2440379E]
Copy OK

Track 7

Filename C:\Users\Administrator\Desktop\Teachings From The Electronic Brain (The Best of FSOL)\07 - The Future Sound of London - Lifeforms (Radio Edit).wav

Peak level 98.0 %
Track quality 100.0 %
Test CRC 26D2AE52
Copy CRC 26D2AE52
Accurately ripped (confidence 19) [22F81A5C]
Copy OK

Track 8

Filename C:\Users\Administrator\Desktop\Teachings From The Electronic Brain (The Best of FSOL)\08 - The Future Sound of London - Yage.wav

Pre-gap length 0:00:01.45

Peak level 99.5 %
Track quality 100.0 %
Test CRC 1A45657C
Copy CRC 1A45657C
Accurately ripped (confidence 19) [000585F8]
Copy OK

Track 9

Filename C:\Users\Administrator\Desktop\Teachings From The Electronic Brain (The Best of FSOL)\09 - The Future Sound of London - Expander (12' Version).wav

Peak level 83.5 %
Track quality 100.0 %
Test CRC 6E6204F6
Copy CRC 6E6204F6
Accurately ripped (confidence 19) [510901A1]
Copy OK

Track 10

Filename C:\Users\Administrator\Desktop\Teachings From The Electronic Brain (The Best of FSOL)\10 - The Future Sound of London - Glass.wav

Peak level 99.5 %
Track quality 100.0 %
Test CRC E327E167
Copy CRC E327E167
Accurately ripped (confidence 19) [0BFFFE43]
Copy OK

Track 11

Filename C:\Users\Administrator\Desktop\Teachings From The Electronic Brain (The Best of FSOL)\11 - The Future Sound of London - Far-Out Son of Lung and the Ramblings of a Madman.wav

Peak level 88.9 %
Track quality 100.0 %
Test CRC A410D920
Copy CRC A410D920
Accurately ripped (confidence 19) [1E76F13F]
Copy OK

Track 12

Filename C:\Users\Administrator\Desktop\Teachings From The Electronic Brain (The Best of FSOL)\12 - The Future Sound of London - The Lovers.wav

Peak level 88.9 %
Track quality 100.0 %
Test CRC A9A9207A
Copy CRC A9A9207A
Accurately ripped (confidence 19) [24AF460D]
Copy OK

Track 13

Filename C:\Users\Administrator\Desktop\Teachings From The Electronic Brain (The Best of FSOL)\13 - The Future Sound of London - Mountain Goat.wav

Peak level 90.0 %
Track quality 100.0 %
Test CRC BC18137B
Copy CRC BC18137B
Accurately ripped (confidence 19) [7BFC2509]
Copy OK

Track 14

Filename C:\Users\Administrator\Desktop\Teachings From The Electronic Brain (The Best of FSOL)\14 - The Future Sound of London - Cascade (Shortform).wav

Peak level 99.9 %
Track quality 100.0 %
Test CRC 187B68F4
Copy CRC 187B68F4
Accurately ripped (confidence 19) [85091584]
Copy OK

Track 15

Filename C:\Users\Administrator\Desktop\Teachings From The Electronic Brain (The Best of FSOL)\15 - The Future Sound of London - We Have Explosive (7' Edit).wav

Peak level 85.9 %
Track quality 100.0 %
Test CRC 546C3822
Copy CRC 546C3822
Accurately ripped (confidence 19) [80ED689B]
Copy OK


All tracks accurately ripped

No errors occurred

End of status report

[CUETools log; Date: 01.10.2017 5:59:39; Version: 2.1.4]
[CTDB TOCID: 7sxSfgIEImEQ3UJq7hD0XCMcz.Q-] found.
Track | CTDB Status
1 | (33/33) Accurately ripped
2 | (33/33) Accurately ripped
3 | (33/33) Accurately ripped
4 | (33/33) Accurately ripped
5 | (33/33) Accurately ripped
6 | (33/33) Accurately ripped
7 | (33/33) Accurately ripped
8 | (33/33) Accurately ripped
9 | (33/33) Accurately ripped
10 | (33/33) Accurately ripped
11 | (33/33) Accurately ripped
12 | (33/33) Accurately ripped
13 | (33/33) Accurately ripped
14 | (32/33) Accurately ripped
15 | (33/33) Accurately ripped
[AccurateRip ID: 0024d9ba-01a7ce49-ce0ffb0f] found.
Track [ CRC | V2 ] Status
01 [706f350b|faa04cd9] (25+13/45) Accurately ripped
02 [cc04cff5|4e01d302] (24+13/44) Accurately ripped
03 [aa4dcd71|92777e88] (24+13/44) Accurately ripped
04 [cdcce123|beeebfa5] (24+13/44) Accurately ripped
05 [1872a633|d26527c0] (24+13/44) Accurately ripped
06 [2440379e|ddbbe8ee] (23+13/43) Accurately ripped
07 [22f81a5c|e281d263] (24+13/44) Accurately ripped
08 [000585f8|aa218711] (24+13/44) Accurately ripped
09 [510901a1|36438f74] (24+13/44) Accurately ripped
10 [0bfffe43|1c06339f] (24+13/44) Accurately ripped
11 [1e76f13f|c77b52ac] (24+13/44) Accurately ripped
12 [24af460d|c1ed334e] (24+13/44) Accurately ripped
13 [7bfc2509|8fac98c7] (24+13/44) Accurately ripped
14 [85091584|31cc13e7] (24+13/44) Accurately ripped
15 [80ed689b|09698f33] (24+13/44) Accurately ripped
Offsetted by -664:
01 [59b1a8c0] (02/45) Accurately ripped
02 [2124631f] (02/44) Accurately ripped
03 [6ab70daa] (02/44) Accurately ripped
04 [86930773] (02/44) Accurately ripped
05 [07ffa493] (02/44) Accurately ripped
06 [010aac26] (02/43) Accurately ripped
07 [72038954] (02/44) Accurately ripped
08 [2f6321d8] (02/44) Accurately ripped
09 [b7dfad81] (02/44) Accurately ripped
10 [6f4fdbfb] (02/44) Accurately ripped
11 [a7adb15f] (02/44) Accurately ripped
12 [e08060a2] (02/44) Accurately ripped
13 [278ff88f] (02/44) Accurately ripped
14 [de5992d1] (02/44) Accurately ripped
15 [520f8343] (02/44) Accurately ripped
Offsetted by -676:
01 [1b307e75] (00/45) No match (V2 was not tested)
02 [058f86d5] (00/44) No match (V2 was not tested)
03 [1859be5f] (00/44) No match (V2 was not tested)
04 [156f8a37] (00/44) No match (V2 was not tested)
05 [8628bec3] (00/44) No match (V2 was not tested)
06 [7a3c98aa] (00/43) No match (V2 was not tested)
07 [4217ca90] (00/44) No match (V2 was not tested)
08 [aa1316c8] (00/44) No match (V2 was not tested)
09 [b830aa71] (00/44) No match (V2 was not tested)
10 [586e9a97] (00/44) No match (V2 was not tested)
11 [917bca6f] (00/44) No match (V2 was not tested)
12 [78de3630] (00/44) No match (V2 was not tested)
13 [39295811] (00/44) No match (V2 was not tested)
14 [8092ccd9] (00/44) No match (V2 was not tested)
15 [9511abd7] (00/44) No match (V2 was not tested)

Track Peak [ CRC32 ] [W/O NULL] [ LOG ]
– 99,9 [89E12DD6] [25A1E4C9]
01 88,6 [D3FD82E3] [0F1B1D00] CRC32
02 97,7 [806BA8B0] [58D58EA6] CRC32
03 96,1 [D68BEE74] [2089BA55] CRC32
04 98,6 [C466700B] [9A227EAC] CRC32
05 99,2 [6A5C28FA] [F9A3A180] CRC32
06 89,4 [9A2C7300] [BA3A2DCF] CRC32
07 97,9 [26D2AE52] [452D7933] CRC32
08 99,5 [1A45657C] [0CDC8820] CRC32
09 83,5 [6E6204F6] [3FFCE427] CRC32
10 99,5 [E327E167] [B52C7802] CRC32
11 88,9 [A410D920] [46838636] CRC32
12 88,9 [A9A9207A] [A6915E50] CRC32
13 90,0 [BC18137B] [F4DAF1BC] CRC32
14 99,9 [187B68F4] [01183C1D] CRC32
15 85,9 [546C3822] [13E2A80C] CRC32

foobar2000 1.2 / Dynamic Range Meter 1.1.1
log date: 2013-03-17 09:06:02

––––––––––––––––––––––––––––––––––––––––
Analyzed: Amorphous Androgynous / Teachings From The Electronic Brain (The Best Of FSOL) (1-2)
The Future Sound Of London / Teachings From The Electronic Brain (The Best Of FSOL) (3-15)
––––––––––––––––––––––––––––––––––––––––

DR Peak RMS Duration Track
––––––––––––––––––––––––––––––––––––––––
DR11 -1.02 dB -15.07 dB 5:57 12/15-The Lovers
DR12 -0.91 dB -16.76 dB 4:41 13/15-Mountain Goat
DR8 -1.04 dB -11.15 dB 4:59 01/15-Papua New Guinea (12" Version)
DR13 -0.20 dB -16.93 dB 2:55 02/15-Max
DR11 -0.34 dB -18.46 dB 2:00 03/15-Everyone In The World Is Doing Something Without Me
DR11 -0.12 dB -14.91 dB 5:39 04/15-My Kingdom
DR12 -0.07 dB -15.62 dB 5:14 05/15-Smokin' Japanese Babe
DR11 -0.97 dB -14.77 dB 4:15 06/15-Antique Toy
DR11 -0.18 dB -15.06 dB 4:39 07/15-Lifeforms (Radio Edit)
DR10 -0.04 dB -12.60 dB 6:23 08/15-Yage
DR11 -1.56 dB -14.69 dB 4:52 09/15-Expander (12" Version)
DR15 -0.04 dB -19.00 dB 4:55 10/15-Glass
DR10 -1.02 dB -13.10 dB 4:15 11/15-Far-Out Son Of Lung And The Ramblings Of A Madman
DR12 -0.01 dB -14.92 dB 4:17 14/15-Cascade (Shortform)
DR10 -1.32 dB -12.64 dB 3:10 15/15-We Have Explosive (7" Edit)
––––––––––––––––––––––––––––––––––––––––

Number of tracks: 15
Official DR value: DR11

Samplerate: 44100 Hz
Channels: 2
Bits per sample: 16
Bitrate: 874 kbps
Codec: FLAC
================================================================================

The Future Sound of London - Teachings From The Electronic Brain (The Best of FSOL) (2006)

The Future Sound of London - Teachings From The Electronic Brain (The Best of FSOL) (2006)

All thanks to original releaser

More interesting music in My Blog