Subcategories

The Boomtown Rats - Albums Collection 1978-1982 (4CD) Non-Remastered [Re-Up]

Posted By: Designol
The Boomtown Rats - Albums Collection 1978-1982 (4CD) Non-Remastered [Re-Up]

The Boomtown Rats - Albums Collection 1978-1982 (4CD) [Non-Remastered]
EAC | FLAC | Image (Cue&Log) ~ 1.04 Gb | Mp3 (CBR320) ~ 402 Mb | Scans ~ 333 Mb
Genre: New Wave, Pop Punk, Post-Punk | Time: 02:45:55

Collection includes: A Tonic for the Troops (1978); The Fine Art Of Surfacing (1979); Mondo Bongo (1981); V Deep (1982).

The Boomtown Rats were an Irish rock band that scored a series of British hits between 1977 and 1980, and were led by singer Bob Geldof, who organized the Ethiopian relief efforts Band Aid and Live Aid.

The Rats were formed in Dun Laoghaire, near Dublin, Ireland, in 1975 by Geldof (born Robert Frederick Zenon Geldof, October 5, 1954, Dun Laoghaire, Ireland), a former journalist; Johnnie Fingers (keyboards); Gerry Cott (guitar); Garry Roberts (guitar); Pete Briquette (bass); and Simon Crowe (drums). They took their name from Woody Guthrie's novel Bound for Glory. The group moved to London in October 1976, and became associated with the punk rock movement. Signing to Ensign Records, they released their debut single, "Lookin' After No. 1," in August 1977. It was the first of nine straight singles to make the U.K. Top 40.

Their debut album, The Boomtown Rats, was released in September 1977, on Ensign in the U.K. and on Mercury in the U.S. Their second album, Tonic for the Troops, appeared in June 1978 in the U.K., along with their first U.K. Top Ten hit, "Like Clockwork." In the fall, "Rat Trap" from the album hit number one. A Tonic for the Troops was released in the U.S. on Columbia Records in February 1979 with two tracks from The Boomtown Rats substituted for tracks on the U.K. version.

The Boomtown Rats' second straight U.K. number one came in the summer of 1979 with "I Don't Like Mondays," a song inspired by a California teenager who had gone on a killing spree and glibly justified her action with the title line. It was contained on The Rats' third album, The Fine Art of Surfacing, released in October 1979, and subsequently became the band's only U.S. singles-chart entry. The album also contained their next U.K. Top Ten hit, "Someone's Looking at You."

The Boomtown Rats released their final U.K. Top Ten hit, "Banana Republic," in November 1980, followed by their fourth album, Mondo Bongo, in January 1981. At this point, guitarist Gerry Cott left the group, and they continued as a quintet. Their fifth album, V Deep, was released in the U.K. in February 1982. In the U.S., Columbia initially released only a four-song EP drawn from the album The Boomtown Rats, finally releasing the full LP in September, when it failed to chart. Also in 1982, Geldof starred in the movie Pink Floyd: The Wall.

Columbia released the six-song compilation Ratrospective in March 1983, but rejected the band's newly recorded sixth album, In the Long Grass, which was released by Ensign in England. In 1984, Geldof and Midge Ure wrote "Do They Know It's Christmas?" and organized the star-studded Band Aid group to record it for Ethiopian relief, resulting in the biggest selling single in U.K. history. Geldof then went on to organize the two Live Aid concerts, held on July 13, 1985, in London and Philadelphia. Geldof's increased visibility led to the belated U.S. release of In the Long Grass, but when it failed to chart, The Boomtown Rats were left without a record label. The group folded in 1986, and Geldof launched a solo career.

William Ruhlmann, Allmusic.com

The Boomtown Rats - Albums Collection 1978-1982 (4CD) Non-Remastered [Re-Up]





The Boomtown Rats - Albums Collection 1978-1982 (4CD) Non-Remastered [Re-Up]

The Boomtown Rats - A Tonic for the Troops (1978)
EAC | FLAC | Image (Cue&Log) ~ 255 Mb | Mp3 (CBR320) ~ 96 Mb
Label: CBS/Columbia | # CK 35750 | Time: 00:39:49 | Scans ~ 78 Mb

Bob Geldof had revealed a taste for the seamy side of things in his lyrics for the Boomtown Rats' first album. On their second record, he fantasized about being Hitler in the person of the "Leader of the Pack" ("I Never Loved Eva Braun"), romanticized tropical suicide ("Living in an Island"), and identified with a certain wealthy recluse ("Me and Howard Hughes"). The band retained a punk energy on the album's U.K. hit singles, "Like Clockwork," "She's So Modern," and "Rat Trap" (another of Geldof's Springsteen homages), but musical identity was still a song-by-song affair. [In the U.S., Columbia replaced "Can't Stop" and "[Watch Out For] The Normal People" with "Mary of the 4th Form" and "Joey's on the Street Again" from the first album.]

William Ruhlmann, Allmusic.com

Tracklist:

01. Rat Trap (05:08)
02. Me and Howard Hughes (03:09)
03. (I Never Loved) Eva Braun (04:37)
04. Living in an Island (04:08)
05. Like Clockwork (03:41)
06. Blind Date (03:20)
07. Mary of the 4th Form (03:33)
08. Don't Believe What You Read (03:07)
09. She's So Modern (02:55)
10. Joey's On the Street Again (05:50)


Exact Audio Copy V1.0 beta 2 from 29. April 2011

EAC extraction logfile from 21. August 2011, 23:23

The Boomtown Rats / A Tonic for the Troops (CK 35750)

Used drive : HL-DT-STDVDRW GSA-S10N Adapter: 0 ID: 1

Read mode : Secure
Utilize accurate stream : Yes
Defeat audio cache : Yes
Make use of C2 pointers : No

Read offset correction : 667
Overread into Lead-In and Lead-Out : No
Fill up missing offset samples with silence : Yes
Delete leading and trailing silent blocks : No
Null samples used in CRC calculations : Yes
Used interface : Native Win32 interface for Win NT & 2000

Used output format : User Defined Encoder
Selected bitrate : 768 kBit/s
Quality : High
Add ID3 tag : No
Command line compressor : C:\Program Files\Exact Audio Copy 1\Flac\flac.exe
Additional command line options : -V -8 %source%


TOC of the extracted CD

Track | Start | Length | Start sector | End sector
––––––––––––––––––––––––––––-
1 | 0:00.00 | 5:11.12 | 0 | 23336
2 | 5:11.12 | 3:10.43 | 23337 | 37629
3 | 8:21.55 | 4:38.32 | 37630 | 58511
4 | 13:00.12 | 4:10.10 | 58512 | 77271
5 | 17:10.22 | 3:43.45 | 77272 | 94041
6 | 20:53.67 | 3:22.20 | 94042 | 109211
7 | 24:16.12 | 3:36.15 | 109212 | 125426
8 | 27:52.27 | 3:08.10 | 125427 | 139536
9 | 31:00.37 | 2:57.68 | 139537 | 152879
10 | 33:58.30 | 5:50.70 | 152880 | 179199


Range status and errors

Selected range

Filename C:\Olaf der Weisse\The Boomtown Rats . 1978 . A Tonic for the Troops (CK 35750)\The Boomtown Rats - A Tonic for the Troops (CK 35750).wav

Peak level 99.8 %
Extraction speed 2.0 X
Range quality 99.9 %
Test CRC A592DF1D
Copy CRC A592DF1D
Copy OK

No errors occurred


AccurateRip summary

Track 1 accurately ripped (confidence 9) [37AE0CD4] (AR v1)
Track 2 accurately ripped (confidence 9) [CA8A7ADA] (AR v1)
Track 3 accurately ripped (confidence 9) [32B7AB79] (AR v1)
Track 4 accurately ripped (confidence 9) [2AC12211] (AR v1)
Track 5 accurately ripped (confidence 9) [0C0ACC26] (AR v1)
Track 6 accurately ripped (confidence 9) [6D69AFC3] (AR v1)
Track 7 accurately ripped (confidence 9) [BB3C0EBA] (AR v1)
Track 8 accurately ripped (confidence 9) [EAF66590] (AR v1)
Track 9 accurately ripped (confidence 9) [CEB7831A] (AR v1)
Track 10 accurately ripped (confidence 9) [F5C22C56] (AR v1)

All tracks accurately ripped

End of status report

==== Log checksum 925BD2773E8DD16ADF24E8A3E919E7393F574A5C3D8570145CDE1346548A4776 ====

foobar2000 1.2 / Dynamic Range Meter 1.1.1
log date: 2014-05-13 01:49:37

––––––––––––––––––––––––––––––––––––––––
Analyzed: The Boomtown Rats / A Tonic for the Troops (CK 35750)
––––––––––––––––––––––––––––––––––––––––

DR Peak RMS Duration Track
––––––––––––––––––––––––––––––––––––––––
DR13 -0.01 dB -15.34 dB 5:11 01-Rat Trap
DR13 -0.02 dB -14.64 dB 3:11 02-Me and Howard Hughes
DR12 -0.01 dB -15.25 dB 4:38 03-(I Never Loved) Eva Braun
DR12 -0.82 dB -15.26 dB 4:10 04-Living in an Island
DR14 -0.02 dB -15.97 dB 3:44 05-Like Clockwork
DR12 -0.02 dB -14.06 dB 3:22 06-Blind Date
DR12 -1.00 dB -14.78 dB 3:36 07-Mary of the 4th Form
DR12 -0.02 dB -14.27 dB 3:08 08-Don't Believe What You Read
DR12 -0.04 dB -12.58 dB 2:58 09-She's So Modern
DR13 -0.43 dB -15.49 dB 5:51 10-Joey's On the Street Again
––––––––––––––––––––––––––––––––––––––––

Number of tracks: 10
Official DR value: DR13

Samplerate: 44100 Hz
Channels: 2
Bits per sample: 16
Bitrate: 898 kbps
Codec: FLAC
================================================================================




The Boomtown Rats - Albums Collection 1978-1982 (4CD) Non-Remastered [Re-Up]

The Boomtown Rats - The Fine Art Of Surfacing (1979)
EAC | FLAC | Image (Cue&Log) ~ 258 Mb | Mp3 (CBR320) ~ 98 Mb
Label: CBS/Columbia | # CK 36248 | Time: 00:40:21 | Scans ~ 111 Mb

Chock-full of new wave charisma and tamed by Bob Geldof's upfront wit, The Fine Art of Surfacing is novel in both its lyrical flair and modern pounce. Made famous by the colorful history of "I Don't Like Mondays," a true story about a 16-year-old girl who shot 11 people without showing any remorse, The Fine Art of Surfacing switches gears from this song's well-crafted harshness to the hectic pace of tracks such as "Nice N' Neat" and "Sleep," among others. "Diamond Smiles" jaunts along on a hiccup-like rhythm, while "Keep It Up" is downright frantic. "Someone's Looking at You" basks in a certain type of smug paranoia, and songs like "Having My Picture Taken" and "Nothing Happened Today" are beautifully lit up by Geldof's wide-eyed dramatics and explicit vocal swings. Sharing the same sort of stylishness as A Tonic for the Troops, The Fine Art of Surfacing bursts with florid pop genius, which in turn kept the Boomtown Rats from sounding like other new wave bands that existed at the time.

Mike DeGagne, Allmusic.com

Tracklist:

01. Someone's Looking At You (04:23)
02. Diamond Smiles (03:49)
03. Wind Chill Factor (Minus Zero) (04:36)
04. Having My Picture Taken (03:19)
05. Sleep (Finger's Lullaby) (05:03)
06. I Don't Like Mondays (04:18)
07. Nothing Happened Today (03:19)
08. Keep It Up (03:39)
09. Nice 'N' Neat (02:51)
10. When The Night Comes (04:57)


Exact Audio Copy V1.0 beta 2 from 29. April 2011

EAC extraction logfile from 22. August 2011, 0:15

The Boomtown Rats / The Fine Art Of Surfacing (CK 36248)

Used drive : HL-DT-STDVDRW GSA-S10N Adapter: 0 ID: 1

Read mode : Secure
Utilize accurate stream : Yes
Defeat audio cache : Yes
Make use of C2 pointers : No

Read offset correction : 667
Overread into Lead-In and Lead-Out : No
Fill up missing offset samples with silence : Yes
Delete leading and trailing silent blocks : No
Null samples used in CRC calculations : Yes
Used interface : Native Win32 interface for Win NT & 2000

Used output format : User Defined Encoder
Selected bitrate : 768 kBit/s
Quality : High
Add ID3 tag : No
Command line compressor : C:\Program Files\Exact Audio Copy 1\Flac\flac.exe
Additional command line options : -V -8 %source%


TOC of the extracted CD

Track | Start | Length | Start sector | End sector
––––––––––––––––––––––––––––-
1 | 0:00.00 | 4:23.27 | 0 | 19751
2 | 4:23.27 | 3:49.65 | 19752 | 36991
3 | 8:13.17 | 4:36.60 | 36992 | 57751
4 | 12:50.02 | 3:19.25 | 57752 | 72701
5 | 16:09.27 | 5:04.48 | 72702 | 95549
6 | 21:14.00 | 4:18.67 | 95550 | 114966
7 | 25:32.67 | 3:19.55 | 114967 | 129946
8 | 28:52.47 | 3:39.20 | 129947 | 146391
9 | 32:31.67 | 2:51.15 | 146392 | 159231
10 | 35:23.07 | 4:57.38 | 159232 | 181544


Range status and errors

Selected range

Filename C:\Olaf der Weisse\The Boomtown Rats . 1979 . The Fine Art Of Surfacing (CK 36248)\The Boomtown Rats - The Fine Art Of Surfacing (CK 36248).wav

Peak level 82.6 %
Extraction speed 2.1 X
Range quality 99.9 %
Test CRC E45527BC
Copy CRC E45527BC
Copy OK

No errors occurred


AccurateRip summary

Track 1 accurately ripped (confidence 13) [D73FDE23] (AR v1)
Track 2 accurately ripped (confidence 13) [1FCDBCC1] (AR v1)
Track 3 accurately ripped (confidence 12) [694B6F70] (AR v1)
Track 4 accurately ripped (confidence 12) [B6DF1447] (AR v1)
Track 5 accurately ripped (confidence 12) [9D258B98] (AR v1)
Track 6 accurately ripped (confidence 13) [A2194A45] (AR v1)
Track 7 accurately ripped (confidence 12) [BBD74843] (AR v1)
Track 8 accurately ripped (confidence 13) [EF1CC87F] (AR v1)
Track 9 accurately ripped (confidence 13) [CFAF3F78] (AR v1)
Track 10 accurately ripped (confidence 12) [39E28995] (AR v1)

All tracks accurately ripped

End of status report

==== Log checksum 636F7C2F636ADB084E2B6807F11CA883FF6C9C853C11CA014D52E9F091111D61 ====

foobar2000 1.2 / Dynamic Range Meter 1.1.1
log date: 2014-05-13 01:49:49

––––––––––––––––––––––––––––––––––––––––
Analyzed: The Boomtown Rats / The Fine Art Of Surfacing (CK 36248)
––––––––––––––––––––––––––––––––––––––––

DR Peak RMS Duration Track
––––––––––––––––––––––––––––––––––––––––
DR11 -2.29 dB -15.92 dB 4:23 01-Someone's Looking At You
DR11 -2.58 dB -15.91 dB 3:50 02-Diamond Smiles
DR12 -1.66 dB -15.54 dB 4:37 03-Wind Chill Factor (Minus Zero)
DR11 -2.35 dB -15.02 dB 3:19 04-Having My Picture Taken
DR12 -2.10 dB -16.15 dB 5:05 05-Sleep (Finger's Lullaby)
DR14 -3.39 dB -21.72 dB 4:19 06-I Don't Like Mondays
DR12 -2.23 dB -17.01 dB 3:20 07-Nothing Happened Today
DR11 -2.17 dB -15.49 dB 3:39 08-Keep It Up
DR11 -3.41 dB -15.39 dB 2:51 09-Nice 'N' Neat
DR13 -1.77 dB -16.04 dB 4:58 10-When The Night Comes
––––––––––––––––––––––––––––––––––––––––

Number of tracks: 10
Official DR value: DR12

Samplerate: 44100 Hz
Channels: 2
Bits per sample: 16
Bitrate: 894 kbps
Codec: FLAC
================================================================================




The Boomtown Rats - Albums Collection 1978-1982 (4CD) Non-Remastered [Re-Up]

The Boomtown Rats - Mondo Bongo (1981)
EAC | FLAC | Image (Cue&Log) ~ 289 Mb | Mp3 (CBR320) ~ 105 Mb
Label: CBS/Columbia | # CK 37062 | Time: 00:43:27 | Scans ~ 65 Mb

On their fourth album, the Boomtown Rats submitted to ambitiousness, with singer Bob Geldof attempting to assume the mantle of Bob Dylan, the Beatles, and the Rolling Stones, while the band tried to keep up with musical fashions in Britain. The combination led to such oddities as a ska-beat rewrite of the Stones' "Under My Thumb" and a couple of side-opening mambos. The band was at its best when it returned to the pop music that was its core on such songs as the Buddy Holly-ish "Don't Talk to Me" and especially the danceable "Up All Night," but they were buried on the second side of an uneven collection that made the Rats' sense of direction seem uncertain.

William Ruhlmann, Allmusic.com

Tracklist:

01. Mood Mambo (04:08)
02. Straight Up (03:17)
03. This Is My Room (03:39)
04. Another Oiece Of Red (02:37)
05. Go Man Go (04:00)
06. Under Their Thumb … Is Under My Thumb (02:48)
07. Please Don t Go (03:35)
08. The Elephants Graveyard (03:43)
09. Banana Republic (05:00)
10. Don t Talk To Me (02:49)
11. Hurt Hurts (03:05)
12. Up All Night (03:35)
13. Cheerio (00:44)


Exact Audio Copy V1.0 beta 2 from 29. April 2011

EAC extraction logfile from 22. August 2011, 1:12

The Boomtown Rats / Mondo Bongo (CK 37062)

Used drive : HL-DT-STDVDRW GSA-S10N Adapter: 0 ID: 1

Read mode : Secure
Utilize accurate stream : Yes
Defeat audio cache : Yes
Make use of C2 pointers : No

Read offset correction : 667
Overread into Lead-In and Lead-Out : No
Fill up missing offset samples with silence : Yes
Delete leading and trailing silent blocks : No
Null samples used in CRC calculations : Yes
Used interface : Native Win32 interface for Win NT & 2000

Used output format : User Defined Encoder
Selected bitrate : 768 kBit/s
Quality : High
Add ID3 tag : No
Command line compressor : C:\Program Files\Exact Audio Copy 1\Flac\flac.exe
Additional command line options : -V -8 %source%


TOC of the extracted CD

Track | Start | Length | Start sector | End sector
––––––––––––––––––––––––––––-
1 | 0:00.00 | 4:09.10 | 0 | 18684
2 | 4:09.10 | 3:19.40 | 18685 | 33649
3 | 7:28.50 | 3:42.35 | 33650 | 50334
4 | 11:11.10 | 2:39.55 | 50335 | 62314
5 | 13:50.65 | 4:01.65 | 62315 | 80454
6 | 17:52.55 | 2:50.40 | 80455 | 93244
7 | 20:43.20 | 3:36.60 | 93245 | 109504
8 | 24:20.05 | 3:45.22 | 109505 | 126401
9 | 28:05.27 | 5:01.05 | 126402 | 148981
10 | 33:06.32 | 2:50.65 | 148982 | 161796
11 | 35:57.22 | 3:08.13 | 161797 | 175909
12 | 39:05.35 | 3:37.20 | 175910 | 192204
13 | 42:42.55 | 0:44.45 | 192205 | 195549


Range status and errors

Selected range

Filename C:\Olaf der Weisse\The Boomtown Rats . 1981 . Mondo Bongo (CK 37062)\The Boomtown Rats - Mondo Bongo (CK 37062).wav

Peak level 95.4 %
Extraction speed 2.2 X
Range quality 100.0 %
Test CRC 1D30223A
Copy CRC 1D30223A
Copy OK

No errors occurred


AccurateRip summary

Track 1 accurately ripped (confidence 4) [0F172C96] (AR v1)
Track 2 accurately ripped (confidence 5) [C3B02185] (AR v1)
Track 3 accurately ripped (confidence 5) [91B54386] (AR v1)
Track 4 accurately ripped (confidence 5) [E356E87B] (AR v1)
Track 5 accurately ripped (confidence 5) [F4E23A58] (AR v1)
Track 6 accurately ripped (confidence 5) [A1DF9FEB] (AR v1)
Track 7 accurately ripped (confidence 5) [E9534862] (AR v1)
Track 8 accurately ripped (confidence 5) [39961B8A] (AR v1)
Track 9 accurately ripped (confidence 5) [228BF465] (AR v1)
Track 10 accurately ripped (confidence 5) [84689EED] (AR v1)
Track 11 accurately ripped (confidence 4) [E59F50FB] (AR v1)
Track 12 accurately ripped (confidence 4) [C084F1D4] (AR v1)
Track 13 accurately ripped (confidence 5) [8BEC081C] (AR v1)

All tracks accurately ripped

End of status report

==== Log checksum 0AF1AF34FB4A9399A1FA728469D2135C023F3D5C20090D1493B7D69DB217F9E1 ====

foobar2000 1.2 / Dynamic Range Meter 1.1.1
log date: 2014-05-13 01:50:02

––––––––––––––––––––––––––––––––––––––––
Analyzed: The Boomtown Rats / Mondo Bongo (CK 37062)
––––––––––––––––––––––––––––––––––––––––

DR Peak RMS Duration Track
––––––––––––––––––––––––––––––––––––––––
DR12 -2.21 dB -16.80 dB 4:09 01-Mood Mambo
DR11 -1.75 dB -14.60 dB 3:20 02-Straight Up
DR11 -1.92 dB -15.74 dB 3:42 03-This Is My Room
DR15 -4.30 dB -22.93 dB 2:40 04-Another Oiece Of Red
DR11 -2.36 dB -15.36 dB 4:02 05-Go Man Go
DR12 -2.23 dB -16.34 dB 2:51 06-Under Their Thumb … Is Under My Thumb
DR12 -1.74 dB -16.04 dB 3:37 07-Please Don t Go
DR12 -0.86 dB -13.81 dB 3:45 08-The Elephants Graveyard
DR13 -1.79 dB -18.25 dB 5:01 09-Banana Republic
DR13 -0.41 dB -15.58 dB 2:51 10-Don t Talk To Me
DR12 -1.78 dB -14.73 dB 3:08 11-Hurt Hurts
DR13 -0.84 dB -16.66 dB 3:37 12-Up All Night
DR11 -3.73 dB -19.40 dB 0:45 13-Cheerio
––––––––––––––––––––––––––––––––––––––––

Number of tracks: 13
Official DR value: DR12

Samplerate: 44100 Hz
Channels: 2
Bits per sample: 16
Bitrate: 932 kbps
Codec: FLAC
================================================================================




The Boomtown Rats - Albums Collection 1978-1982 (4CD) Non-Remastered [Re-Up]

The Boomtown Rats - V Deep (1982)
EAC | FLAC | Image (Cue&Log) ~ 264 Mb | Mp3 (CBR320) ~ 103 Mb
Label: Mercury | # 800 042-2 | Time: 00:42:18 | Scans ~ 79 Mb

On their fifth album and reduced to a quintet, the Boomtown Rats moved closer to Caribbean rhythms, employing a percussionist and upping the bass guitar in the mix. They even had Dennis Bovell do a dub mix of "House on Fire" and included it at the end of the album. Meanwhile, Bob Geldof's lyrics indicated an increasingly embattled sensibility; he noted in a song called "The Bitter End" that "It isn't too far." Unfortunately, nothing here matched the catchy, daring work on the Rats' first three albums, and even in England their star was beginning to fade. In America, Columbia Records at first declined to release the album, opting for a four-track EP, then allowed it to escape in September 1982, when it failed to chart.

William Ruhlmann, Allmusic.com

Tracklist:

01. Never In A Million Years (03:45)
02. The Bitter End (04:25)
03. Talking In Code (02:50)
04. He Watches It All (03:16)
05. A Storm Breaks (05:59)
06. Charmed Lives (03:59)
07. House On Fire (04:40)
08. Up All Night (03:37)
09. Skin On Skin (04:33)
10. The Little Death (03:31)
11. House Burned Down (01:16)


Exact Audio Copy V1.0 beta 2 from 29. April 2011

EAC extraction logfile from 22. August 2011, 2:06

The Boomtown Rats / V Deep (800 042-2)

Used drive : HL-DT-STDVDRW GSA-S10N Adapter: 0 ID: 1

Read mode : Secure
Utilize accurate stream : Yes
Defeat audio cache : Yes
Make use of C2 pointers : No

Read offset correction : 667
Overread into Lead-In and Lead-Out : No
Fill up missing offset samples with silence : Yes
Delete leading and trailing silent blocks : No
Null samples used in CRC calculations : Yes
Used interface : Native Win32 interface for Win NT & 2000

Used output format : User Defined Encoder
Selected bitrate : 768 kBit/s
Quality : High
Add ID3 tag : No
Command line compressor : C:\Program Files\Exact Audio Copy 1\Flac\flac.exe
Additional command line options : -V -8 %source%


TOC of the extracted CD

Track | Start | Length | Start sector | End sector
––––––––––––––––––––––––––––-
1 | 0:00.32 | 3:49.13 | 32 | 17219
2 | 3:49.45 | 4:27.55 | 17220 | 37299
3 | 8:17.25 | 2:51.55 | 37300 | 50179
4 | 11:09.05 | 3:20.35 | 50180 | 65214
5 | 14:29.40 | 6:01.40 | 65215 | 92329
6 | 20:31.05 | 4:01.70 | 92330 | 110474
7 | 24:33.00 | 4:42.05 | 110475 | 131629
8 | 29:15.05 | 3:39.45 | 131630 | 148099
9 | 32:54.50 | 4:34.47 | 148100 | 168696
10 | 37:29.22 | 3:33.00 | 168697 | 184671
11 | 41:02.22 | 1:16.08 | 184672 | 190379


Range status and errors

Selected range

Filename C:\Olaf der Weisse\The Boomtown Rats . 1982 . V Deep (800 042-2)\The Boomtown Rats - V Deep (800 042-2).wav

Peak level 100.0 %
Extraction speed 2.1 X
Range quality 100.0 %
Test CRC 1ADC358A
Copy CRC 1ADC358A
Copy OK

No errors occurred


AccurateRip summary

Track 1 accurately ripped (confidence 7) [BC396516] (AR v1)
Track 2 accurately ripped (confidence 7) [115F7198] (AR v1)
Track 3 accurately ripped (confidence 7) [8B9415E3] (AR v1)
Track 4 accurately ripped (confidence 7) [C80000C1] (AR v1)
Track 5 accurately ripped (confidence 7) [1BFAACC4] (AR v1)
Track 6 accurately ripped (confidence 7) [9C8DFC3E] (AR v1)
Track 7 accurately ripped (confidence 7) [CFBC1091] (AR v1)
Track 8 accurately ripped (confidence 7) [988A4375] (AR v1)
Track 9 accurately ripped (confidence 6) [8D0E2A64] (AR v1)
Track 10 accurately ripped (confidence 6) [9F87A868] (AR v1)
Track 11 accurately ripped (confidence 6) [ED293C40] (AR v1)

All tracks accurately ripped

End of status report

==== Log checksum D0AFB183FB159D9BAB00115E9EB32705F67FE4F0E68CCE853E8AA2C541202DD6 ====

foobar2000 1.2 / Dynamic Range Meter 1.1.1
log date: 2014-05-13 01:50:15

––––––––––––––––––––––––––––––––––––––––
Analyzed: The Boomtown Rats / V Deep (800 042-2)
––––––––––––––––––––––––––––––––––––––––

DR Peak RMS Duration Track
––––––––––––––––––––––––––––––––––––––––
DR11 0.00 dB -13.00 dB 3:49 01-Never In A Million Years
DR14 0.00 dB -15.08 dB 4:28 02-The Bitter End
DR11 0.00 dB -13.48 dB 2:52 03-Talking In Code
DR12 0.00 dB -14.13 dB 3:20 04-He Watches It All
DR12 0.00 dB -12.91 dB 6:02 05-A Storm Breaks
DR13 0.00 dB -14.50 dB 4:02 06-Charmed Lives
DR11 0.00 dB -12.92 dB 4:42 07-House On Fire
DR12 -0.64 dB -14.58 dB 3:40 08-Up All Night
DR12 0.00 dB -14.38 dB 4:35 09-Skin On Skin
DR12 -2.10 dB -16.16 dB 3:33 10-The Little Death
DR14 -2.75 dB -19.69 dB 1:16 11-House Burned Down
––––––––––––––––––––––––––––––––––––––––

Number of tracks: 11
Official DR value: DR12

Samplerate: 44100 Hz
Channels: 2
Bits per sample: 16
Bitrate: 874 kbps
Codec: FLAC
================================================================================