Subcategories

The Byrds - The Byrds' Greatest Hits (1967) [Vinyl Rip 16/44 & mp3-320]

Posted By: v3122
The Byrds - The Byrds' Greatest Hits (1967) [Vinyl Rip 16/44 & mp3-320]

The Byrds - The Byrds' Greatest Hits (1967)
Vinyl Rip 16/44 | Flac(Image + Cue) > 196 Mb
MP3 CBR 320Kbps > 77 Mb | Artwork(jpg) > 28 Mb
2016 | Columbia – CS 9516, Music On Vinyl – MOVLP1649 (180 Gram )
Folk Rock, Rock & Roll, Classic Rock

Without question, the Byrds were one of the great bands of the '60s and one of the few American bands of their time to continually turn out inventive, compelling albums. As they were recording a series of fine records, they turned out a number of classic singles that unquestionably defined their era. The Byrds' Greatest Hits does an excellent job of chronicling the peak years of their popularity before they went country-rock on 1968's Sweetheart of the Rodeo. Apart from the minor hits "It Won't Be Wrong," "Set You Free This Time," and "Have You Seen Her Face," all of the group's hit singles – from 1965's "Mr. Tambourine Man" to 1967's "My Back Pages" – are included: "All I Really Want to Do," "Turn! Turn! Turn! (To Everything There Is a Season)," "Eight Miles High," "5D (Fifth Dimension)," "Mr. Spaceman," and "So You Want to Be a Rock N' Roll Star." Yes, some great songs were left behind on the albums, but important cuts like "I'll Feel a Whole Lot Better," "The Bells of Rhymney," and "Chimes of Freedom" are added, making this pretty close to a definitive single-disc summary of the Byrds' prime.

by Stephen Thomas Erlewine, allmusic
The Byrds - The Byrds' Greatest Hits (1967):

The Byrds - The Byrds' Greatest Hits (1967) [Vinyl Rip 16/44 & mp3-320]

Tracklist:

A1 Mr. Tambourine Man
A2 I'll Feel A Whole Lot Better
A3 The Bells Of Rhymney
A4 Turn! Turn! Turn! (To Everything There Is A Season)
A5 All I Really Want To Do
A6 Chimes Of Freedom

B1 Eight Miles High
B2 Mr. Spaceman
B3 5 D (Fifth Dimension)
B4 So You Want To Be A Rock 'N' Roll Star
B5 My Back Pages

foobar2000 1.2.9 / Dynamic Range Meter 1.1.1
log date: 2017-12-15 23:07:23

––––––––––––––––––––––––––––––––––––––––
Analyzed: The Byrds / The Byrds' Greatest Hits {MOV}
––––––––––––––––––––––––––––––––––––––––

DR Peak RMS Duration Track
––––––––––––––––––––––––––––––––––––––––
DR11 -3.55 dB -16.81 dB 2:30 01-A1 Mr Tambourine Man
DR11 -3.76 dB -16.27 dB 2:32 02-A2 I'll Feel A Whole Lot Better
DR11 -2.99 dB -16.05 dB 3:31 03-A3 The Bells Of Rhymney
DR11 -4.03 dB -17.32 dB 3:50 04-A4 Turn! Turn! Turn! (To Everything There Is A Season)
DR11 -3.73 dB -16.02 dB 2:04 05-A5 All I Really Want To Do
DR11 -4.07 dB -17.46 dB 3:52 06-A6 Chimes Of Freedom
DR11 -4.25 dB -17.74 dB 3:35 07-B1 Eight Miles High
DR11 -3.38 dB -16.56 dB 2:10 08-B2 Mr Spaceman
DR11 -2.30 dB -15.68 dB 2:33 09-B3 5 D (Fifth Dimension)
DR10 -3.78 dB -16.18 dB 2:05 10-B4 So You Want To Be A Rock 'N' Roll Star
DR12 -4.90 dB -19.12 dB 3:08 11-B5 My Back Pages
––––––––––––––––––––––––––––––––––––––––

Number of tracks: 11
Official DR value: DR11

Samplerate: 44100 Hz
Channels: 2
Bits per sample: 16
Bitrate: 822 kbps
Codec: FLAC
================================================================================




Original ripper: saidalani
Original format: 24/96
Vinyl Condition: Mint
Cleaning:
Direct Drive Turntable: Dr. Feickert Blackbird + INERTIA platter + CLEARAUDIO Tangential TT3
Cartridge: CLEARAUDIO TITANIUM V2
Amplifier: Allnic H-3000
ADC: Lavry AD11

Downsampled to 16/44

The Byrds - The Byrds' Greatest Hits (1967) [Vinyl Rip 16/44 & mp3-320]

Rainbow: Discography (1975 - 1986) [Vinyl Rip 16/44 & mp3-320]
Amanda Lear: Collection (1978 - 1986) [Vinyl Rip 16/44 & mp3-320]
Space & Didier Marouani: Collection (1977 - 1987) [Vinyl Rip 16/44 & mp3-320]



The Rolling Stones - Double Deluxe (1970) [Vinyl Rip 16/44 & mp3-320]
Rod Stewart: Collection (1969 - 1988) [Vinyl Rip 16/44 & mp3-320]
Rick Wakeman: Collection (1973 - 1981) [Vinyl Rip 16/44 & mp3-320]
Kraftwerk: Collection (1974 - 1991) [Vinyl Rip 16/44 & mp3-320]
Jethro Tull - 20 Years Of J. T. The Definitive Collection (1988) [Vinyl Rip 16/44 & mp3-320]
Testament: Discography (1987-2016) [Vinyl Rip 16/44 & mp3-320]
Roger Waters: Vinyl Collection (1970 - 1992) [Vinyl Rip 16/44 & mp3-320]
Rare Earth: Collection (1969 - 1978) [Vinyl Rip 16/44 & mp3-320]
David Gilmour - Rattle That Lock (2015) [Vinyl Rip 16/44 & mp3-320]
Tarja: Collection (2007 - 2016) [Vinyl Rip 16/44 & mp3-320]
Depeche Mode: Collection (1981 - 2013) [Vinyl Rip 16/44 & mp3-320]
Pink Floyd: Remastered Collection (1967 - 2016) [Vinyl Rip 16/44 & mp3-320]
Sade: Discography (1984 - 2010) [Vinyl Rip 16/44 & MP3-320]
Deep Purple: Collection (1968 - 2017) [Vinyl Rip 16/44 & mp3-320]
Queen: Collection (1973 - 1995) [Vinyl Rip 16/44 & MP3-320]
The Cars: Collection (1978 - 1987) [Vinyl Rip 16/44 & mp3-320]
Metallica: Discography (1983 - 2016) [Vinyl Rip 16/44 & mp3-320]
Bon Jovi - The Albums (2017) [Vinyl Rip 16/44 & mp3-320, Limited Edition Box set]
The Doors: Collection (1967 - 1971) [Vinyl Rip 16/44 & mp3-320]
Black Sabbath: Collection (1970 - 2013) [Vinyl Rip 16/44 & mp3-320]
The Beatles: Discography (1963 - 1988) [Vinyl Rip 16/44 & mp3-320]
Joe Cocker: Collection (1969 - 1991) [Vinyl Rip 16/44 & mp3-320]
Frank Zappa: Collection (1969 - 1981) [Vinyl Rip 16/44 & mp3-320]
Ten Years After: Collection (1967 - 1974) [Vinyl Rip 16/44 & mp3-320]
Dire Straits: Discography (1978 - 1991) [Vinyl Rip 16/44 & mp3-320]
Bonnie Tyler: Collection (1977 - 1986) [Vinyl Rip 16/44 & mp3-320]
The Beatles: Stereo Vinyl Box Set (2012) [Vinyl Rip 16/44 & mp3-320]
Wolfgang Amadeus Mozart - Die Violin Konzerte (1968) [Vinyl Rip 16/44 & mp3-320]
Eagles - The Studio Albums 1972-1979 (2013) [Vinyl Rip 16/44 & mp3-320]
Pink Floyd: Discography (1967 - 2014) [Vinyl Rip 16/44 & mp3-320]
Led Zeppelin: Discography (1969 - 1982) [Vinyl Rip 16/44 & mp3-320]
Manowar: Collection (1982 - 2012) [Vinyl Rip 16/44 & mp3-320]
A-HA: Collection (1985-2015) [Vinyl Rip 16/44 & mp3-320]
Decca, Wiener Philharmoniker - 6 Classic Analogue LPs (2014) [Vinyl Rip 16/44]
Beethoven - Chicago Symphony Orchestra / Sir Georg Solti ‎– The Nine Symphonies (1975) [Vinyl Rip 16/44 & mp3-320]
Scorpions: Collection (1974 - 2015) [Vinyl Rip 16/44 & mp3-320]
Pink Floyd - Echoes: The Best Of Pink Floyd (2001) [Vinyl Rip 16/44]
Alice Cooper - Paranormal (2017) [Vinyl Rip 16/44 & mp3-320]
Manfred Mann's Earth Band: Collection (1967 - 2014) [Vinyl Rip 16/44 & mp3-320]


The Byrds or The Byrds in my Blog

Download The Byrds - The Byrds' Greatest Hits (1967):