Subcategories

The Carpenters - The Carpenters (1975) {Reissue}

Posted By: popsakov
The Carpenters - The Carpenters (1975) {Reissue}

The Carpenters - The Carpenters (1975) {Reissue}
EAC Rip | FLAC (Img) + Cue + Log ~ 198 Mb | MP3 CBR320 ~ 87 Mb
Scans Included (JPG, 300 dpi) | RAR 5% Recovery
Pop, Soft Rock | ARC Records #960213

"The Carpenters" (originally released as "Horizon") is the sixth consecutive platinum-certified album by American musical duo Carpenters. It was particularly successful in the United Kingdom and Japan, topping the charts and becoming one of the best-selling albums of 1975 in those countries. Horizon also reached no. 3 in New Zealand, no. 4 in Canada and no. 5 in Norway.

An American duo consisting of sister Karen Carpenter and brother Richard Carpenter. Carpenters were the #1 selling American music act of the 1970s. Though often referred to as "The Carpenters", their name on official releases and press materials was "Carpenters". During a period in the 1970s when louder and wilder rock was in great demand, Richard and Karen produced a distinctively soft musical style that made them among the best-selling music artists of all time. No fewer than ten of their singles went on to become million-sellers, and by 2005 combined worldwide sales of albums and singles well exceeded 100 million units.

***************

The Carpenters - The Carpenters (1975) {Reissue}

Track List:

01. Aurora [1:32]
02. Only Yesterday [4:05]
03. Desperado [3:33]
04. Please Mr. Postman [2:49]
05. I Can Dream, Can't I [4:56]
06. Solitaire [4:38]
07. Happy [3:45]
08. Caught Between Goodbye And I Love You [4:02]
09. Love Me For What I Am [3:27]
10. Eventide [1:23]

Exact Audio Copy V1.0 beta 3 from 29. August 2011

EAC extraction logfile from 22. February 2017, 9:25

The Carpenters / The Carpenters

Used drive : TSSTcorpCDDVDW SH-216DB Adapter: 0 ID: 0

Read mode : Secure
Utilize accurate stream : Yes
Defeat audio cache : Yes
Make use of C2 pointers : No

Read offset correction : 6
Overread into Lead-In and Lead-Out : No
Fill up missing offset samples with silence : Yes
Delete leading and trailing silent blocks : No
Null samples used in CRC calculations : Yes
Used interface : Native Win32 interface for Win NT & 2000

Used output format : User Defined Encoder
Selected bitrate : 1024 kBit/s
Quality : High
Add ID3 tag : No
Command line compressor : C:\Program Files (x86)\Exact Audio Copy\Flac\flac.exe
Additional command line options : -V -8 -T "Date=%year%" -T "Genre=%genre%" %source%


TOC of the extracted CD

Track | Start | Length | Start sector | End sector
––––––––––––––––––––––––––––-
1 | 0:00.00 | 1:32.35 | 0 | 6934
2 | 1:32.35 | 4:05.10 | 6935 | 25319
3 | 5:37.45 | 3:33.07 | 25320 | 41301
4 | 9:10.52 | 2:48.60 | 41302 | 53961
5 | 11:59.37 | 4:55.53 | 53962 | 76139
6 | 16:55.15 | 4:38.30 | 76140 | 97019
7 | 21:33.45 | 3:45.30 | 97020 | 113924
8 | 25:19.00 | 4:02.27 | 113925 | 132101
9 | 29:21.27 | 3:27.05 | 132102 | 147631
10 | 32:48.32 | 1:22.50 | 147632 | 153831


Range status and errors

Selected range

Filename L:\Private\My Audio Ripps\ CD - RIPS\The Carpenters\The Carpenters - The Carpenters.wav

Peak level 90.1 %
Extraction speed 2.5 X
Range quality 99.9 %
Test CRC F812184C
Copy CRC F812184C
Copy OK

No errors occurred


AccurateRip summary

Track 1 accurately ripped (confidence 2) [1DF8C739] (AR v2)
Track 2 accurately ripped (confidence 2) [94D31CF1] (AR v2)
Track 3 accurately ripped (confidence 2) [15BF7D73] (AR v2)
Track 4 accurately ripped (confidence 2) [518BE256] (AR v2)
Track 5 accurately ripped (confidence 2) [65F1601D] (AR v2)
Track 6 accurately ripped (confidence 2) [D80F16AB] (AR v2)
Track 7 accurately ripped (confidence 2) [66E73C5A] (AR v2)
Track 8 accurately ripped (confidence 2) [55AF3B22] (AR v2)
Track 9 accurately ripped (confidence 2) [F6A92142] (AR v2)
Track 10 accurately ripped (confidence 2) [F38870B7] (AR v2)

All tracks accurately ripped

End of status report

==== Log checksum F69B092D59362DF4D8DEE1B0DA08375957BC2C19FAC8B34DD87755BB47EA0626 ====

foobar2000 1.2.6 / Dynamic Range Meter 1.1.1
log date: 2017-02-24 13:21:58

––––––––––––––––––––––––––––––––––––––––
Analyzed: The Carpenters / The Carpenters
––––––––––––––––––––––––––––––––––––––––

DR Peak RMS Duration Track
––––––––––––––––––––––––––––––––––––––––
DR11 -5.07 dB -20.69 dB 1:32 01-Aurora
DR11 -1.51 dB -15.26 dB 4:05 02-Only Yesterday
DR12 -2.41 dB -17.88 dB 3:33 03-Desperado
DR11 -2.00 dB -14.98 dB 2:49 04-Please Mr. Postman
DR11 -5.03 dB -18.68 dB 4:56 05-I Can Dream, Can't I
DR12 -1.59 dB -17.87 dB 4:38 06-Solitaire
DR14 -0.90 dB -18.70 dB 3:45 07-Happy
DR12 -1.24 dB -16.05 dB 4:02 08-Caught Between Goodbye And I Love You
DR12 -2.52 dB -19.16 dB 3:27 09-Love Me For What I Am
DR12 -2.18 dB -18.49 dB 1:23 10-Eventide
––––––––––––––––––––––––––––––––––––––––

Number of tracks: 10
Official DR value: DR12

Samplerate: 44100 Hz
Channels: 2
Bits per sample: 16
Bitrate: 754 kbps
Codec: FLAC
================================================================================

[CUETools log; Date: 24.02.2017 13:22:28; Version: 2.1.5]
[CTDB TOCID: rr0IoqL3zmiBzNnzAFhwO9.csR8-] found.
Track | CTDB Status
1 | (6/6) Accurately ripped
2 | (6/6) Accurately ripped
3 | (6/6) Accurately ripped
4 | (6/6) Accurately ripped
5 | (6/6) Accurately ripped
6 | (6/6) Accurately ripped
7 | (6/6) Accurately ripped
8 | (6/6) Accurately ripped
9 | (6/6) Accurately ripped
10 | (6/6) Accurately ripped
[AccurateRip ID: 000cf12a-0069bcd3-7908030a] found.
Track [ CRC | V2 ] Status
01 [6d623257|1df8c739] (4+2/6) Accurately ripped
02 [8f947546|94d31cf1] (4+2/6) Accurately ripped
03 [90a4b53f|15bf7d73] (4+2/6) Accurately ripped
04 [10d2c436|518be256] (4+2/6) Accurately ripped
05 [5929fddf|65f1601d] (4+2/6) Accurately ripped
06 [7b204181|d80f16ab] (4+2/6) Accurately ripped
07 [c121b0d2|66e73c5a] (4+2/6) Accurately ripped
08 [9d500bd8|55af3b22] (4+2/6) Accurately ripped
09 [fb2ddc91|f6a92142] (4+2/6) Accurately ripped
10 [9ecd9cdd|f38870b7] (4+2/6) Accurately ripped

Track Peak [ CRC32 ] [W/O NULL] [ LOG ]
– 90,1 [F812184C] [71966B1C] CRC32
01 55,8 [66A23539] [88DBEC32]
02 84,0 [2719E345] [5030962A]
03 75,7 [58526BAD] [626E1981]
04 79,4 [35A5A427] [F64C324C]
05 56,0 [6206503B] [128C8126]
06 83,2 [C1F4C342] [2959ACD8]
07 90,1 [343490D6] [6D5299E8]
08 86,6 [C1B01ED9] [28E9A345]
09 74,8 [C0ED7FD2] [8336EEE0]
10 77,7 [3F5BDD00] [FCE0E57D]

The Carpenters - The Carpenters (1975) {Reissue}

The Carpenters - The Carpenters (1975) {Reissue}

All thanks go to alexpika

> Visit my blog <