Subcategories

The Cars - The Cars (1978) MFSL Remastered 2015, Audio CD Layer [Re-Up]

Posted By: Designol
The Cars - The Cars (1978) MFSL Remastered 2015, Audio CD Layer [Re-Up]

The Cars - The Cars (1978) [MFSL Remastered 2015]
EAC | FLAC | Tracks (Cue&Log) ~ 241 Mb | Mp3 (CBR320) ~ 104 Mb | Scans included | 00:35:20
Rock, New Wave, Power Pop | Label: Mobile Fidelity Sound Lab | # UDSACD 2162

The Cars' 1978 self-titled debut, issued on the Elektra label, is a genuine rock masterpiece. The band jokingly referred to the album as their "true greatest-hits album," but it's no exaggeration – all nine tracks are new wave/rock classics, still in rotation on rock radio. Whereas most bands of the late '70s embraced either punk/new wave or hard rock, the Cars were one of the first bands to do the unthinkable – merge the two styles together. Add to it bandleader/songwriter Ric Ocasek's supreme pop sensibilities, and you had an album that appealed to new wavers, rockers, and Top 40 fans. One of the most popular new wave songs ever, "Just What I Needed," is an obvious highlight, as are such familiar hits as "Good Times Roll," "My Best Friend's Girl," and "You're All I've Got Tonight." But like most consummate rock albums, the lesser-known compositions are just as exhilarating: "Don't Cha Stop," "Bye Bye Love," "All Mixed Up," and "Moving in Stereo," the latter featured as an instrumental during a steamy scene in the popular movie Fast Times at Ridgemont High. With flawless performances, songwriting, and production (courtesy of Queen alumni Roy Thomas Baker), the Cars' debut remains one of rock's all-time classics.

Review by Greg Prato, Allmusic.com

The Cars - The Cars (1978) MFSL Remastered 2015, Audio CD Layer [Re-Up]



Tracklist:

01. Good Times Roll (3:46)
02. My Best Friend's Girl (3:44)
03. Just What I Needed (3:44)
04. I'm in Touch with Your World (3:32)
05. Don't Cha Stop (3:04)
06. You're All I've Got Tonight (4:14)
07. Bye Bye Love (4:13)
08. Moving in Stereo (4:44)
09. All Mixed Up (4:18)


Exact Audio Copy V1.3 from 2. September 2016

EAC extraction logfile from 17. July 2017, 9:39

The Cars / The Cars (2016 MFSL)

Used drive : PLEXTOR CD-R PREMIUM Adapter: 1 ID: 1

Read mode : Secure
Utilize accurate stream : Yes
Defeat audio cache : Yes
Make use of C2 pointers : No

Read offset correction : 30
Overread into Lead-In and Lead-Out : No
Fill up missing offset samples with silence : Yes
Delete leading and trailing silent blocks : No
Null samples used in CRC calculations : Yes
Used interface : Native Win32 interface for Win NT & 2000
Gap handling : Appended to previous track

Used output format : User Defined Encoder
Selected bitrate : 768 kBit/s
Quality : High
Add ID3 tag : No
Command line compressor : C:\Program Files (x86)\Exact Audio Copy\FLAC\FLAC.EXE
Additional command line options : -6 -e -p -V -T "ARTIST=%artist%" -T "TITLE=%title%" -T "ALBUM=%albumtitle%" -T "DATE=%year%" -T "TRACKNUMBER=%tracknr%" -T "GENRE=%genre%" -T "PERFORMER=%albuminterpret%" -T "COMPOSER=%composer%" %haslyrics%–tag-from-file=LYRICS="%lyricsfile%"%haslyrics% -T "ALBUMARTIST=%albumartist%" -T "DISCNUMBER=%cdnumber%" -T "TOTALDISCS=%totalcds%" -T "TOTALTRACKS=%numtracks%" -T "COMMENT=%comment%" %source% -o %dest%


TOC of the extracted CD

Track | Start | Length | Start sector | End sector
––––––––––––––––––––––––––––-
1 | 0:00.00 | 3:46.21 | 0 | 16970
2 | 3:46.21 | 3:44.31 | 16971 | 33801
3 | 7:30.52 | 3:44.06 | 33802 | 50607
4 | 11:14.58 | 3:32.21 | 50608 | 66528
5 | 14:47.04 | 3:03.63 | 66529 | 80316
6 | 17:50.67 | 4:14.10 | 80317 | 99376
7 | 22:05.02 | 4:12.71 | 99377 | 118347
8 | 26:17.73 | 4:44.35 | 118348 | 139682
9 | 31:02.33 | 4:17.68 | 139683 | 159025


Track 1

Filename C:\tmp\00_RIPS\01 - Good Times Roll.wav

Pre-gap length 0:00:02.00

Peak level 95.4 %
Extraction speed 8.7 X
Track quality 100.0 %
Test CRC 5EAF8CD8
Copy CRC 5EAF8CD8
Accurately ripped (confidence 27) [E3DEF629] (AR v2)
Copy OK

Track 2

Filename C:\tmp\00_RIPS\02 - My Best Friend's Girl.wav

Peak level 88.8 %
Extraction speed 8.2 X
Track quality 99.9 %
Test CRC D2F6D715
Copy CRC D2F6D715
Accurately ripped (confidence 26) [027EC452] (AR v2)
Copy OK

Track 3

Filename C:\tmp\00_RIPS\03 - Just What I Needed.wav

Peak level 96.0 %
Extraction speed 8.8 X
Track quality 99.9 %
Test CRC A749E55A
Copy CRC A749E55A
Accurately ripped (confidence 26) [29A48C2A] (AR v2)
Copy OK

Track 4

Filename C:\tmp\00_RIPS\04 - I'm In Touch With Your World.wav

Peak level 96.4 %
Extraction speed 10.7 X
Track quality 100.0 %
Test CRC 60609BDA
Copy CRC 60609BDA
Accurately ripped (confidence 25) [79AB508C] (AR v2)
Copy OK

Track 5

Filename C:\tmp\00_RIPS\05 - Don't Cha Stop.wav

Pre-gap length 0:00:01.13

Peak level 97.3 %
Extraction speed 11.1 X
Track quality 100.0 %
Test CRC F24A55D3
Copy CRC F24A55D3
Accurately ripped (confidence 26) [8AF846AE] (AR v2)
Copy OK

Track 6

Filename C:\tmp\00_RIPS\06 - You're All I've Got Tonight.wav

Peak level 90.8 %
Extraction speed 12.0 X
Track quality 100.0 %
Test CRC 0AAA4D57
Copy CRC 0AAA4D57
Accurately ripped (confidence 27) [C2588DC9] (AR v2)
Copy OK

Track 7

Filename C:\tmp\00_RIPS\07 - Bye Bye Love.wav

Peak level 97.6 %
Extraction speed 10.5 X
Track quality 99.9 %
Test CRC 06E718B1
Copy CRC 06E718B1
Accurately ripped (confidence 27) [8E4D3532] (AR v2)
Copy OK

Track 8

Filename C:\tmp\00_RIPS\08 - Moving In Stereo.wav

Peak level 94.5 %
Extraction speed 13.3 X
Track quality 100.0 %
Test CRC 51B23E46
Copy CRC 51B23E46
Accurately ripped (confidence 27) [5B958D15] (AR v2)
Copy OK

Track 9

Filename C:\tmp\00_RIPS\09 - All Mixed Up.wav

Peak level 97.1 %
Extraction speed 12.1 X
Track quality 100.0 %
Test CRC 16F3E75D
Copy CRC 16F3E75D
Accurately ripped (confidence 25) [ABFE0BAF] (AR v2)
Copy OK


All tracks accurately ripped

No errors occurred

End of status report

–– CUETools DB Plugin V2.1.6

[CTDB TOCID: 1OAfyWnCFvwuvJYFOPasAVE8Cq8-] found
Submit result: 1OAfyWnCFvwuvJYFOPasAVE8Cq8- has been confirmed
Track | CTDB Status
1 | (28/28) Accurately ripped
2 | (28/28) Accurately ripped
3 | (28/28) Accurately ripped
4 | (28/28) Accurately ripped
5 | (28/28) Accurately ripped
6 | (28/28) Accurately ripped
7 | (28/28) Accurately ripped
8 | (28/28) Accurately ripped
9 | (27/28) Accurately ripped


==== Log checksum 0D133870A65A4677C91472825140B33AC6FBB1B0305C051BB580A7A656DE32B8 ====

foobar2000 1.2 / Dynamic Range Meter 1.1.1
log date: 2017-07-22 02:02:12

––––––––––––––––––––––––––––––––––––––––
Analyzed: The Cars / The Cars
––––––––––––––––––––––––––––––––––––––––

DR Peak RMS Duration Track
––––––––––––––––––––––––––––––––––––––––
DR11 -0.41 dB -14.10 dB 3:46 01-Good Times Roll
DR10 -1.03 dB -13.18 dB 3:44 02-My Best Friend's Girl
DR10 -0.35 dB -12.49 dB 3:44 03-Just What I Needed
DR12 -0.31 dB -15.01 dB 3:32 04-I'm in Touch with Your World
DR11 -0.23 dB -13.98 dB 3:04 05-Don't Cha Stop
DR10 -0.83 dB -12.60 dB 4:14 06-You're All I've Got Tonight
DR11 -0.21 dB -12.65 dB 4:13 07-Bye Bye Love
DR12 -0.49 dB -13.96 dB 4:44 08-Moving in Stereo
DR11 -0.25 dB -15.25 dB 4:18 09-All Mixed Up
––––––––––––––––––––––––––––––––––––––––

Number of tracks: 9
Official DR value: DR11

Samplerate: 44100 Hz
Channels: 2
Bits per sample: 16
Bitrate: 824 kbps
Codec: FLAC
================================================================================

The Cars - The Cars (1978) MFSL Remastered 2015, Audio CD Layer [Re-Up]

The Cars - The Cars (1978) MFSL Remastered 2015, Audio CD Layer [Re-Up]

All thanks to original releaser - mclarenspy

More interesting music in My Blog