Subcategories

The Cousins - Best Of 60's (2000)

Posted By: popsakov
The Cousins - Best Of 60's (2000)

The Cousins - Best Of 60's (2000)
EAC Rip | WavPack (Img) + Cue + Log ~ 265 Mb | MP3 CBR320 ~ 110 Mb
Scans Included (PNG, 300 dpi) | RAR 5% Recovery
Rock & Roll | amc #amc 55.252

The Cousins is a guitar group of the late fifties and early sixties who were among the first to successfully export "rock & roll" music from Belgium. Played Shadows-like music and also had a stage act which resembled that of The Shadows.

Started off at the end of the fifties as "La Jeune Equipe". Their main occupation was playing at the birthday parties of the rich and noble. They change their name to "Les Cousins" when they were asked to perform in a club with the same name on the 14th of July (French fкte nationale). It's there that the group gets a record contract with Jean Klüger.

The cheerful song "Kili-Watch" of 1960 becomes an instant and huge hit. In a few months 50.000 copies are sold, an enormous amount for the Belgian record market at that point. The song is an adaptation of an Indian warsong that bass-player Derese had picked up during his years as a boy-scout.

A fight over the royalties for "Kili-Watch" has Derese leaving the group. He forms "The Kili-Jacks" but fails to make an impact.

The group manages to extend their popularity for more than 5 years. In "Wit-lof from Belgium" it says : "They were clean boys, always smiling and in clean suits that knew where to get their inspiration. Listen to the newest dance craze abroad, add a bit of folklore and a spiceless Shadows-sauce and bingo!. Titles like "When the Cousins come twistin' in" and "The Limbo Rock" speak for themselves."

They also had the press behind them, as they were the first Belgian "rock-n-rollers" that made it abroad : Germany, Italy, France, Denmark, Zaire and Argentina (where they enjoyed the status of half-gods under the hispanized name "Los Primos".).

The game lasted till the end of 1966. More then 20 years later they would reform occasionally to perform on "Golden Oldies" and collect some Diamond Awards.
The Cousins - Best Of 60's (2000)


***************

The Cousins - Best Of 60's (2000)

The Cousins - Best Of 60's (2000)

Track List:

01. Kili Watch [2:39]
02. Peppermint Twist [3:02]
03. Do Re Mi [2:27]
04. Hey Mae [2:15]
05. Dang Gang [2:05]
06. Stodola [2:15]
07. When The Cousins Come Twistin'in [3:31]
08. Bouddah [2:19]
09. Limbo Rock [2:23]
10. Kana Kapila [2:04]
11. Midnight Sun Will Never Set [2:13]
12. New Orleans [2:42]
13. The House Of The Rising Sun [4:26]
14. Pep's [3:00]
15. Relax [2:09]
16. Toodeloo [2:21]

Exact Audio Copy V1.3 from 2. September 2016

EAC extraction logfile from 21. February 2018, 14:43

The Cousins / Best Of 60's

Used drive : PLEXTOR DVDR PX-L890SA Adapter: 1 ID: 1

Read mode : Secure
Utilize accurate stream : Yes
Defeat audio cache : Yes
Make use of C2 pointers : No

Read offset correction : 6
Overread into Lead-In and Lead-Out : No
Fill up missing offset samples with silence : Yes
Delete leading and trailing silent blocks : No
Null samples used in CRC calculations : Yes
Used interface : Native Win32 interface for Win NT & 2000

Used output format : User Defined Encoder
Selected bitrate : 1024 kBit/s
Quality : High
Add ID3 tag : No
Command line compressor : C:\Program Files (x86)\Exact Audio Copy\wavpack.exe
Additional command line options : -lm %source%


TOC of the extracted CD

Track | Start | Length | Start sector | End sector
––––––––––––––––––––––––––––-
1 | 0:00.33 | 2:38.42 | 33 | 11924
2 | 2:39.00 | 3:01.55 | 11925 | 25554
3 | 5:40.55 | 2:26.68 | 25555 | 36572
4 | 8:07.48 | 2:14.42 | 36573 | 46664
5 | 10:22.15 | 2:05.33 | 46665 | 56072
6 | 12:27.48 | 2:15.07 | 56073 | 66204
7 | 14:42.55 | 3:31.10 | 66205 | 82039
8 | 18:13.65 | 2:18.73 | 82040 | 92462
9 | 20:32.63 | 2:23.35 | 92463 | 103222
10 | 22:56.23 | 2:03.57 | 103223 | 112504
11 | 25:00.05 | 2:12.50 | 112505 | 122454
12 | 27:12.55 | 2:41.50 | 122455 | 134579
13 | 29:54.30 | 4:26.18 | 134580 | 154547
14 | 34:20.48 | 3:00.05 | 154548 | 168052
15 | 37:20.53 | 2:08.60 | 168053 | 177712
16 | 39:29.38 | 2:21.37 | 177713 | 188324


Range status and errors

Selected range

Filename D:\wwphil\The Cousins - Best Of 60's\The Cousins - Best Of 60's.wav

Peak level 99.6 %
Extraction speed 7.7 X
Range quality 100.0 %
Test CRC AF92F118
Copy CRC AF92F118
Copy OK

No errors occurred


AccurateRip summary

Track 1 accurately ripped (confidence 1) [94D15CCA] (AR v2)
Track 2 accurately ripped (confidence 1) [889093BE] (AR v2)
Track 3 accurately ripped (confidence 1) [5D9F99E6] (AR v2)
Track 4 accurately ripped (confidence 1) [540A8618] (AR v2)
Track 5 accurately ripped (confidence 1) [410A14AA] (AR v2)
Track 6 accurately ripped (confidence 1) [38589F89] (AR v2)
Track 7 accurately ripped (confidence 1) [8A255687] (AR v2)
Track 8 accurately ripped (confidence 1) [6CBF4FC3] (AR v2)
Track 9 accurately ripped (confidence 1) [9D5EE03C] (AR v2)
Track 10 accurately ripped (confidence 1) [11907375] (AR v2)
Track 11 accurately ripped (confidence 1) [AF84C382] (AR v2)
Track 12 accurately ripped (confidence 1) [FF75201F] (AR v2)
Track 13 accurately ripped (confidence 1) [C95976B3] (AR v2)
Track 14 accurately ripped (confidence 1) [9A6EE1D4] (AR v2)
Track 15 accurately ripped (confidence 1) [8F6C267E] (AR v2)
Track 16 accurately ripped (confidence 1) [4A3C4F30] (AR v2)

All tracks accurately ripped

End of status report

==== Log checksum E67DE01A0A02DD4E3D1FAE2DC61DB5923217F2053923A881FF293794FC2ED4EB ====

foobar2000 1.3.16 / Dynamic Range Meter 1.1.1
log date: 2018-02-21 17:01:48

––––––––––––––––––––––––––––––––––––––––
Analyzed: The Cousins / Best Of 60's
––––––––––––––––––––––––––––––––––––––––

DR Peak RMS Duration Track
––––––––––––––––––––––––––––––––––––––––
DR12 -0.14 dB -13.79 dB 2:39 01-Kili Watch
DR12 -0.15 dB -14.86 dB 3:02 02-Peppermint Twist
DR12 -1.17 dB -14.81 dB 2:27 03-Do Re Mi
DR13 -0.55 dB -17.30 dB 2:15 04-Hey Mae
DR14 -0.31 dB -16.36 dB 2:05 05-Dang Gang
DR13 -0.03 dB -15.49 dB 2:15 06-Stodola
DR13 -0.27 dB -15.76 dB 3:31 07-When The Cousins Come Twistin'in
DR12 -0.44 dB -14.89 dB 2:19 08-Bouddah
DR13 -0.26 dB -15.03 dB 2:23 09-Limbo Rock
DR11 -0.74 dB -13.16 dB 2:04 10-Kana Kapila
DR11 -2.40 dB -16.75 dB 2:13 11-Midnight Sun Will Never Set
DR11 -0.87 dB -14.04 dB 2:42 12-New Orleans
DR11 -0.38 dB -15.87 dB 4:26 13-The House Of The Rising Sun
DR12 -0.37 dB -16.15 dB 3:00 14-Pep's
DR11 -1.23 dB -14.24 dB 2:09 15-Relax
DR11 -0.35 dB -13.35 dB 2:21 16-Toodeloo
––––––––––––––––––––––––––––––––––––––––

Number of tracks: 16
Official DR value: DR12

Samplerate: 44100 Hz
Channels: 2
Bits per sample: 16
Bitrate: 813 kbps
Codec: WavPack
================================================================================

[CUETools log; Date: 21.02.2018 17:01:51; Version: 2.1.5]
Pregap length 00:00:33.
[CTDB TOCID: OCyAP8hQDmmr9h2Ar1c9ryxCROg-] found.
Track | CTDB Status
1 | (3/3) Accurately ripped
2 | (3/3) Accurately ripped
3 | (3/3) Accurately ripped
4 | (3/3) Accurately ripped
5 | (3/3) Accurately ripped
6 | (3/3) Accurately ripped
7 | (3/3) Accurately ripped
8 | (3/3) Accurately ripped
9 | (3/3) Accurately ripped
10 | (3/3) Accurately ripped
11 | (3/3) Accurately ripped
12 | (3/3) Accurately ripped
13 | (3/3) Accurately ripped
14 | (3/3) Accurately ripped
15 | (3/3) Accurately ripped
16 | (3/3) Accurately ripped
[AccurateRip ID: 001817b6-0121b6d6-d609cf10] found.
Track [ CRC | V2 ] Status
01 [6714aff7|94d15cca] (0+1/2) Accurately ripped
02 [051681c1|889093be] (0+1/2) Accurately ripped
03 [b644954c|5d9f99e6] (0+1/2) Accurately ripped
04 [f933a165|540a8618] (0+1/2) Accurately ripped
05 [413683a2|410a14aa] (0+1/2) Accurately ripped
06 [09bb0107|38589f89] (0+1/2) Accurately ripped
07 [fb5eaf52|8a255687] (0+1/2) Accurately ripped
08 [d9e70406|6cbf4fc3] (0+1/2) Accurately ripped
09 [1ad08930|9d5ee03c] (0+1/2) Accurately ripped
10 [5cbf5b4f|11907375] (0+1/2) Accurately ripped
11 [cee048c2|af84c382] (0+1/2) Accurately ripped
12 [77dbf5fe|ff75201f] (0+1/2) Accurately ripped
13 [82dfbc47|c95976b3] (0+1/2) Accurately ripped
14 [7306a9e7|9a6ee1d4] (0+1/2) Accurately ripped
15 [f34749a8|8f6c267e] (0+1/2) Accurately ripped
16 [241f3fc7|4a3c4f30] (0+1/2) Accurately ripped

Track Peak [ CRC32 ] [W/O NULL] [ LOG ]
– 99,6 [AF92F118] [1FB32C71] CRC32
01 98,4 [511C0D34] [5A2168D8]
02 98,2 [4F1E755D] [D4ED77C6]
03 87,3 [327B079D] [11E2A4E5]
04 93,8 [844874F7] [78F7B771]
05 96,4 [B8568552] [2DF08DC5]
06 99,6 [0AE813F1] [5B51A906]
07 96,9 [D6A50711] [8B6C78D1]
08 95,0 [758C7F2A] [65231C9B]
09 97,0 [75A2DE08] [C3DEE66F]
10 91,8 [7A8F5B5D] [3A957E33]
11 75,8 [E8666000] [22BA44B5]
12 90,4 [2B455553] [A28F927C]
13 95,6 [4810DA94] [46EE82B8]
14 95,8 [8532B5EC] [212A6D56]
15 86,8 [B1E7FE21] [F19F12AB]
16 96,0 [CE41225E] [450A68C0]

The Cousins - Best Of 60's (2000)

All thanks go to wwphil

>>> My Blog <<<

Download from icerbox.com: