Subcategories

The Doors - The Doors (1967) [2017, 3CD, Box Set]

Posted By: v3122
The Doors - The Doors (1967) [2017, 3CD, Box Set]

The Doors - The Doors (1967)
EAC | Flac(Image) + Cue + Log & MP3 CBR 320Kbps
3CD | Elektra/Rhino, 081227941208 | ~ 694 or 321 Mb | Scans(png) -> 322 Mb
Psychedelic Rock / Classic Rock

A tremendous debut album, and indeed one of the best first-time outings in rock history, introducing the band's fusion of rock, blues, classical, jazz, and poetry with a knock-out punch. The lean, spidery guitar and organ riffs interweave with a hypnotic menace, providing a seductive backdrop for Jim Morrison's captivating vocals and probing prose. "Light My Fire" was the cut that topped the charts and established the group as stars, but most of the rest of the album is just as impressive, including some of their best songs: the propulsive "Break on Through" (their first single), the beguiling Oriental mystery of "The Crystal Ship," the mysterious "End of the Night," "Take It as It Comes" (one of several tunes besides "Light My Fire" that also had hit potential), and the stomping rock of "Soul Kitchen" and "Twentieth Century Fox." The 11-minute Oedipal drama "The End" was the group at its most daring and, some would contend, overambitious. It was nonetheless a haunting cap to an album whose nonstop melodicism and dynamic tension would never be equaled by the group again, let alone bettered.

by Richie Unterberger, allmusic
The Doors - The Doors (1967) [2017, 3CD, Box Set]


The Doors - The Doors (1967) [2017, 3CD, Box Set]

The Doors - The Doors (1967):

The Doors - The Doors (1967) [2017, 3CD, Box Set]

Tracklist CD1 - Original Stereo Mix:

01 Break On Through (To The Other Side)
02 Soul Kitchen
03 The Crystal Ship
04 Twentieth Century Fox
05 Alabama Song (Whisky Bar)
06 Light My Fire
07 Back Door Man
08 I Looked At You
09 End Of The Night
10 Take It As It Comes
11 The End

Exact Audio Copy V1.1 from 23. June 2015

EAC extraction logfile from 4. May 2017, 8:30

The Doors / The Doors CD1 Album Stereo

Used drive : PLEXTOR BD-R PX-B950SA Adapter: 1 ID: 1

Read mode : Secure
Utilize accurate stream : Yes
Defeat audio cache : Yes
Make use of C2 pointers : No

Read offset correction : 6
Overread into Lead-In and Lead-Out : No
Fill up missing offset samples with silence : Yes
Delete leading and trailing silent blocks : No
Null samples used in CRC calculations : Yes
Used interface : Native Win32 interface for Win NT & 2000

Used output format : Internal WAV Routines
Sample format : 44.100 Hz; 16 Bit; Stereo


TOC of the extracted CD

Track | Start | Length | Start sector | End sector
––––––––––––––––––––––––––––-
1 | 0:00.00 | 2:29.30 | 0 | 11204
2 | 2:29.30 | 3:35.01 | 11205 | 27330
3 | 6:04.31 | 2:34.71 | 27331 | 38951
4 | 8:39.27 | 2:34.08 | 38952 | 50509
5 | 11:13.35 | 3:20.19 | 50510 | 65528
6 | 14:33.54 | 7:10.34 | 65529 | 97812
7 | 21:44.13 | 3:34.13 | 97813 | 113875
8 | 25:18.26 | 2:21.52 | 113876 | 124502
9 | 27:40.03 | 2:52.73 | 124503 | 137475
10 | 30:33.01 | 2:17.13 | 137476 | 147763
11 | 32:50.14 | 11:50.62 | 147764 | 201075


Range status and errors

Selected range

Filename C:\Users\Meijin\Desktop\ALLexxess\The Doors\1967 The Doors (3CD + LP Box Set Elektra Records 2017)\CD1\The Doors - The Doors CD1 Album Stereo.wav

Peak level 95.5 %
Extraction speed 6.9 X
Range quality 100.0 %
Test CRC D5051A9B
Copy CRC D5051A9B
Copy OK

No errors occurred


AccurateRip summary

Track 1 not present in database
Track 2 not present in database
Track 3 not present in database
Track 4 not present in database
Track 5 not present in database
Track 6 not present in database
Track 7 not present in database
Track 8 not present in database
Track 9 not present in database
Track 10 not present in database
Track 11 not present in database

None of the tracks are present in the AccurateRip database

End of status report

–– CUETools DB Plugin V2.1.6

[CTDB TOCID: OLsmdSa.WyaciHSONXqXq.GKrSQ-] found
Submit result: OLsmdSa.WyaciHSONXqXq.GKrSQ- has been confirmed
Track | CTDB Status
1 | (13/13) Accurately ripped
2 | (13/13) Accurately ripped
3 | (13/13) Accurately ripped
4 | (13/13) Accurately ripped
5 | (13/13) Accurately ripped
6 | (13/13) Accurately ripped
7 | (13/13) Accurately ripped
8 | (13/13) Accurately ripped
9 | (13/13) Accurately ripped
10 | (13/13) Accurately ripped
11 | (13/13) Accurately ripped


==== Log checksum 64F94A54518E3E159F4D73FBAF457B766526CDC92D47A5A6F60D9D152C9A3C53 ====

foobar2000 1.2.9 / Dynamic Range Meter 1.1.1
log date: 2017-05-05 16:30:11

––––––––––––––––––––––––––––––––––––––––
Analyzed: The Doors / The Doors CD1 Album Stereo
––––––––––––––––––––––––––––––––––––––––

DR Peak RMS Duration Track
––––––––––––––––––––––––––––––––––––––––
DR10 -1.67 dB -13.98 dB 2:29 01-Break On Through (To The Other Side)
DR11 -0.77 dB -15.48 dB 3:35 02-Soul Kitchen
DR11 -1.23 dB -15.47 dB 2:35 03-The Crystal Ship
DR11 -0.50 dB -13.79 dB 2:34 04-Twentieth Century Fox
DR11 -2.30 dB -15.92 dB 3:20 05-Alabama Song (Whisky Bar)
DR9 -2.31 dB -13.85 dB 7:10 06-Light My Fire
DR11 -0.40 dB -13.79 dB 3:34 07-Back Door Man
DR10 -1.50 dB -14.73 dB 2:22 08-I Looked At You
DR11 -3.24 dB -18.62 dB 2:53 09-End Of The Night
DR10 -1.21 dB -13.94 dB 2:17 10-Take It As It Comes
DR11 -1.93 dB -17.51 dB 11:51 11-The End
––––––––––––––––––––––––––––––––––––––––

Number of tracks: 11
Official DR value: DR10

Samplerate: 44100 Hz
Channels: 2
Bits per sample: 16
Bitrate: 785 kbps
Codec: FLAC

[CUETools log; Date: 05.05.2017 15:57:28; Version: 2.1.4]
[CTDB TOCID: OLsmdSa.WyaciHSONXqXq.GKrSQ-] found.
Track | CTDB Status
1 | (14/14) Accurately ripped
2 | (14/14) Accurately ripped
3 | (14/14) Accurately ripped
4 | (14/14) Accurately ripped
5 | (14/14) Accurately ripped
6 | (14/14) Accurately ripped
7 | (14/14) Accurately ripped
8 | (14/14) Accurately ripped
9 | (14/14) Accurately ripped
10 | (14/14) Accurately ripped
11 | (14/14) Accurately ripped
[AccurateRip ID: 000f80e3-0089dde6-8b0a790b] disk not present in database.

Track Peak [ CRC32 ] [W/O NULL] [ LOG ]
– 95,5 [D5051A9B] [C15F15F0] CRC32
01 82,4 [B7141A93] [6F524082]
02 91,5 [E7A00340] [9C0ACFE2]
03 86,8 [50830D58] [AC5CC1CF]
04 94,3 [2195BDDD] [565A3E79]
05 76,7 [99EE8C44] [0E81B490]
06 76,6 [6BDAC82E] [93D04F32]
07 95,5 [56F8F804] [853D999E]
08 84,1 [A7619E88] [3AC1B838]
09 68,8 [9815A371] [6B926F67]
10 86,9 [4FC3F5EC] [9EBB5F16]
11 80,0 [13F61C0A] [987B6833]

The Doors - The Doors (1967) [2017, 3CD, Box Set]

Tracklist CD2 - Original Mono Mix :

01 Break On Through (To The Other Side)
02 Soul Kitchen
03 The Crystal Ship
04 Twentieth Century Fox
05 Alabama Song (Whisky Bar)
06 Light My Fire
07 Back Door Man
08 I Looked At You
09 End Of The Night
10 Take It As It Comes
11 The End

Exact Audio Copy V1.1 from 23. June 2015

EAC extraction logfile from 4. May 2017, 8:05

The Doors / The Doors CD2 Album Mono

Used drive : PLEXTOR BD-R PX-B950SA Adapter: 1 ID: 1

Read mode : Secure
Utilize accurate stream : Yes
Defeat audio cache : Yes
Make use of C2 pointers : No

Read offset correction : 6
Overread into Lead-In and Lead-Out : No
Fill up missing offset samples with silence : Yes
Delete leading and trailing silent blocks : No
Null samples used in CRC calculations : Yes
Used interface : Native Win32 interface for Win NT & 2000

Used output format : Internal WAV Routines
Sample format : 44.100 Hz; 16 Bit; Stereo


TOC of the extracted CD

Track | Start | Length | Start sector | End sector
––––––––––––––––––––––––––––-
1 | 0:00.00 | 2:28.68 | 0 | 11167
2 | 2:28.68 | 3:34.39 | 11168 | 27256
3 | 6:03.32 | 2:34.02 | 27257 | 38808
4 | 8:37.34 | 2:33.18 | 38809 | 50301
5 | 11:10.52 | 3:21.07 | 50302 | 65383
6 | 14:31.59 | 7:00.51 | 65384 | 96934
7 | 21:32.35 | 3:34.72 | 96935 | 113056
8 | 25:07.32 | 2:23.39 | 113057 | 123820
9 | 27:30.71 | 2:54.33 | 123821 | 136903
10 | 30:25.29 | 2:17.45 | 136904 | 147223
11 | 32:42.74 | 11:46.13 | 147224 | 200186


Range status and errors

Selected range

Filename C:\Users\Meijin\Desktop\ALLexxess\The Doors\1967 The Doors (3CD + LP Box Set Elektra Records 2017)\CD2\The Doors - The Doors CD2 Album Mono.wav

Peak level 91.0 %
Extraction speed 6.9 X
Range quality 100.0 %
Test CRC 38CB168C
Copy CRC 38CB168C
Copy OK

No errors occurred


AccurateRip summary

Track 1 accurately ripped (confidence 1) [ECC5945D] (AR v2)
Track 2 accurately ripped (confidence 1) [6B39FEDE] (AR v2)
Track 3 accurately ripped (confidence 1) [1CC6DF64] (AR v2)
Track 4 accurately ripped (confidence 1) [1B45F260] (AR v2)
Track 5 accurately ripped (confidence 1) [3C07D00A] (AR v2)
Track 6 accurately ripped (confidence 1) [9A0DD86E] (AR v2)
Track 7 accurately ripped (confidence 1) [04F37335] (AR v2)
Track 8 accurately ripped (confidence 1) [8FDCBEE0] (AR v2)
Track 9 accurately ripped (confidence 1) [C8367B3A] (AR v2)
Track 10 accurately ripped (confidence 1) [DF5C1C59] (AR v2)
Track 11 accurately ripped (confidence 1) [0F50C3B6] (AR v2)

All tracks accurately ripped

End of status report

–– CUETools DB Plugin V2.1.6

[CTDB TOCID: o5e..3vjpzj_5bcEiJ7dMGKCaIA-] found
Submit result: o5e..3vjpzj_5bcEiJ7dMGKCaIA- has been confirmed
Track | CTDB Status
1 | (12/12) Accurately ripped
2 | (12/12) Accurately ripped
3 | (12/12) Accurately ripped
4 | (12/12) Accurately ripped
5 | (12/12) Accurately ripped
6 | (12/12) Accurately ripped
7 | (12/12) Accurately ripped
8 | (12/12) Accurately ripped
9 | (12/12) Accurately ripped
10 | (12/12) Accurately ripped
11 | (12/12) Accurately ripped


==== Log checksum 2806EF9761CCC78B8EBAA2FC2EAB05D1A9DB1337D04F624DEA64FC12C64FC806 ====

foobar2000 1.2.9 / Dynamic Range Meter 1.1.1
log date: 2017-05-05 16:29:58

––––––––––––––––––––––––––––––––––––––––
Analyzed: The Doors / The Doors CD2 Album Mono
––––––––––––––––––––––––––––––––––––––––

DR Peak RMS Duration Track
––––––––––––––––––––––––––––––––––––––––
DR10 -2.04 dB -15.28 dB 2:29 01-Break On Through (To The Other Side)
DR11 -2.90 dB -17.21 dB 3:35 02-Soul Kitchen
DR12 -2.40 dB -16.76 dB 2:34 03-The Crystal Ship
DR12 -1.95 dB -16.09 dB 2:33 04-Twentieth Century Fox
DR12 -1.88 dB -16.48 dB 3:21 05-Alabama Song (Whisky Bar)
DR10 -1.52 dB -13.98 dB 7:01 06-Light My Fire
DR11 -1.39 dB -16.04 dB 3:35 07-Back Door Man
DR11 -1.35 dB -15.09 dB 2:24 08-I Looked At You
DR13 -1.22 dB -19.30 dB 2:54 09-End Of The Night
DR11 -0.81 dB -15.09 dB 2:18 10-Take It As It Comes
DR13 -1.02 dB -18.83 dB 11:46 11-The End
––––––––––––––––––––––––––––––––––––––––

Number of tracks: 11
Official DR value: DR11

Samplerate: 44100 Hz
Channels: 2
Bits per sample: 16
Bitrate: 575 kbps
Codec: FLAC

[CUETools log; Date: 05.05.2017 15:59:15; Version: 2.1.4]
[CTDB TOCID: o5e..3vjpzj_5bcEiJ7dMGKCaIA-] found.
Track | CTDB Status
1 | (13/13) Accurately ripped
2 | (13/13) Accurately ripped
3 | (13/13) Accurately ripped
4 | (13/13) Accurately ripped
5 | (13/13) Accurately ripped
6 | (13/13) Accurately ripped
7 | (13/13) Accurately ripped
8 | (13/13) Accurately ripped
9 | (13/13) Accurately ripped
10 | (13/13) Accurately ripped
11 | (13/13) Accurately ripped
[AccurateRip ID: 000f6d68-00893240-990a6d0b] found.
Track [ CRC | V2 ] Status
01 [1183fb83|ecc5945d] (0+1/1) Accurately ripped
02 [8c83a124|6b39fede] (0+1/1) Accurately ripped
03 [49b66054|1cc6df64] (0+1/1) Accurately ripped
04 [3036da41|1b45f260] (0+1/1) Accurately ripped
05 [08f46a53|3c07d00a] (0+1/1) Accurately ripped
06 [712dd089|9a0dd86e] (0+1/1) Accurately ripped
07 [2e0c038d|04f37335] (0+1/1) Accurately ripped
08 [2c47dcdb|8fdcbee0] (0+1/1) Accurately ripped
09 [261ce214|c8367b3a] (0+1/1) Accurately ripped
10 [1da27a51|df5c1c59] (0+1/1) Accurately ripped
11 [f8601380|0f50c3b6] (0+1/1) Accurately ripped

Track Peak [ CRC32 ] [W/O NULL] [ LOG ]
– 91,0 [38CB168C] [395A4241] CRC32
01 79,0 [8A544033] [40A17872]
02 71,6 [46B99C4C] [2AF7FF34]
03 75,8 [4215AFB1] [62D24A6A]
04 79,8 [633E9B76] [C5E3953B]
05 80,5 [782C78BA] [49126CC8]
06 83,9 [78FADEDD] [B9783D17]
07 85,2 [ADA6CD34] [BD162B9A]
08 85,6 [65BA55B5] [B014F6BA]
09 86,8 [82B99E17] [91253D2B]
10 91,0 [B3EF451D] [20BD3C4B]
11 88,8 [99C7E206] [AF5EB0CF]

The Doors - The Doors (1967) [2017, 3CD, Box Set]

Tracklist CD3 - Live At The Matrix, March 7, 1967:

01 Break On Through (To The Other Side)
02 Soul Kitchen
03 The Crystal Ship
04 Twentieth Century Fox
05 Alabama Song (Whisky Bar)
06 Light My Fire
07 Back Door Man
08 The End

Exact Audio Copy V1.1 from 23. June 2015

EAC extraction logfile from 3. May 2017, 18:15

The Doors / The Doors CD3 Live At The Matrix

Used drive : PLEXTOR BD-R PX-B950SA Adapter: 1 ID: 1

Read mode : Secure
Utilize accurate stream : Yes
Defeat audio cache : Yes
Make use of C2 pointers : No

Read offset correction : 6
Overread into Lead-In and Lead-Out : No
Fill up missing offset samples with silence : Yes
Delete leading and trailing silent blocks : No
Null samples used in CRC calculations : Yes
Used interface : Native Win32 interface for Win NT & 2000

Used output format : Internal WAV Routines
Sample format : 44.100 Hz; 16 Bit; Stereo


TOC of the extracted CD

Track | Start | Length | Start sector | End sector
––––––––––––––––––––––––––––-
1 | 0:00.00 | 3:35.25 | 0 | 16149
2 | 3:35.25 | 4:05.41 | 16150 | 34565
3 | 7:40.66 | 3:07.24 | 34566 | 48614
4 | 10:48.15 | 2:54.17 | 48615 | 61681
5 | 13:42.32 | 4:03.09 | 61682 | 79915
6 | 17:45.41 | 8:51.72 | 79916 | 119812
7 | 26:37.38 | 5:44.46 | 119813 | 145658
8 | 32:22.09 | 14:14.48 | 145659 | 209756


Range status and errors

Selected range

Filename C:\Users\Meijin\Desktop\ALLexxess\The Doors\1967 The Doors (3CD + LP Box Set Elektra Records 2017)\CD3\The Doors - The Doors CD3 Live At The Matrix.wav

Peak level 100.0 %
Extraction speed 6.8 X
Range quality 99.9 %
Test CRC CD763008
Copy CRC CD763008
Copy OK

No errors occurred


AccurateRip summary

Track 1 not present in database
Track 2 not present in database
Track 3 not present in database
Track 4 not present in database
Track 5 not present in database
Track 6 not present in database
Track 7 not present in database
Track 8 not present in database

None of the tracks are present in the AccurateRip database

End of status report

–– CUETools DB Plugin V2.1.6

[CTDB TOCID: Kqr6iNwfOzRdg1eMkm6luJ6hHfw-] found
Submit result: Kqr6iNwfOzRdg1eMkm6luJ6hHfw- has been confirmed
Track | CTDB Status
1 | (10/10) Accurately ripped
2 | (10/10) Accurately ripped
3 | (10/10) Accurately ripped
4 | (10/10) Accurately ripped
5 | (10/10) Accurately ripped
6 | (10/10) Accurately ripped
7 | (10/10) Accurately ripped
8 | (10/10) Accurately ripped


==== Log checksum 2A1943A2849151C49C97F9CEA6F76CF0ACA91D56E209F0A48A9B79AF6600E0FD ====

foobar2000 1.2.9 / Dynamic Range Meter 1.1.1
log date: 2017-05-05 16:29:44

––––––––––––––––––––––––––––––––––––––––
Analyzed: The Doors / The Doors CD3 Live At The Matrix
––––––––––––––––––––––––––––––––––––––––

DR Peak RMS Duration Track
––––––––––––––––––––––––––––––––––––––––
DR10 0.00 dB -14.71 dB 3:35 01-Break On Through (To The Other Side)
DR11 0.00 dB -14.59 dB 4:06 02-Soul Kitchen
DR12 0.00 dB -17.95 dB 3:07 03-The Crystal Ship
DR11 -1.19 dB -16.61 dB 2:54 04-Twentieth Century Fox
DR11 -0.98 dB -18.81 dB 4:03 05-Alabama Song (Whiskey Bar)
DR11 0.00 dB -14.72 dB 8:52 06-Light My Fire
DR10 0.00 dB -13.92 dB 5:45 07-Back Door Man
DR12 0.00 dB -17.82 dB 14:15 08-The End
––––––––––––––––––––––––––––––––––––––––

Number of tracks: 8
Official DR value: DR11

Samplerate: 44100 Hz
Channels: 2
Bits per sample: 16
Bitrate: 714 kbps
Codec: FLAC

[CUETools log; Date: 05.05.2017 16:01:28; Version: 2.1.4]
[CTDB TOCID: Kqr6iNwfOzRdg1eMkm6luJ6hHfw-] found.
Track | CTDB Status
1 | (11/11) Accurately ripped
2 | (11/11) Accurately ripped
3 | (11/11) Accurately ripped
4 | (11/11) Accurately ripped
5 | (11/11) Accurately ripped
6 | (11/11) Accurately ripped
7 | (11/11) Accurately ripped
8 | (11/11) Accurately ripped
[AccurateRip ID: 000aed7e-004c72dd-690aec08] disk not present in database.

Track Peak [ CRC32 ] [W/O NULL] [ LOG ]
– 100,0 [CD763008] [5602C47C] CRC32
01 100,0 [E8D7B676] [DEBA4033]
02 100,0 [F28F2F50] [DB762306]
03 100,0 [363AA4D5] [8052CF50]
04 87,1 [71813D10] [63C8E71A]
05 89,3 [5F0E36F1] [57551DE4]
06 100,0 [E5717AF9] [6F758EC5]
07 100,0 [757B64A5] [2ED44CCA]
08 100,0 [D0896168] [6810EDD9]

The Doors - The Doors (1967) [2017, 3CD, Box Set]

All thanks go to ALLexxess

The Doors in my Blog

Download The Doors - The Doors (1967):