Subcategories
Tags
Language
Tags

The Doors: No One Here Gets Out Alive (2001)

Posted By: v3122
The Doors: No One Here Gets Out Alive (2001)

The Doors: No One Here Gets Out Alive (2001)
EAC | Flac(Image) + Cue + Log & M4A(Tracks) & MP3 CBR 320Kbps
4CD | Rhino, RHM2 7903 | ~ 989 or 975 or 439 Mb | Scans(jpg, 300dpi) -> 62 Mb
Psychedelic Rock / Classic Rock

Typically, rock bio programs for radio are little more than aural versions of Teen Beat, rarely delving beyond the surface appeal of a given artist. Los Angeles-based DJ Jim Ladd's aptly titled Inner View was the first nationally syndicated music and interview program to raise the intelligence bar several notches. Ladd's No One Here Gets Out Alive – originally broadcast on North American radio stations during the late summer of 1979 – is an audio biography of the Doors as told by those who lived it. This show marks the first time that John Densmore, Robbie Krieger, and Ray Manzarek spoke candidly regarding the band's origins and their even more colorful lyricist, Jim Morrison. Ladd's narration guides listeners through a profile that is as much sociological as it is historical or musical. This results in an engaging listen for new recruits as well as those familiar with the folklore surrounding the Doors and their craft. In addition to providing a more or less chronological history of the band, each disc examines a specific motif found within the Doors' music. The songs substantiate the revealing interview sound bites between Ladd, the surviving Doors, their band manager Bill Siddons, and concert promoter Bill "Uncle Bobo" Graham, as well as band confidant and author Danny Sugerman. There is no padding or filler on No One Here Gets Out Alive, making the three-hour running time seem infinitely shorter. There is a caveat regarding the source material for No One Here Gets Out Alive. This set was mastered from vinyl. While this in no way affects the sound quality or listenability, astute consumers will inevitably notice intermittent surface noise intrinsic to the playback medium.

by Lindsay Planer, AMG
The Doors: No One Here Gets Out Alive (2001):

The Doors: No One Here Gets Out Alive (2001)

Tracklist CD1 - Beginning Of The Doors: Visionary Dream:

1. Segment I: The end / Take it as it comes / Light my fire / Moonlight drive / Break on through (to the other side) / Strange days
2. Segment II: Who do you love (live) / When the music's over / My eyes have seen you
3. Segment III: Spanish caravan / We could be so good together / Roadhouse blues / When the music's over / Who do you love (live)
4. Segment IV: Dawn's highway / People are strange / I can't see your face / Celebration of the lizard-The hill dwellers (live) / Five to one / Celebration of the lizard-A little game (live) / Soul kitchen / Crystal ship

EAC extraction logfile from 9. December 2006, 20:01 for CD
Doors, The / No One Here Gets Out Alive (Disc 1)

Used drive : PIONEER DVD-RW DVR-109 Adapter: 0 ID: 0
Read mode : Secure with NO C2, accurate stream, disable cache
Read offset correction : 48
Overread into Lead-In and Lead-Out : No

Used output format : Internal WAV Routines
44.100 Hz; 16 Bit; Stereo

Other options :
Fill up missing offset samples with silence : Yes
Delete leading and trailing silent blocks : No
Installed external ASPI interface


Range status and errors
Selected range
Filename D:\New Folder (2)\Раздачи\Doors, The - No One Here Gets Out Alive (Disc 1).wav

Peak level 99.5 %
Range quality 100.0 %
CRC 4DF67283
Copy OK

No errors occured

End of status report

foobar2000 1.2.9 / Dynamic Range Meter 1.1.1
log date: 2014-02-22 17:51:08

––––––––––––––––––––––––––––––––––––––––
Analyzed: The Doors / No One Here Gets Out Alive (CD1 - Beginning Of The Doors: Visionary Dream)
––––––––––––––––––––––––––––––––––––––––

DR Peak RMS Duration Track
––––––––––––––––––––––––––––––––––––––––
DR15 -0.04 dB -17.42 dB 14:38 01-Segment 1: The end / Take it as it comes / Light my fire / Moonlight drive / Break on through (to the other side) / Strange days
DR14 -0.16 dB -17.66 dB 9:28 02-Segment 2: Who do you love (live) / When the music's over / My eyes have seen you
DR15 -0.21 dB -17.86 dB 8:16 03-Segment 3: Spanish caravan / We could be so good together / Roadhouse blues / When the music's over / Who do you love (live)
DR15 -0.50 dB -18.40 dB 14:39 04-Segment 4: Dawn's highway / People are strange / I can't see your face / Celebration of the lizard-The hill dwellers (live) / Five to one / Celebration of the lizard-A little game (live) / Soul kitchen / Crystal ship
––––––––––––––––––––––––––––––––––––––––

Number of tracks: 4
Official DR value: DR15

Samplerate: 44100 Hz
Channels: 2
Bits per sample: 16
Bitrate: 694 kbps
Codec: FLAC

The Doors: No One Here Gets Out Alive (2001)

Tracklist CD2 - Exploration And Morrison's Sojourn:

1. Segment I: Celebration of the lizard-Lions in the street (live) / Celebration of the lizard-Wake up (live) / Light my fire / The end
2. Segment II: Alabama song (whisky bar) / Not to touch the earth / The end / Strange days
3. Segment III: The American night / Roadhouse blues (live) / Celebration of the lizard-Wake up (live) / When the music's over (live) / back door man (live)
4. Segment IV: Tell all the people / Unknown soldier / Five to one / Ship of fools

EAC extraction logfile from 9. December 2006, 21:32 for CD
Doors, The / No One Here Gets Out Alive (Disc 2)

Used drive : PIONEER DVD-RW DVR-109 Adapter: 0 ID: 0
Read mode : Secure with NO C2, accurate stream, disable cache
Read offset correction : 48
Overread into Lead-In and Lead-Out : No

Used output format : Internal WAV Routines
44.100 Hz; 16 Bit; Stereo

Other options :
Fill up missing offset samples with silence : Yes
Delete leading and trailing silent blocks : No
Installed external ASPI interface


Range status and errors
Selected range
Filename D:\New Folder (2)\Раздачи\Doors, The - No One Here Gets Out Alive (Disc 2).wav

Peak level 98.8 %
Range quality 99.9 %
CRC CF5E7936
Copy OK

No errors occured

End of status report

foobar2000 1.2.9 / Dynamic Range Meter 1.1.1
log date: 2014-02-22 17:51:24

––––––––––––––––––––––––––––––––––––––––
Analyzed: The Doors / No One Here Gets Out Alive (CD2 - Exploration And Morrison's Sojourn)
––––––––––––––––––––––––––––––––––––––––

DR Peak RMS Duration Track
––––––––––––––––––––––––––––––––––––––––
DR14 -0.32 dB -18.03 dB 10:26 01-Segment 1: Celebration of the lizard-Lions in the street (live) / Celebration of the lizard-Wake up (live) / Light my fire / The end
DR14 -0.83 dB -17.84 dB 13:09 02-Segment 2: Alabama song (whisky bar) / Not to touch the earth / The end / Strange days
DR15 -0.18 dB -18.04 dB 15:15 03-Segment 3: The American night / Roadhouse blues (live) / Celebration of the lizard-Wake up (live) / When the music's over (live) / back door man (live)
DR14 -0.10 dB -17.44 dB 8:04 04-Segment 4: Tell all the people / Unknown soldier / Five to one / Ship of fools
––––––––––––––––––––––––––––––––––––––––

Number of tracks: 4
Official DR value: DR14

Samplerate: 44100 Hz
Channels: 2
Bits per sample: 16
Bitrate: 725 kbps
Codec: FLAC

The Doors: No One Here Gets Out Alive (2001)

Tracklist CD3 - Cultural Excursion Into The Void:

1. Segment I: Riders of the storm / Awake / Waiting for the sun / Dead cats, dead rats (live) / Break on through (to the other side) (live)
2. Segment II: Peace frog / Jim Morrison stage rant from Miami / Love me two times
3. Segment III: The end / Hour for magic / Been down so long / Stoned immaculate
4. Segment IV: When the music's over / Shaman's blues / The Changeling

EAC extraction logfile from 10. December 2006, 10:56 for CD
Doors, The / No One Here Gets Out Alive (Disc 3)

Used drive : PIONEER DVD-RW DVR-109 Adapter: 0 ID: 0
Read mode : Secure with NO C2, accurate stream, disable cache
Read offset correction : 48
Overread into Lead-In and Lead-Out : No

Used output format : Internal WAV Routines
44.100 Hz; 16 Bit; Stereo

Other options :
Fill up missing offset samples with silence : Yes
Delete leading and trailing silent blocks : No
Installed external ASPI interface


Range status and errors
Selected range
Filename D:\New Folder (2)\Раздачи\Doors, The - No One Here Gets Out Alive (Disc 3).wav

Peak level 98.6 %
Range quality 100.0 %
CRC 0C3EEA92
Copy OK

No errors occured

End of status report

foobar2000 1.2.9 / Dynamic Range Meter 1.1.1
log date: 2014-02-22 17:51:45

––––––––––––––––––––––––––––––––––––––––
Analyzed: The Doors / No One Here Gets Out Alive (CD3 - Cultural Excursion Into The Void)
––––––––––––––––––––––––––––––––––––––––

DR Peak RMS Duration Track
––––––––––––––––––––––––––––––––––––––––
DR15 -0.13 dB -17.23 dB 9:50 01-Segment 1: Cultural Excursion Into The Void
DR16 -0.12 dB -18.40 dB 13:39 02-Segment 2: Peace frog / Jim Morrison stage rant from Miami / Love me two times
DR15 -0.47 dB -18.22 dB 10:46 03-Segment 3: The end / Hour for magic / Been down so long / Stoned immaculate
DR15 -1.05 dB -17.52 dB 11:46 04-Segment 4: When the music's over / Shaman's blues / The Changeling
––––––––––––––––––––––––––––––––––––––––

Number of tracks: 4
Official DR value: DR15

Samplerate: 44100 Hz
Channels: 2
Bits per sample: 16
Bitrate: 719 kbps
Codec: FLAC

The Doors: No One Here Gets Out Alive (2001)

Tracklist CD4 - James Douglas Morrison: Poet:

1. Segment I: The end / When the music's over / Horse latitudes / Ghost song / Newborn awakening
2. Segment II: To come of age / Black polished chrome / Latino chrome / Angels and sailors / Stoned immaculate / The movie
3. Segment III: The movie / The hitchhiker / Riders of the storm / Jim Morrison: Cemetery poem
4. Segment IV: Jim Morrison: Hitler / Wild child / An American prayer / Curses, invocations / Hour for magic / A feast of friends / The end

EAC extraction logfile from 10. December 2006, 12:48 for CD
Doors, The / No One Here Gets Out Alive (Disc 4)

Used drive : PIONEER DVD-RW DVR-109 Adapter: 0 ID: 0
Read mode : Secure with NO C2, accurate stream, disable cache
Read offset correction : 48
Overread into Lead-In and Lead-Out : No

Used output format : Internal WAV Routines
44.100 Hz; 16 Bit; Stereo

Other options :
Fill up missing offset samples with silence : Yes
Delete leading and trailing silent blocks : No
Installed external ASPI interface


Range status and errors
Selected range
Filename D:\New Folder (2)\Раздачи\Doors, The - No One Here Gets Out Alive (Disc 4).wav

Peak level 98.3 %
Range quality 100.0 %
CRC F0D1D4FF
Copy OK

No errors occured

End of status report

foobar2000 1.2.9 / Dynamic Range Meter 1.1.1
log date: 2014-02-22 17:52:03

––––––––––––––––––––––––––––––––––––––––
Analyzed: The Doors / No One Here Gets Out Alive (CD4 - James Douglas Morrison: Poet)
––––––––––––––––––––––––––––––––––––––––

DR Peak RMS Duration Track
––––––––––––––––––––––––––––––––––––––––
DR15 -0.14 dB -17.27 dB 10:16 01-Segment 1: The end / When the music's over / Horse latitudes / Ghost song / Newborn awakening
DR15 -1.18 dB -19.31 dB 12:12 02-Segment 2: To come of age / Black polished chrome / Latino chrome / Angels and sailors / Stoned immaculate / The movie
DR17 -0.15 dB -19.89 dB 13:11 03-Segment 3: The movie / The hitchhiker / Riders of the storm / Jim Morrison: Cemetery poem
DR15 -0.43 dB -18.67 dB 11:08 04-Segment 4: Jim Morrison: Hitler / Wild child / An American prayer / Curses, invocations / Hour for magic / A feast of friends / The end
––––––––––––––––––––––––––––––––––––––––

Number of tracks: 4
Official DR value: DR15

Samplerate: 44100 Hz
Channels: 2
Bits per sample: 16
Bitrate: 642 kbps
Codec: FLAC

All thanks go to LAI671