Subcategories

The Doors - The Best Of The Doors (2000) [Remastered, 2CD] Repost

Posted By: Andi_Deris
The Doors - The Best Of The Doors (2000) [Remastered, 2CD] Repost

The Doors - The Best Of The Doors (2000) [Remastered] 2CD
EAC Rip | FLAC: Image+Cue+Log | 994 Mb | MP3 CBR 320 kbps | 372 Mb | Scans | Time: 01:17:53/01:11:41
Elektra (Germany) | 7559-62568-2
Psychedelic Rock, Acid Rock, Blues Rock, Classic Rock

The Best of The Doors is a compilation album by The Doors released in 2000, and is different from the albums of the same name released in 1973 and 1985. The double disc version of the compilation is notable for a remastered track from one of the two post-Morrison albums. The track "No Me Moleste Mosquito" appeared as "The Mosquito" on the 1972 album Full Circle. This was the second acknowledgement of the band's last two (and only post-Morrison) studio albums, since the appearance of "Tightrope Ride", taken from the album Other Voices (1971), on 1997's The Doors: Box Set.

The Doors - The Best Of The Doors (2000) [Remastered, 2CD] Repost




The Doors - The Best Of The Doors (2000) [Remastered, 2CD] Repost


Disc One

01. Light My Fire (07:08)
02. Hello, I Love You (02:15)
03. People Are Strange (02:12)
04. Love Me Two Times (03:16)
05. Touch Me (03:14)
06. Strange Days (03:08)
07. Spanish Caravan (02:59)
08. Moonlight Drive (03:02)
09. We Could Be So Good Together (02:24)
10. The Unknown Soldier (03:23)
11. Queen Of The Highway (02:50)
12. Shaman's Blues (04:50)
13. The WASP (Texas Radio) (04:15)
14. L.A. Woman (07:52)
15. Whiskeys, Mystics and Men (02:23)
16. Summer's Almost Gone (03:23)
17. You're Lost Little Girl (03:02)
18. When The Music's Over (11:01)
19. No Me Moleste Mosquito (05:18)

The Doors - The Best Of The Doors (2000) [Remastered, 2CD] Repost


Disc Two

01. Riders On The Storm (07:16)
02. Break On Through (02:29)
03. Roadhouse Blues (04:06)
04. Soul Kitchen (03:35)
05. Love Her Madly (03:19)
06. Alabama Song (03:19)
07. Peace Frog (02:53)
08. Waiting For The Sun (04:01)
09. Who Scared You (03:55)
10. The Crystal Ship (02:34)
11. Wishful Sinful (02:58)
12. Love Street (02:51)
13. Wintertime Love (01:54)
14. The Spy (04:17)
15. Back Door Man (03:35)
16. My Eyes Have Seen You (02:28)
17. Five To One (04:26)
18. The End (11:45)

Produced by Paul A. Rothchild, Bruce Botnick & The Doors
Newly Mastered by Bruce Botnick

Exact Audio Copy V0.99 prebeta 5 from 4. May 2009

EAC extraction logfile from 1. August 2010, 18:27

The Doors / The Best Of The Doors - CD 1

Used drive : ATAPI DVD A DH20A4P Adapter: 1 ID: 0

Read mode : Secure
Utilize accurate stream : Yes
Defeat audio cache : Yes
Make use of C2 pointers : No

Read offset correction : 6
Overread into Lead-In and Lead-Out : No
Fill up missing offset samples with silence : Yes
Delete leading and trailing silent blocks : No
Null samples used in CRC calculations : Yes
Used interface : Installed external ASPI interface

Used output format : User Defined Encoder
Selected bitrate : 1024 kBit/s
Quality : High
Add ID3 tag : No
Command line compressor : C:\Archivos de programa\WavPack\wavpack.exe
Additional command line options : -w "Artist=%a" -w "Title=%t" -w "Album=%g" -w "Year=%y" -w "Track=%n" -w "Genre=%m" -h %s %d


TOC of the extracted CD

Track | Start | Length | Start sector | End sector
––––––––––––––––––––––––––––-
1 | 0:00.00 | 7:07.50 | 0 | 32074
2 | 7:07.50 | 2:14.42 | 32075 | 42166
3 | 9:22.17 | 2:12.08 | 42167 | 52074
4 | 11:34.25 | 3:16.12 | 52075 | 66786
5 | 14:50.37 | 3:13.38 | 66787 | 81299
6 | 18:04.00 | 3:07.47 | 81300 | 95371
7 | 21:11.47 | 2:59.15 | 95372 | 108811
8 | 24:10.62 | 3:02.28 | 108812 | 122489
9 | 27:13.15 | 2:23.47 | 122490 | 133261
10 | 29:36.62 | 3:23.28 | 133262 | 148514
11 | 33:00.15 | 2:50.22 | 148515 | 161286
12 | 35:50.37 | 4:49.53 | 161287 | 183014
13 | 40:40.15 | 4:14.35 | 183015 | 202099
14 | 44:54.50 | 7:51.42 | 202100 | 237466
15 | 52:46.17 | 2:22.48 | 237467 | 248164
16 | 55:08.65 | 3:22.57 | 248165 | 263371
17 | 58:31.47 | 3:01.63 | 263372 | 277009
18 | 61:33.35 | 11:00.55 | 277010 | 326564
19 | 72:34.15 | 5:17.70 | 326565 | 350409


Range status and errors

Selected range

Filename E:\AvaxHome\The Doors - The Best Of The Doors - CD 1.wav

Peak level 98.8 %
Range quality 99.9 %
Test CRC F4A45448
Copy CRC F4A45448
Copy OK

No errors occurred


AccurateRip summary

Track 1 accurately ripped (confidence 64) [1F5EC16E]
Track 2 accurately ripped (confidence 65) [24CAF6CB]
Track 3 accurately ripped (confidence 65) [F869F32C]
Track 4 accurately ripped (confidence 65) [B03A2A13]
Track 5 accurately ripped (confidence 65) [268D7306]
Track 6 accurately ripped (confidence 64) [3EBCE91A]
Track 7 accurately ripped (confidence 65) [23D3259B]
Track 8 accurately ripped (confidence 66) [9B574544]
Track 9 accurately ripped (confidence 65) [6B7F97DC]
Track 10 accurately ripped (confidence 66) [103F7679]
Track 11 accurately ripped (confidence 64) [8DD4587E]
Track 12 accurately ripped (confidence 65) [E4EF9CC6]
Track 13 accurately ripped (confidence 64) [62B53B15]
Track 14 accurately ripped (confidence 63) [00BF9E6D]
Track 15 accurately ripped (confidence 64) [5381CA8A]
Track 16 accurately ripped (confidence 62) [D9B327C5]
Track 17 accurately ripped (confidence 64) [6AF8D1CB]
Track 18 accurately ripped (confidence 64) [402865EE]
Track 19 accurately ripped (confidence 62) [DB2306A6]

All tracks accurately ripped

End of status report

Exact Audio Copy V0.99 prebeta 5 from 4. May 2009

EAC extraction logfile from 1. August 2010, 19:32

The Doors / The Best Of The Doors - CD 2

Used drive : ATAPI DVD A DH20A4P Adapter: 1 ID: 0

Read mode : Secure
Utilize accurate stream : Yes
Defeat audio cache : Yes
Make use of C2 pointers : No

Read offset correction : 6
Overread into Lead-In and Lead-Out : No
Fill up missing offset samples with silence : Yes
Delete leading and trailing silent blocks : No
Null samples used in CRC calculations : Yes
Used interface : Installed external ASPI interface

Used output format : User Defined Encoder
Selected bitrate : 1024 kBit/s
Quality : High
Add ID3 tag : No
Command line compressor : C:\Archivos de programa\WavPack\wavpack.exe
Additional command line options : -w "Artist=%a" -w "Title=%t" -w "Album=%g" -w "Year=%y" -w "Track=%n" -w "Genre=%m" -h %s %d


TOC of the extracted CD

Track | Start | Length | Start sector | End sector
––––––––––––––––––––––––––––-
1 | 0:00.00 | 7:15.37 | 0 | 32661
2 | 7:15.37 | 2:28.35 | 32662 | 43796
3 | 9:43.72 | 4:05.70 | 43797 | 62241
4 | 13:49.67 | 3:35.25 | 62242 | 78391
5 | 17:25.17 | 3:19.18 | 78392 | 93334
6 | 20:44.35 | 3:18.47 | 93335 | 108231
7 | 24:03.07 | 2:52.48 | 108232 | 121179
8 | 26:55.55 | 4:01.15 | 121180 | 139269
9 | 30:56.70 | 3:54.65 | 139270 | 156884
10 | 34:51.60 | 2:34.15 | 156885 | 168449
11 | 37:26.00 | 2:58.05 | 168450 | 181804
12 | 40:24.05 | 2:51.25 | 181805 | 194654
13 | 43:15.30 | 1:53.45 | 194655 | 203174
14 | 45:09.00 | 4:16.42 | 203175 | 222416
15 | 49:25.42 | 3:34.40 | 222417 | 238506
16 | 53:00.07 | 2:28.30 | 238507 | 249636
17 | 55:28.37 | 4:26.10 | 249637 | 269596
18 | 59:54.47 | 11:44.63 | 269597 | 322459
19 | 74:11.35 | 3:46.61 | 333860 | 350870


Range status and errors

Selected range

Filename E:\AvaxHome\The Doors - The Best Of The Doors - CD 2.wav

Peak level 98.9 %
Range quality 100.0 %
Test CRC 7B7949D6
Copy CRC 7B7949D6
Copy OK

No errors occurred


AccurateRip summary

Track 1 accurately ripped (confidence 55) [28F803E9]
Track 2 accurately ripped (confidence 57) [342FE53A]
Track 3 accurately ripped (confidence 57) [59D8DD8E]
Track 4 accurately ripped (confidence 56) [E78330BC]
Track 5 accurately ripped (confidence 56) [234A5598]
Track 6 accurately ripped (confidence 57) [A637AB9A]
Track 7 accurately ripped (confidence 56) [5B0707E2]
Track 8 accurately ripped (confidence 57) [42DBC95F]
Track 9 accurately ripped (confidence 57) [B9D73AE4]
Track 10 accurately ripped (confidence 57) [194797C2]
Track 11 accurately ripped (confidence 57) [C943D9AC]
Track 12 accurately ripped (confidence 57) [5C3C05C8]
Track 13 accurately ripped (confidence 56) [1D6EF321]
Track 14 accurately ripped (confidence 57) [C1541879]
Track 15 accurately ripped (confidence 56) [B91E5774]
Track 16 accurately ripped (confidence 56) [BA641820]
Track 17 accurately ripped (confidence 55) [62205F72]
Track 18 accurately ripped (confidence 54) [AE2A6894]

All tracks accurately ripped

End of status report


Many thanks to the original uploader: gonzalo76