Subcategories

Eagles - The Very Best Of / Farewell Tour (2006) {2CD+DVD Set, Special Edition}

Posted By: popsakov
New Concepts on Abdominoplasty and Further Applications

Eagles - The Very Best Of / Farewell Tour (2006) {2CD+DVD Set, Special Edition}
EAC Rip | FLAC (Img) + Cue + Log ~ 992 Mb | MP3 CBR320 ~ 374 Mb
DVD9 | ISO | MPEG-2 Video, NTSC 720:480 (16:9), 29.970 fps, VBR ~ 3174 kb/s
Audio #1: DTS 5.1, 48.0 kHz/16 bits, 1510 kb/s; Audio #2: LPCM 2.0, 48.0 kHz/16 bits, 1536 kb/s | DD 2.0, 192 kb/s
01:39:02 + 00:11:13 | ~ 8,10 Gb | Scans Included (JPG, 300 dpi) | RAR 5% Recovery
Country Rock, Classic Rock | Not On Label (Eagles) | Unofficial Release

This special set includes two-disc compilation album The Very Best Of Eagles and DVD - Farewell 1 Tour: Live From Melbourne, released on one disc.

The Very Best Of (released as The Complete Greatest Hits in the UK, Australia, and New Zealand) is a two-disc compilation album by the Eagles, released in 2003. This album combines all tracks that appeared on the two previously released Eagles greatest hits albums (Their Greatest Hits (1971-1975) & Eagles Greatest Hits, Vol. 2), along with other singles not included on the first two compilations, album tracks and the new track "Hole in the World".

Farewell 1 Tour - Live from Melbourne is a double DVD by Eagles, released in 2005. It was filmed in Melbourne, Australia at the Rod Laver Arena on the 14, 15 and 17 of November 2004, in the same name tour, featuring two new songs. It is the second record featuring the Eagles as quartet (without Don Felder) but it did feature a horn section.
New Concepts on Abdominoplasty and Further Applications


***************

New Concepts on Abdominoplasty and Further Applications

Track List CD1:

01. Take It Easy [3:31]
02. Witchy Woman [4:11]
03. Peaceful Easy Feeling [4:16]
04. Desperado [3:33]
05. Tequila Sunrise [2:52]
06. Doolin-Dalton [3:27]
07. Already Gone [4:16]
08. The Best Of My Love [4:34]
09. James Dean [3:38]
10. Ol' 55 [4:22]
11. Midnight Flyer [3:58]
12. On The Border [4:23]
13. Lyin' Eyes [6:21]
14. One Of These Nights [4:50]
15. Take It To The Limit [4:47]
16. After The Thrill Is Gone [3:57]
17. Hotel California [6:30]

Exact Audio Copy V1.0 beta 3 from 29. August 2011

EAC extraction logfile from 9. May 2015, 21:03

The Eagles / The Complete Greatest Hits CD1

Used drive : PLEXTOR DVDR PX-860A Adapter: 4 ID: 0

Read mode : Secure
Utilize accurate stream : Yes
Defeat audio cache : Yes
Make use of C2 pointers : No

Read offset correction : 96
Overread into Lead-In and Lead-Out : No
Fill up missing offset samples with silence : Yes
Delete leading and trailing silent blocks : No
Null samples used in CRC calculations : Yes
Used interface : Installed external ASPI interface

Used output format : User Defined Encoder
Selected bitrate : 128 kBit/s
Quality : High
Add ID3 tag : Yes
Command line compressor : G:\Program Files (x86)\Exact Audio Copy\Flac\flac.exe
Additional command line options : -V -8 -T "Date=%year%" -T "Genre=%genre%" %source%


TOC of the extracted CD

Track | Start | Length | Start sector | End sector
––––––––––––––––––––––––––––-
1 | 0:00.00 | 3:30.51 | 0 | 15800
2 | 3:30.51 | 4:11.04 | 15801 | 34629
3 | 7:41.55 | 4:16.12 | 34630 | 53841
4 | 11:57.67 | 3:33.13 | 53842 | 69829
5 | 15:31.05 | 2:52.16 | 69830 | 82745
6 | 18:23.21 | 3:26.69 | 82746 | 98264
7 | 21:50.15 | 4:15.70 | 98265 | 117459
8 | 26:06.10 | 4:34.02 | 117460 | 138011
9 | 30:40.12 | 3:38.14 | 138012 | 154375
10 | 34:18.26 | 4:22.34 | 154376 | 174059
11 | 38:40.60 | 3:58.20 | 174060 | 191929
12 | 42:39.05 | 4:22.71 | 191930 | 211650
13 | 47:02.01 | 6:20.66 | 211651 | 240216
14 | 53:22.67 | 4:50.34 | 240217 | 262000
15 | 58:13.26 | 4:47.33 | 262001 | 283558
16 | 63:00.59 | 3:56.62 | 283559 | 301320
17 | 66:57.46 | 6:30.00 | 301321 | 330570


Range status and errors

Selected range

Filename D:\MUSIC\The Eagles - The Complete Greatest Hits CD1.wav

Peak level 99.8 %
Extraction speed 4.7 X
Range quality 99.9 %
Test CRC 086D0BBF
Copy CRC 086D0BBF
Copy OK

No errors occurred


AccurateRip summary

Track 1 accurately ripped (confidence 3) [4E27B75D] (AR v1)
Track 2 accurately ripped (confidence 3) [56D1DC3A] (AR v1)
Track 3 accurately ripped (confidence 3) [C9982160] (AR v1)
Track 4 accurately ripped (confidence 3) [5E429315] (AR v1)
Track 5 accurately ripped (confidence 3) [65770623] (AR v1)
Track 6 accurately ripped (confidence 3) [A7068C04] (AR v1)
Track 7 accurately ripped (confidence 3) [6E9C4958] (AR v1)
Track 8 accurately ripped (confidence 3) [DE5C9365] (AR v1)
Track 9 accurately ripped (confidence 3) [F7443DA7] (AR v1)
Track 10 accurately ripped (confidence 3) [13DE8A58] (AR v1)
Track 11 accurately ripped (confidence 3) [7C206657] (AR v1)
Track 12 accurately ripped (confidence 3) [E913F12A] (AR v1)
Track 13 accurately ripped (confidence 3) [8014AE8D] (AR v1)
Track 14 accurately ripped (confidence 3) [330ED751] (AR v1)
Track 15 accurately ripped (confidence 3) [9FE0F984] (AR v1)
Track 16 accurately ripped (confidence 3) [ED3289FE] (AR v1)
Track 17 accurately ripped (confidence 3) [B8004605] (AR v1)

All tracks accurately ripped

End of status report

==== Log checksum 3EB663C7F41663F2A7F3F02BA2D1FB5D26FA365DB9B160795025DAF42F00790E ====

foobar2000 1.3.16 / Dynamic Range Meter 1.1.1
log date: 2018-03-16 14:34:56

––––––––––––––––––––––––––––––––––––––––
Analyzed: The Eagles / The Complete Greatest Hits CD1
––––––––––––––––––––––––––––––––––––––––

DR Peak RMS Duration Track
––––––––––––––––––––––––––––––––––––––––
DR8 -0.01 dB -9.89 dB 3:31 01-Take It Easy
DR9 -0.01 dB -10.09 dB 4:11 02-Witchy Woman
DR10 -0.01 dB -11.31 dB 4:16 03-Peaceful Easy Feeling
DR9 -0.01 dB -12.46 dB 3:33 04-Desperado
DR10 -0.01 dB -11.91 dB 2:52 05-Tequila Sunrise
DR9 -0.01 dB -11.41 dB 3:27 06-Doolin-Dalton
DR7 -0.01 dB -9.09 dB 4:16 07-Already Gone
DR9 -0.01 dB -11.29 dB 4:34 08-The Best Of My Love
DR7 -0.01 dB -9.09 dB 3:38 09-James Dean
DR8 -0.30 dB -10.38 dB 4:22 10-Ol' 55
DR7 -0.01 dB -9.16 dB 3:58 11-Midnight Flyer
DR7 -0.01 dB -9.69 dB 4:23 12-On The Border
DR8 -0.01 dB -10.25 dB 6:21 13-Lyin' Eyes
DR9 -0.01 dB -10.72 dB 4:50 14-One Of These Nights
DR8 -0.01 dB -11.77 dB 4:47 15-Take It To The Limit
DR10 -0.01 dB -12.90 dB 3:57 16-After The Thrill Is Gone
DR9 -0.01 dB -10.91 dB 6:30 17-Hotel California
––––––––––––––––––––––––––––––––––––––––

Number of tracks: 17
Official DR value: DR8

Samplerate: 44100 Hz
Channels: 2
Bits per sample: 16
Bitrate: 913 kbps
Codec: FLAC
================================================================================

[CUETools log; Date: 16.03.2018 14:34:19; Version: 2.1.6]
[CTDB TOCID: 97P8oVvkWoiZjm8A9vk0lIw1Hxo-] found.
Track | CTDB Status
1 | (1824/1842) Accurately ripped
2 | (1835/1842) Accurately ripped
3 | (1817/1842) Accurately ripped, or (9/1842) differs in 840 samples @00:00:01-00:00:02
4 | (1825/1842) Accurately ripped, or (2/1842) differs in 6 samples @00:35:28
5 | (1812/1842) Accurately ripped, or (9/1842) differs in 714 samples @00:00:01-00:00:02
6 | (1828/1842) Accurately ripped
7 | (1824/1842) Accurately ripped
8 | (1825/1842) Accurately ripped
9 | (1833/1842) Accurately ripped
10 | (1833/1842) Accurately ripped
11 | (1819/1842) Accurately ripped
12 | (1823/1842) Accurately ripped
13 | (1817/1842) Accurately ripped
14 | (1823/1842) Accurately ripped
15 | (1818/1842) Accurately ripped
16 | (1804/1842) Accurately ripped
17 | (1767/1842) Accurately ripped, or (2/1842) differs in 879 samples @06:29:54-06:29:59, or (2/1842) differs in 53 samples @06:29:58-06:29:59, or (2/1842) differs in 55 samples @06:29:57-06:29:59
[AccurateRip ID: 002a1e50-021d6931-d4113711] found.
Track [ CRC | V2 ] Status
01 [4e27b75d|75162be9] (003+002/1474) Accurately ripped
02 [56d1dc3a|9f3f8df4] (003+002/1467) Accurately ripped
03 [c9982160|f7fde58e] (003+002/1469) Accurately ripped
04 [5e429315|8f6d79bf] (003+002/1465) Accurately ripped
05 [65770623|7cfe8e21] (003+002/1467) Accurately ripped
06 [a7068c04|1a9621a1] (003+002/1463) Accurately ripped
07 [6e9c4958|8544a926] (003+002/1463) Accurately ripped
08 [de5c9365|72d3207e] (003+002/1459) Accurately ripped
09 [f7443da7|3aba1dc9] (003+002/1460) Accurately ripped
10 [13de8a58|7f734675] (003+002/1462) Accurately ripped
11 [7c206657|f5e0a47f] (003+002/1455) Accurately ripped
12 [e913f12a|703517f2] (003+002/1453) Accurately ripped
13 [8014ae8d|4b3b7593] (003+002/1458) Accurately ripped
14 [330ed751|7dd747de] (003+002/1460) Accurately ripped
15 [9fe0f984|8c100ba1] (003+002/1452) Accurately ripped
16 [ed3289fe|082e3beb] (003+002/1449) Accurately ripped
17 [b8004605|0d687256] (003+002/1436) Accurately ripped
Offsetted by -380:
01 [0c3af9c5] (002/1474) Accurately ripped
02 [352d3300] (002/1467) Accurately ripped
03 [e96c34fe] (002/1469) Accurately ripped
04 [791e30dd] (003/1465) Accurately ripped
05 [5f5f71f3] (003/1467) Accurately ripped
06 [998e5eb4] (003/1463) Accurately ripped
07 [c1519438] (003/1463) Accurately ripped
08 [6edc30c1] (003/1459) Accurately ripped
09 [de33dc47] (003/1460) Accurately ripped
10 [e5264d2a] (003/1462) Accurately ripped
11 [b0785649] (003/1455) Accurately ripped
12 [8646ed36] (003/1453) Accurately ripped
13 [61836df5] (003/1458) Accurately ripped
14 [20efdd7d] (003/1460) Accurately ripped
15 [a701c5b0] (003/1452) Accurately ripped
16 [e03b73ba] (003/1449) Accurately ripped
17 [d7dee4d5] (003/1436) Accurately ripped
Offsetted by -41:
01 [b78c26f3] (006/1474) Accurately ripped
02 [8e1ac95a] (006/1467) Accurately ripped
03 [e8b2e31e] (006/1469) Accurately ripped
04 [bda6facc] (006/1465) Accurately ripped
05 [da0a2d4a] (006/1467) Accurately ripped
06 [71b2d7f8] (006/1463) Accurately ripped
07 [acc15ce0] (006/1463) Accurately ripped
08 [d65f90d6] (006/1459) Accurately ripped
09 [7741ccbf] (006/1460) Accurately ripped
10 [d6f7d541] (006/1462) Accurately ripped
11 [307f1699] (006/1455) Accurately ripped
12 [46d6bf8f] (006/1453) Accurately ripped
13 [f359e4e3] (006/1458) Accurately ripped
14 [4ebeb2ee] (006/1460) Accurately ripped
15 [c0fc17a1] (006/1452) Accurately ripped
16 [2e7e4797] (006/1449) Accurately ripped
17 [9dcc2ab1] (006/1436) Accurately ripped
Offsetted by 6:
01 [d495e579] (039/1474) Accurately ripped
02 [7bb5b494] (039/1467) Accurately ripped
03 [bee01dfe] (039/1469) Accurately ripped
04 [d06af98c] (039/1465) Accurately ripped
05 [03541348] (039/1467) Accurately ripped
06 [a895eb0c] (038/1463) Accurately ripped
07 [cfa997a8] (039/1463) Accurately ripped
08 [0b3ceb2f] (039/1459) Accurately ripped
09 [bf12a597] (039/1460) Accurately ripped
10 [acaa5982] (038/1462) Accurately ripped
11 [80f4cfab] (038/1455) Accurately ripped
12 [19cbb9fc] (038/1453) Accurately ripped
13 [c6a06829] (039/1458) Accurately ripped
14 [c4dc2153] (039/1460) Accurately ripped
15 [f8b14c86] (039/1452) Accurately ripped
16 [34d00a58] (038/1449) Accurately ripped
17 [25fb693d] (038/1436) Accurately ripped
Offsetted by 12:
01 [5b041395] (048/1474) Accurately ripped
02 [91157cca] (048/1467) Accurately ripped
03 [b4311a9c] (047/1469) Accurately ripped
04 [cab1d296] (047/1465) Accurately ripped
05 [a142204a] (047/1467) Accurately ripped
06 [aa254a14] (047/1463) Accurately ripped
07 [30b6e5f8] (048/1463) Accurately ripped
08 [381d42f9] (047/1459) Accurately ripped
09 [86e10d87] (047/1460) Accurately ripped
10 [dfbbf14a] (047/1462) Accurately ripped
11 [85d23901] (047/1455) Accurately ripped
12 [4a8382ce] (047/1453) Accurately ripped
13 [0d2c21c5] (048/1458) Accurately ripped
14 [56a96b55] (047/1460) Accurately ripped
15 [51819f88] (046/1452) Accurately ripped
16 [7c6d8ab2] (045/1449) Accurately ripped
17 [93f68c75] (045/1436) Accurately ripped
Offsetted by 18:
01 [e17241b1] (004/1474) Accurately ripped
02 [b5e65526] (005/1467) Accurately ripped
03 [a98c1738] (005/1469) Accurately ripped
04 [389f9092] (005/1465) Accurately ripped
05 [3f182d3a] (005/1467) Accurately ripped
06 [abb4a91c] (005/1463) Accurately ripped
07 [91c43448] (005/1463) Accurately ripped
08 [64fd9ac3] (005/1459) Accurately ripped
09 [4eaf7577] (005/1460) Accurately ripped
10 [dc1a24c4] (005/1462) Accurately ripped
11 [8ab3a255] (005/1455) Accurately ripped
12 [7b3b4ba0] (005/1453) Accurately ripped
13 [53b7db61] (005/1458) Accurately ripped
14 [e876b557] (006/1460) Accurately ripped
15 [aa51f28a] (005/1452) Accurately ripped
16 [c40b0b0c] (006/1449) Accurately ripped
17 [01f1afad] (006/1436) Accurately ripped
Offsetted by 30:
01 [ee4e9de9] (014/1474) Accurately ripped
02 [e11dd57a] (014/1467) Accurately ripped
03 [945f1068] (014/1469) Accurately ripped
04 [afab4e84] (014/1465) Accurately ripped
05 [7aec4740] (014/1467) Accurately ripped
06 [aed3672c] (014/1463) Accurately ripped
07 [53ded0e8] (014/1463) Accurately ripped
08 [bebe4a57] (014/1459) Accurately ripped
09 [de4c4557] (014/1460) Accurately ripped
10 [d4d68bb8] (014/1462) Accurately ripped
11 [947674fd] (014/1455) Accurately ripped
12 [dcaadd44] (014/1453) Accurately ripped
13 [e0cf4e99] (014/1458) Accurately ripped
14 [0c11495b] (014/1460) Accurately ripped
15 [5bf2988e] (014/1452) Accurately ripped
16 [53460bc0] (014/1449) Accurately ripped
17 [dde7f61d] (014/1436) Accurately ripped
Offsetted by 141:
01 [a544f2ef] (003/1474) Accurately ripped
02 [b405e091] (003/1467) Accurately ripped
03 [5440cfe7] (003/1469) Accurately ripped
04 [d7dac528] (003/1465) Accurately ripped
05 [e870bb1a] (003/1467) Accurately ripped
06 [4bafc540] (003/1463) Accurately ripped
07 [d754f9b0] (003/1463) Accurately ripped
08 [7cf4a270] (003/1459) Accurately ripped
09 [ceb6c82f] (003/1460) Accurately ripped
10 [35ba0ccd] (003/1462) Accurately ripped
11 [6f6a916b] (003/1455) Accurately ripped
12 [61f2e071] (003/1453) Accurately ripped
13 [f9e8385f] (003/1458) Accurately ripped
14 [95672280] (003/1460) Accurately ripped
15 [47009833] (003/1452) Accurately ripped
16 [0027d241] (003/1449) Accurately ripped
17 [508e01a9] (003/1436) Accurately ripped
Offsetted by 142:
01 [bbaca549] (005/1474) Accurately ripped
02 [0212574e] (005/1467) Accurately ripped
03 [27e479f8] (004/1469) Accurately ripped
04 [10f4280d] (005/1465) Accurately ripped
05 [ad873d47] (005/1467) Accurately ripped
06 [2147aa6c] (005/1463) Accurately ripped
07 [bcd73168] (005/1463) Accurately ripped
08 [af1a0667] (005/1459) Accurately ripped
09 [c5592ed7] (005/1460) Accurately ripped
10 [dfc3c00e] (006/1462) Accurately ripped
11 [459622f7] (005/1455) Accurately ripped
12 [14bc2c94] (005/1453) Accurately ripped
13 [5aff81f9] (005/1458) Accurately ripped
14 [adb4042b] (005/1460) Accurately ripped
15 [d5cdfb5e] (004/1452) Accurately ripped
16 [36c21250] (005/1449) Accurately ripped
17 [3837dcdd] (005/1436) Accurately ripped
Offsetted by 480:
01 [5096201d] (006/1474) Accurately ripped
02 [9a3fba43] (004/1467) Accurately ripped
03 [bf2afa83] (004/1469) Accurately ripped
04 [510c2e78] (004/1465) Accurately ripped
05 [0ed9f4c0] (004/1467) Accurately ripped
06 [23d43e84] (004/1463) Accurately ripped
07 [c2c4c258] (004/1463) Accurately ripped
08 [e4780285] (004/1459) Accurately ripped
09 [67c4b8a7] (004/1460) Accurately ripped
10 [6561d11c] (004/1462) Accurately ripped
11 [100c4ce3] (004/1455) Accurately ripped
12 [2282b2ca] (004/1453) Accurately ripped
13 [8bbeaf4d] (004/1458) Accurately ripped
14 [c335f7f1] (004/1460) Accurately ripped
15 [60faea24] (004/1452) Accurately ripped
16 [4e6aa61e] (004/1449) Accurately ripped
17 [167b4785] (004/1436) Accurately ripped
Offsetted by 578:
01 [e4486691] (011/1474) Accurately ripped
02 [9e83b4bc] (011/1467) Accurately ripped
03 [e28b0462] (011/1469) Accurately ripped
04 [6c7b9dcb] (011/1465) Accurately ripped
05 [96d3acf1] (011/1467) Accurately ripped
06 [e7f9f95c] (011/1463) Accurately ripped
07 [9e9e16c8] (011/1463) Accurately ripped
08 [16c84713] (011/1459) Accurately ripped
09 [d1f004f7] (011/1460) Accurately ripped
10 [7b2e7060] (011/1462) Accurately ripped
11 [0ea40419] (011/1455) Accurately ripped
12 [9391d830] (011/1453) Accurately ripped
13 [b6a8dc41] (011/1458) Accurately ripped
14 [10a45b67] (011/1460) Accurately ripped
15 [0b9ae09a] (011/1452) Accurately ripped
16 [35772bdc] (011/1449) Accurately ripped
17 [c581316d] (009/1436) Accurately ripped
Offsetted by 665:
01 [81860327] (013/1474) Accurately ripped
02 [19a480b6] (013/1467) Accurately ripped
03 [ed62b39e] (012/1469) Accurately ripped
04 [4e651384] (012/1465) Accurately ripped
05 [aa5cc916] (012/1467) Accurately ripped
06 [7e98db50] (013/1463) Accurately ripped
07 [9ddf0650] (013/1463) Accurately ripped
08 [217d4004] (013/1459) Accurately ripped
09 [a320e80f] (013/1460) Accurately ripped
10 [42c75bce] (013/1462) Accurately ripped
11 [d9257a56] (013/1455) Accurately ripped
12 [55fab815] (012/1453) Accurately ripped
13 [b592df97] (013/1458) Accurately ripped
14 [52c50c84] (013/1460) Accurately ripped
15 [93679437] (013/1452) Accurately ripped
16 [c3e2f0f5] (013/1449) Accurately ripped
17 [803ab019] (013/1436) Accurately ripped
Offsetted by 670:
01 [f18c7ee9] (189/1474) Accurately ripped
02 [de01e485] (189/1467) Accurately ripped
03 [115d03f9] (187/1469) Accurately ripped
04 [d8dae30d] (189/1465) Accurately ripped
05 [855a51d7] (187/1467) Accurately ripped
06 [aa90552c] (186/1463) Accurately ripped
07 [196a1ce8] (188/1463) Accurately ripped
08 [1c3833d7] (187/1459) Accurately ripped
09 [744ce957] (186/1460) Accurately ripped
10 [94dedc18] (187/1462) Accurately ripped
11 [0818520d] (187/1455) Accurately ripped
12 [d3e934c4] (185/1453) Accurately ripped
13 [9b074f99] (188/1458) Accurately ripped
14 [cc4574db] (186/1460) Accurately ripped
15 [5d6a840e] (185/1452) Accurately ripped
16 [d4e63140] (184/1449) Accurately ripped
17 [068bf81d] (179/1436) Accurately ripped
Offsetted by 676:
01 [77faad05] (200/1474) Accurately ripped
02 [0effdfc7] (200/1467) Accurately ripped
03 [095cfdf7] (200/1469) Accurately ripped
04 [9c1615f1] (200/1465) Accurately ripped
05 [25c25c4f] (200/1467) Accurately ripped
06 [ac1fb434] (200/1463) Accurately ripped
07 [7a776b38] (200/1463) Accurately ripped
08 [49188ba1] (200/1459) Accurately ripped
09 [3c1b5147] (200/1460) Accurately ripped
10 [90fb0fa4] (200/1462) Accurately ripped
11 [0d3bbb4f] (200/1455) Accurately ripped
12 [04a0fd96] (200/1453) Accurately ripped
13 [e1930935] (200/1458) Accurately ripped
14 [5e12bedd] (200/1460) Accurately ripped
15 [b63ad710] (200/1452) Accurately ripped
16 [1c83b19a] (200/1449) Accurately ripped
17 [74871b55] (200/1436) Accurately ripped
Offsetted by 811:
01 [48a9ba7b] (002/1474) Accurately ripped
02 [7c541203] (002/1467) Accurately ripped
03 [d85f6d91] (002/1469) Accurately ripped
04 [e6e82f4e] (002/1465) Accurately ripped
05 [44ccbfb0] (002/1467) Accurately ripped
06 [4f398e68] (002/1463) Accurately ripped
07 [8222cd40] (002/1463) Accurately ripped
08 [bad042e2] (002/1459) Accurately ripped
09 [4bbf73df] (002/1460) Accurately ripped
10 [39759772] (002/1462) Accurately ripped
11 [00d87b9c] (002/1455) Accurately ripped
12 [4cc8240b] (002/1453) Accurately ripped
13 [14dad96b] (002/1458) Accurately ripped
14 [2e9dc00a] (002/1460) Accurately ripped
15 [048a22bd] (002/1452) Accurately ripped
16 [e7db7983] (002/1449) Accurately ripped
17 [9f19b3c1] (002/1436) Accurately ripped
Offsetted by 817:
01 [cf17e897] (156/1474) Accurately ripped
02 [9d7dfe12] (153/1467) Accurately ripped
03 [d0b8669e] (154/1469) Accurately ripped
04 [35fe7e0b] (155/1465) Accurately ripped
05 [e5cac96f] (154/1467) Accurately ripped
06 [50c8ed70] (156/1463) Accurately ripped
07 [e3301b90] (156/1463) Accurately ripped
08 [e7b09aac] (154/1459) Accurately ripped
09 [138ddbcf] (154/1460) Accurately ripped
10 [3591cafe] (156/1462) Accurately ripped
11 [05fbe4de] (150/1455) Accurately ripped
12 [7d7fecdd] (152/1453) Accurately ripped
13 [5b669307] (152/1458) Accurately ripped
14 [c06b0a0c] (153/1460) Accurately ripped
15 [5d5a75bf] (151/1452) Accurately ripped
16 [2f78f9dd] (154/1449) Accurately ripped
17 [0d14d6f9] (145/1436) Accurately ripped
Offsetted by -46:
01 [4785ab31] (000/1474) No match (V2 was not tested)
02 [c76367be] (000/1467) No match (V2 was not tested)
03 [c7129090] (000/1469) No match (V2 was not tested)
04 [acd1c763] (000/1465) No match
05 [0162a1d9] (000/1467) No match
06 [45bb5e1c] (000/1463) No match
07 [31364648] (000/1463) No match
08 [dba49d03] (000/1459) No match
09 [a615cb77] (000/1460) No match
10 [849a5506] (000/1462) No match
11 [01d23ed3] (000/1455) No match
12 [c8e842e0] (000/1453) No match
13 [0de574e1] (000/1458) No match
14 [d53e4a97] (000/1460) No match
15 [f6f927ca] (000/1452) No match
16 [1d7b074c] (000/1449) No match
17 [177ae2ad] (000/1436) No match
Offsetted by 9:
01 [17ccfc87] (000/1474) No match (V2 was not tested)
02 [866718af] (000/1467) No match (V2 was not tested)
03 [39871c4d] (000/1469) No match (V2 was not tested)
04 [78a5739d] (000/1465) No match (V2 was not tested)
05 [524c99cd] (000/1467) No match (V2 was not tested)
06 [295d9a90] (000/1463) No match (V2 was not tested)
07 [80303ed0] (000/1463) No match (V2 was not tested)
08 [a1ad1714] (000/1459) No match (V2 was not tested)
09 [a2f9d98f] (000/1460) No match (V2 was not tested)
10 [e18cd78d] (000/1462) No match (V2 was not tested)
11 [03618457] (000/1455) No match (V2 was not tested)
12 [32279e65] (000/1453) No match (V2 was not tested)
13 [e9e644f7] (000/1458) No match (V2 was not tested)
14 [0dc2c654] (000/1460) No match (V2 was not tested)
15 [a5197607] (000/1452) No match (V2 was not tested)
16 [d89eca85] (000/1449) No match (V2 was not tested)
17 [dcf8fad9] (000/1436) No match (V2 was not tested)
Offsetted by 88:
01 [01cd064d] (000/1474) No match
02 [d916db19] (000/1467) No match
03 [844b99bd] (000/1469) No match
04 [fa49892d] (000/1465) No match
05 [1c3ac91b] (000/1467) No match
06 [133d5324] (000/1463) No match
07 [535f7098] (000/1463) No match
08 [1b36f04d] (000/1459) No match
09 [bf178767] (000/1460) No match
10 [f81c2800] (000/1462) No match
11 [18f26f27] (000/1455) No match
12 [5e461d32] (000/1453) No match
13 [e015fb7d] (000/1458) No match
14 [8d7c6a19] (000/1460) No match
15 [b67b104c] (000/1452) No match
16 [b2388f26] (000/1449) No match
17 [5a639fe5] (000/1436) No match (V2 was not tested)
Offsetted by 211:
01 [c59fb78b] (000/1474) No match (V2 was not tested)
02 [bf22a9c5] (000/1467) No match (V2 was not tested)
03 [344c4fbb] (000/1469) No match (V2 was not tested)
04 [7aa8ab18] (000/1465) No match (V2 was not tested)
05 [cf795476] (000/1467) No match (V2 was not tested)
06 [b3386f48] (000/1463) No match (V2 was not tested)
07 [98f03600] (000/1463) No match (V2 was not tested)
08 [332df7fa] (000/1459) No match (V2 was not tested)
09 [3f1eda1f] (000/1460) No match (V2 was not tested)
10 [eb7e1091] (000/1462) No match (V2 was not tested)
11 [ff975db5] (000/1455) No match (V2 was not tested)
12 [44fdb203] (000/1453) No match (V2 was not tested)
13 [8646587b] (000/1458) No match (V2 was not tested)
14 [3a6cd742] (000/1460) No match (V2 was not tested)
15 [5329b5f5] (000/1452) No match (V2 was not tested)
16 [ee55565b] (000/1449) No match (V2 was not tested)
17 [a8fff1e1] (000/1436) No match (V2 was not tested)
Offsetted by 534:
01 [0a75bf19] (000/1474) No match (V2 was not tested)
02 [c9a2102b] (000/1467) No match (V2 was not tested)
03 [7410d2df] (000/1469) No match (V2 was not tested)
04 [beecb3e6] (000/1465) No match (V2 was not tested)
05 [ac795b5e] (000/1467) No match (V2 was not tested)
06 [31de95cc] (000/1463) No match (V2 was not tested)
07 [2c3c8328] (000/1463) No match (V2 was not tested)
08 [785b189f] (000/1459) No match (V2 was not tested)
09 [6e066017] (000/1460) No match (V2 was not tested)
10 [425fa108] (000/1462) No match (V2 was not tested)
11 [3e4b0035] (000/1455) No match (V2 was not tested)
12 [d8f8c22c] (000/1453) No match (V2 was not tested)
13 [06a835c9] (000/1458) No match (V2 was not tested)
14 [e36d9203] (000/1460) No match (V2 was not tested)
15 [804dd536] (000/1452) No match (V2 was not tested)
16 [d2f42948] (000/1449) No match (V2 was not tested)
17 [f44f847d] (000/1436) No match (V2 was not tested)
Offsetted by 550:
01 [70f0e4b9] (000/1474) No match (V2 was not tested)
02 [8342dfe0] (000/1467) No match (V2 was not tested)
03 [b37470e2] (000/1469) No match (V2 was not tested)
04 [98fcf666] (000/1465) No match (V2 was not tested)
05 [0182793e] (000/1467) No match (V2 was not tested)
06 [8b5ce88c] (000/1463) No match (V2 was not tested)
07 [845ffea8] (000/1463) No match (V2 was not tested)
08 [9ab1580f] (000/1459) No match (V2 was not tested)
09 [d82cca97] (000/1460) No match (V2 was not tested)
10 [e2aad528] (000/1462) No match (V2 was not tested)
11 [a15418e5] (000/1455) No match (V2 was not tested)
12 [058d845c] (000/1453) No match (V2 was not tested)
13 [181ccf69] (000/1458) No match (V2 was not tested)
14 [683bacb3] (000/1460) No match (V2 was not tested)
15 [6d2407e6] (000/1452) No match (V2 was not tested)
16 [3c982a38] (000/1449) No match (V2 was not tested)
17 [6eed37bd] (000/1436) No match (V2 was not tested)
Offsetted by 556:
01 [f75f12d5] (000/1474) No match (V2 was not tested)
02 [b475d9f9] (000/1467) No match (V2 was not tested)
03 [ab3f6c09] (000/1469) No match (V2 was not tested)
04 [5c1eb62d] (000/1465) No match (V2 was not tested)
05 [a1748463] (000/1467) No match (V2 was not tested)
06 [8cec4794] (000/1463) No match (V2 was not tested)
07 [e56d4cf8] (000/1463) No match (V2 was not tested)
08 [c791afd9] (000/1459) No match (V2 was not tested)
09 [9ffb3287] (000/1460) No match (V2 was not tested)
10 [dec708b4] (000/1462) No match (V2 was not tested)
11 [a6778227] (000/1455) No match (V2 was not tested)
12 [36454d2e] (000/1453) No match (V2 was not tested)
13 [5ea88905] (000/1458) No match (V2 was not tested)
14 [fa08f6b5] (000/1460) No match (V2 was not tested)
15 [c5f45ae8] (000/1452) No match (V2 was not tested)
16 [8435aa92] (000/1449) No match (V2 was not tested)
17 [dce85af5] (000/1436) No match (V2 was not tested)
Offsetted by 658:
01 [e4b022b1] (000/1474) No match (V2 was not tested)
02 [8b72fe4d] (000/1467) No match (V2 was not tested)
03 [216b0fd5] (000/1469) No match (V2 was not tested)
04 [52e2efd0] (000/1465) No match (V2 was not tested)
05 [449b3ccc] (000/1467) No match (V2 was not tested)
06 [a771971c] (000/1463) No match (V2 was not tested)
07 [574f8048] (000/1463) No match (V2 was not tested)
08 [c2778443] (000/1459) No match (V2 was not tested)
09 [e4b01977] (000/1460) No match (V2 was not tested)
10 [9ca67500] (000/1462) No match (V2 was not tested)
11 [fdd17f89] (000/1455) No match (V2 was not tested)
12 [7279a320] (000/1453) No match (V2 was not tested)
13 [0defdc61] (000/1458) No match (V2 was not tested)
14 [a8aae0d7] (000/1460) No match (V2 was not tested)
15 [abc9de0a] (000/1452) No match (V2 was not tested)
16 [45ab308c] (000/1449) No match (V2 was not tested)
17 [2a95b1ad] (000/1436) No match (V2 was not tested)
Offsetted by 682:
01 [fe68db21] (000/1474) No match (V2 was not tested)
02 [414dbacb] (000/1467) No match (V2 was not tested)
03 [015ef7eb] (000/1469) No match (V2 was not tested)
04 [5f4848dd] (000/1465) No match (V2 was not tested)
05 [c63366bf] (000/1467) No match (V2 was not tested)
06 [adaf133c] (000/1463) No match (V2 was not tested)
07 [db84b988] (000/1463) No match (V2 was not tested)
08 [75f8e36b] (000/1459) No match (V2 was not tested)
09 [03e9b937] (000/1460) No match (V2 was not tested)
10 [8d174330] (000/1462) No match (V2 was not tested)
11 [125f2491] (000/1455) No match (V2 was not tested)
12 [3558c668] (000/1453) No match (V2 was not tested)
13 [281ec2d1] (000/1458) No match (V2 was not tested)
14 [efe008df] (000/1460) No match (V2 was not tested)
15 [0f0b2a12] (000/1452) No match (V2 was not tested)
16 [642131f4] (000/1449) No match (V2 was not tested)
17 [e2823e8d] (000/1436) No match (V2 was not tested)
Offsetted by 685:
01 [419ff22f] (000/1474) No match (V2 was not tested)
02 [5b73101a] (000/1467) No match (V2 was not tested)
03 [7d5ef4e2] (000/1469) No match (V2 was not tested)
04 [79cfa91d] (000/1465) No match (V2 was not tested)
05 [166debf5] (000/1467) No match (V2 was not tested)
06 [2e76c2c0] (000/1463) No match (V2 was not tested)
07 [8c0b60b0] (000/1463) No match (V2 was not tested)
08 [0c690f50] (000/1459) No match (V2 was not tested)
09 [e7d0ed2f] (000/1460) No match (V2 was not tested)
10 [8b255cf6] (000/1462) No match (V2 was not tested)
11 [94f0d932] (000/1455) No match (V2 was not tested)
12 [4db4aad1] (000/1453) No match (V2 was not tested)
13 [4b649f9f] (000/1458) No match (V2 was not tested)
14 [38c6ade0] (000/1460) No match (V2 was not tested)
15 [bb735393] (000/1452) No match (V2 was not tested)
16 [07eff221] (000/1449) No match (V2 was not tested)
17 [997fd029] (000/1436) No match (V2 was not tested)
Offsetted by 714:
01 [cb5f2661] (000/1474) No match (V2 was not tested)
02 [c75e00bf] (000/1467) No match (V2 was not tested)
03 [81712c8f] (000/1469) No match (V2 was not tested)
04 [9dadd26f] (000/1465) No match (V2 was not tested)
05 [73909ded] (000/1467) No match (V2 was not tested)
06 [60abb8bc] (000/1463) No match (V2 was not tested)
07 [8bcbb088] (000/1463) No match (V2 was not tested)
08 [baa5624b] (000/1459) No match (V2 was not tested)
09 [d8368e37] (000/1460) No match (V2 was not tested)
10 [cdadab70] (000/1462) No match (V2 was not tested)
11 [d87155f1] (000/1455) No match (V2 was not tested)
12 [8e824ac8] (000/1453) No match (V2 was not tested)
13 [4b07f611] (000/1458) No match (V2 was not tested)
14 [f97c3e3f] (000/1460) No match (V2 was not tested)
15 [e8b78f72] (000/1452) No match (V2 was not tested)
16 [376933d4] (000/1449) No match (V2 was not tested)
17 [d7bda50d] (000/1436) No match (V2 was not tested)

Track Peak [ CRC32 ] [W/O NULL] [ LOG ]
– 99,8 [086D0BBF] [3BD51118] CRC32
01 99,8 [95B74BBB] [C3C758A4]
02 99,8 [D0DA631C] [5C4BA488]
03 99,8 [DEF7D745] [3B6ABAF1]
04 99,8 [FF8C4766] [78F644CD]
05 99,8 [954C5B94] [7A30D3BD]
06 99,8 [E86F4EED] [086D9C29]
07 99,8 [9F7ADD15] [658919C8]
08 99,8 [1E4582E4] [14A6F2B2]
09 99,8 [0BC582E0] [1B8A1FAB]
10 96,6 [87C83496] [1454C17D]
11 99,8 [206F8E72] [4F5F7B60]
12 99,8 [A1A1C162] [1A15D423]
13 99,8 [FB793C8E] [8DDE0F0D]
14 99,8 [05559007] [6D37FF25]
15 99,8 [59762161] [D6C2D7F3]
16 99,8 [CC2DED3B] [2F591CC8]
17 99,8 [E8B9C868] [F918E442]

New Concepts on Abdominoplasty and Further Applications

Track List CD2:

01. Life In The Fast Lane [4:45]
02. Wasted Time [4:54]
03. Victim Of Love [4:10]
04. The Last Resort [7:29]
05. New Kid In Town [5:06]
06. Please Come Home For Christmas [2:59]
07. Heartache Tonight [4:26]
08. The Sad Cafe [5:34]
09. I Can't Tell You Why [4:53]
10. The Long Run [3:42]
11. In The City [3:45]
12. Those Shoes [4:56]
13. Seven Bridges Road [3:05]
14. Love Will Keep Us Alive [4:03]
15. Get Over It [3:31]
16. Hole In The World [4:20]

Exact Audio Copy V1.0 beta 3 from 29. August 2011

EAC extraction logfile from 9. May 2015, 21:03

The Eagles / The Complete Greatest Hits CD2

Used drive : PLEXTOR BD-R PX-B940SA Adapter: 5 ID: 0

Read mode : Secure
Utilize accurate stream : Yes
Defeat audio cache : Yes
Make use of C2 pointers : No

Read offset correction : 667
Overread into Lead-In and Lead-Out : No
Fill up missing offset samples with silence : Yes
Delete leading and trailing silent blocks : No
Null samples used in CRC calculations : Yes
Used interface : Installed external ASPI interface

Used output format : User Defined Encoder
Selected bitrate : 128 kBit/s
Quality : High
Add ID3 tag : Yes
Command line compressor : G:\Program Files (x86)\Exact Audio Copy\Flac\flac.exe
Additional command line options : -V -8 -T "Date=%year%" -T "Genre=%genre%" %source%


TOC of the extracted CD

Track | Start | Length | Start sector | End sector
––––––––––––––––––––––––––––-
1 | 0:00.00 | 4:45.08 | 0 | 21382
2 | 4:45.08 | 4:54.30 | 21383 | 43462
3 | 9:39.38 | 4:10.23 | 43463 | 62235
4 | 13:49.61 | 7:28.41 | 62236 | 95876
5 | 21:18.27 | 5:05.63 | 95877 | 118814
6 | 26:24.15 | 2:58.60 | 118815 | 132224
7 | 29:23.00 | 4:25.39 | 132225 | 152138
8 | 33:48.39 | 5:33.60 | 152139 | 177173
9 | 39:22.24 | 4:53.25 | 177174 | 199173
10 | 44:15.49 | 3:41.40 | 199174 | 215788
11 | 47:57.14 | 3:44.71 | 215789 | 232659
12 | 51:42.10 | 4:56.27 | 232660 | 254886
13 | 56:38.37 | 3:04.48 | 254887 | 268734
14 | 59:43.10 | 4:02.41 | 268735 | 286925
15 | 63:45.51 | 3:30.53 | 286926 | 302728
16 | 67:16.29 | 4:19.57 | 302729 | 322210


Range status and errors

Selected range

Filename D:\MUSIC\The Eagles - The Complete Greatest Hits CD2.wav

Peak level 100.0 %
Extraction speed 4.8 X
Range quality 100.0 %
Test CRC 2D58D6C8
Copy CRC 2D58D6C8
Copy OK

No errors occurred


AccurateRip summary

Track 1 accurately ripped (confidence 12) [565B69B0] (AR v2)
Track 2 accurately ripped (confidence 12) [1A8B1D2A] (AR v2)
Track 3 accurately ripped (confidence 12) [5DC5FC98] (AR v2)
Track 4 accurately ripped (confidence 12) [BEBCA977] (AR v2)
Track 5 accurately ripped (confidence 12) [F1CB0484] (AR v2)
Track 6 accurately ripped (confidence 12) [1A1B7DB7] (AR v2)
Track 7 accurately ripped (confidence 12) [C425061E] (AR v2)
Track 8 accurately ripped (confidence 12) [30E493D4] (AR v2)
Track 9 accurately ripped (confidence 12) [AE13F41C] (AR v2)
Track 10 accurately ripped (confidence 12) [96B96E47] (AR v2)
Track 11 accurately ripped (confidence 12) [BFC46A1E] (AR v2)
Track 12 accurately ripped (confidence 12) [0472826D] (AR v2)
Track 13 accurately ripped (confidence 12) [0DEBFE1A] (AR v2)
Track 14 accurately ripped (confidence 12) [95F38EE0] (AR v2)
Track 15 accurately ripped (confidence 12) [E84B0256] (AR v2)
Track 16 accurately ripped (confidence 12) [D01685F2] (AR v2)

All tracks accurately ripped

End of status report

==== Log checksum 92CBA5215845FC2A1598FD472D98C762D9412F9D0E656A81D9938F64C7160801 ====

foobar2000 1.3.16 / Dynamic Range Meter 1.1.1
log date: 2018-03-16 14:36:04

––––––––––––––––––––––––––––––––––––––––
Analyzed: The Eagles / The Complete Greatest Hits CD2
––––––––––––––––––––––––––––––––––––––––

DR Peak RMS Duration Track
––––––––––––––––––––––––––––––––––––––––
DR8 -0.01 dB -9.97 dB 4:45 01-Life In The Fast Lane
DR8 -0.01 dB -11.89 dB 4:54 02-Wasted Time
DR6 -0.30 dB -8.51 dB 4:10 03-Victim Of Love
DR9 -0.01 dB -12.94 dB 7:29 04-The Last Resort
DR7 -0.01 dB -9.43 dB 5:06 05-New Kid In Town
DR10 -0.30 dB -11.58 dB 2:59 06-Please Come Home For Christmas
DR8 -0.01 dB -10.18 dB 4:26 07-Heartache Tonight
DR10 -0.01 dB -12.13 dB 5:34 08-The Sad Cafe
DR10 -0.01 dB -11.48 dB 4:53 09-I Can't Tell You Why
DR10 -0.01 dB -11.17 dB 3:42 10-The Long Run
DR8 -0.01 dB -9.84 dB 3:45 11-In The City
DR8 -0.30 dB -9.58 dB 4:56 12-Those Shoes
DR10 -0.30 dB -12.86 dB 3:05 13-Seven Bridges Road
DR10 -0.01 dB -11.24 dB 4:03 14-Love Will Keep Us Alive
DR8 -0.01 dB -9.37 dB 3:31 15-Get Over It
DR7 0.00 dB -10.20 dB 4:20 16-Hole In The World
––––––––––––––––––––––––––––––––––––––––

Number of tracks: 16
Official DR value: DR9

Samplerate: 44100 Hz
Channels: 2
Bits per sample: 16
Bitrate: 861 kbps
Codec: FLAC
================================================================================

[CUETools log; Date: 16.03.2018 14:35:46; Version: 2.1.6]
[CTDB TOCID: oSTg_GScdNJPdPbap_ZDvsBUO8Q-] found.
Track | CTDB Status
1 | (1953/1981) Accurately ripped
2 | (1965/1981) Accurately ripped
3 | (1953/1981) Accurately ripped, or (11/1981) differs in 28 samples @00:00:01-00:00:02
4 | (1964/1981) Accurately ripped
5 | (1970/1981) Accurately ripped
6 | (1947/1981) Accurately ripped, or (11/1981) differs in 3 samples @00:00:02
7 | (1969/1981) Accurately ripped
8 | (1969/1981) Accurately ripped
9 | (1971/1981) Accurately ripped
10 | (1941/1981) Accurately ripped, or (11/1981) differs in 686 samples @00:00:01-00:00:02
11 | (1972/1981) Accurately ripped
12 | (1933/1981) Accurately ripped, or (5/1981) differs in 52 samples @00:59:58, or (11/1981) differs in 7 samples @00:00:02
13 | (1942/1981) Accurately ripped, or (11/1981) differs in 126 samples @00:00:01-00:00:02
14 | (1930/1981) Accurately ripped
15 | (1922/1981) Accurately ripped, or (5/1981) differs in 66 samples @01:30:13,01:32:68
16 | (1880/1981) Accurately ripped, or (5/1981) differs in 1353 samples @01:52:14,01:54:10,01:54:31-01:54:32,01:54:52-01:54:53,01:54:73-01:54:74,01:55:19-01:55:20,01:55:40,01:55:61,01:56:07,01:56:28,01:56:49-01:56:50,01:56:70-01:56:71,01:57:16-01:57:17,01:57:37-01:57:38,01:57:58-01:57:59,01:58:04,01:58:25-01:58:26,01:58:46-01:58:47,01:58:67-01:58:68,01:59:34-01:59:35,02:00:22,02:01:31-02:01:32,02:03:28,02:04:16-02:04:17,02:04:58-02:04:59,02:05:67-02:05:68,02:06:34-02:06:35,02:07:22-02:07:23, or (11/1981) differs in 121 samples @00:00:01-00:00:02, or (3/1981) differs in 814 samples @00:15:59,01:54:31-01:54:32,01:54:52-01:54:53,01:54:73-01:54:74,01:55:40-01:55:41,01:56:49-01:56:50,01:57:16-01:57:17,01:57:37-01:57:38,01:58:04-01:58:05,01:58:46-01:58:47,01:59:34-01:59:35,02:03:28-02:03:29,03:03:31-03:03:32, or (2/1981) differs in 52 samples @00:03:53-00:03:54
[AccurateRip ID: 002c0b17-020a0089-e810c810] found.
Track [ CRC | V2 ] Status
01 [c57846b3|565b69b0] (009+017/1563) Accurately ripped
02 [76265065|1a8b1d2a] (009+017/1554) Accurately ripped
03 [c60a9630|5dc5fc98] (009+017/1563) Accurately ripped
04 [8efd21c5|bebca977] (009+017/1553) Accurately ripped
05 [236be153|f1cb0484] (009+017/1556) Accurately ripped
06 [19fbeb36|1a1b7db7] (008+017/1562) Accurately ripped
07 [78b1d617|c425061e] (008+017/1558) Accurately ripped
08 [8c2c8268|30e493d4] (008+017/1542) Accurately ripped
09 [da03c3d0|ae13f41c] (008+017/1549) Accurately ripped
10 [8077cf70|96b96e47] (008+017/1556) Accurately ripped
11 [73848edc|bfc46a1e] (008+017/1552) Accurately ripped
12 [5e14da48|0472826d] (008+017/1552) Accurately ripped
13 [076dece8|0debfe1a] (008+017/1556) Accurately ripped
14 [916272e5|95f38ee0] (008+017/1544) Accurately ripped
15 [269ebac7|e84b0256] (008+017/1543) Accurately ripped
16 [f479fcb4|d01685f2] (008+017/1535) Accurately ripped
Offsetted by -457:
01 [246f89cd] (005/1563) Accurately ripped
02 [6674a6ea] (004/1554) Accurately ripped
03 [988a0d82] (005/1563) Accurately ripped
04 [7a810eba] (005/1553) Accurately ripped
05 [a27b7df5] (005/1556) Accurately ripped
06 [34e20d98] (005/1562) Accurately ripped
07 [126df453] (005/1558) Accurately ripped
08 [896b4b63] (005/1542) Accurately ripped
09 [0da78585] (005/1549) Accurately ripped
10 [e863f6a1] (005/1556) Accurately ripped
11 [b3bb6b4f] (005/1552) Accurately ripped
12 [d48a79bf] (004/1552) Accurately ripped
13 [803c0666] (005/1556) Accurately ripped
14 [9293b77e] (004/1544) Accurately ripped
15 [b53bc0d7] (005/1543) Accurately ripped
16 [5401e93e] (004/1535) Accurately ripped
Offsetted by -41:
01 [38fbb18d] (006/1563) Accurately ripped
02 [7e43bfca] (006/1554) Accurately ripped
03 [a682b242] (006/1563) Accurately ripped
04 [f8b4619a] (006/1553) Accurately ripped
05 [34fb90b5] (006/1556) Accurately ripped
06 [93278858] (006/1562) Accurately ripped
07 [89d91ed3] (006/1558) Accurately ripped
08 [d9ca8283] (006/1542) Accurately ripped
09 [8b73a8f3] (006/1549) Accurately ripped
10 [c3462cb3] (006/1556) Accurately ripped
11 [636e976f] (006/1552) Accurately ripped
12 [7c50b35f] (006/1552) Accurately ripped
13 [3a999fa6] (006/1556) Accurately ripped
14 [f652b3de] (006/1544) Accurately ripped
15 [a2e3b6d7] (006/1543) Accurately ripped
16 [e07a6afe] (006/1535) Accurately ripped
Offsetted by 6:
01 [5d269af7] (037/1563) Accurately ripped
02 [df1bc337] (037/1554) Accurately ripped
03 [98b453a4] (038/1563) Accurately ripped
04 [2e58f2f7] (037/1553) Accurately ripped
05 [6588cde7] (038/1556) Accurately ripped
06 [33f5894a] (038/1562) Accurately ripped
07 [9ba5d7ef] (038/1558) Accurately ripped
08 [e4b7ba96] (038/1542) Accurately ripped
09 [e2dfb25c] (038/1549) Accurately ripped
10 [b5780620] (038/1556) Accurately ripped
11 [825c10ba] (038/1552) Accurately ripped
12 [34318ece] (037/1552) Accurately ripped
13 [c1808194] (036/1556) Accurately ripped
14 [e683f8ff] (037/1544) Accurately ripped
15 [eef88967] (038/1543) Accurately ripped
16 [b8f6cd58] (037/1535) Accurately ripped
Offsetted by 12:
01 [f4d4ef3b] (055/1563) Accurately ripped
02 [48113609] (055/1554) Accurately ripped
03 [6b5e1118] (055/1563) Accurately ripped
04 [cdb4c429] (055/1553) Accurately ripped
05 [a7a5ba7b] (055/1556) Accurately ripped
06 [4def275e] (055/1562) Accurately ripped
07 [be99d9c7] (056/1558) Accurately ripped
08 [3d42f2c4] (055/1542) Accurately ripped
09 [b094da8c] (054/1549) Accurately ripped
10 [ea943cac] (054/1556) Accurately ripped
11 [91339298] (055/1552) Accurately ripped
12 [0a4e4354] (055/1552) Accurately ripped
13 [7b931640] (055/1556) Accurately ripped
14 [3ba57f19] (055/1544) Accurately ripped
15 [b7525807] (055/1543) Accurately ripped
16 [7d739dfc] (055/1535) Accurately ripped
Offsetted by 18:
01 [8c83437f] (005/1563) Accurately ripped
02 [b106a8db] (005/1554) Accurately ripped
03 [3e07ce8c] (005/1563) Accurately ripped
04 [6d10955b] (005/1553) Accurately ripped
05 [e9c2a70f] (005/1556) Accurately ripped
06 [67e8c572] (005/1562) Accurately ripped
07 [e18ddb9f] (004/1558) Accurately ripped
08 [95ce2af2] (005/1542) Accurately ripped
09 [b7a002f1] (004/1549) Accurately ripped
10 [1fda7303] (005/1556) Accurately ripped
11 [a00b1476] (005/1552) Accurately ripped
12 [e06af7da] (005/1552) Accurately ripped
13 [35a5aaec] (005/1556) Accurately ripped
14 [90c70533] (005/1544) Accurately ripped
15 [7fac26a7] (005/1543) Accurately ripped
16 [41f06ea0] (005/1535) Accurately ripped
Offsetted by 30:
01 [bbdfec07] (024/1563) Accurately ripped
02 [82f18e7f] (024/1554) Accurately ripped
03 [e35b4974] (024/1563) Accurately ripped
04 [abc837bf] (024/1553) Accurately ripped
05 [6dfc8037] (024/1556) Accurately ripped
06 [9bdc019a] (024/1562) Accurately ripped
07 [2775df4f] (024/1558) Accurately ripped
08 [46e49b4e] (021/1542) Accurately ripped
09 [b67cb75a] (024/1549) Accurately ripped
10 [8aa5df52] (024/1556) Accurately ripped
11 [bdba1832] (024/1552) Accurately ripped
12 [8ca460e6] (024/1552) Accurately ripped
13 [a9cad444] (025/1556) Accurately ripped
14 [3b0a1167] (024/1544) Accurately ripped
15 [105fc3e7] (024/1543) Accurately ripped
16 [caea0fe8] (024/1535) Accurately ripped
Offsetted by 66:
01 [49f5e59f] (012/1563) Accurately ripped
02 [f8b23f6b] (012/1554) Accurately ripped
03 [d355ba2c] (012/1563) Accurately ripped
04 [67ef1eeb] (012/1553) Accurately ripped
05 [faaa0baf] (011/1556) Accurately ripped
06 [37b5b612] (013/1562) Accurately ripped
07 [f92dea5f] (012/1558) Accurately ripped
08 [5a27ec62] (012/1542) Accurately ripped
09 [7a76b8f8] (012/1549) Accurately ripped
10 [cd1a205c] (011/1556) Accurately ripped
11 [16c72366] (012/1552) Accurately ripped
12 [91509c0a] (012/1552) Accurately ripped
13 [063a504c] (012/1556) Accurately ripped
14 [39d33603] (012/1544) Accurately ripped
15 [c27a9ba7] (012/1543) Accurately ripped
16 [65d6f3c0] (012/1535) Accurately ripped
Offsetted by 141:
01 [31f902f1] (004/1563) Accurately ripped
02 [98ae5aac] (004/1554) Accurately ripped
03 [9c9f7a56] (004/1563) Accurately ripped
04 [2fead5dc] (004/1553) Accurately ripped
05 [b51398e9] (004/1556) Accurately ripped
06 [fc65ee0c] (004/1562) Accurately ripped
07 [ae18016b] (004/1558) Accurately ripped
08 [acf42aa1] (004/1542) Accurately ripped
09 [5a6a2682] (004/1549) Accurately ripped
10 [76272b40] (004/1556) Accurately ripped
11 [d04cfabd] (004/1552) Accurately ripped
12 [85b76c95] (004/1552) Accurately ripped
13 [9c2292b2] (004/1556) Accurately ripped
14 [61f64248] (004/1544) Accurately ripped
15 [0add3277] (004/1543) Accurately ripped
16 [7def23c2] (004/1535) Accurately ripped
Offsetted by 543:
01 [e49910bd] (018/1563) Accurately ripped
02 [10eb67a2] (018/1554) Accurately ripped
03 [bf0c0fb2] (017/1563) Accurately ripped
04 [e4f295f2] (018/1553) Accurately ripped
05 [02a583a5] (018/1556) Accurately ripped
06 [c8ba4d48] (017/1562) Accurately ripped
07 [d3f47cf3] (017/1558) Accurately ripped
08 [d963deab] (018/1542) Accurately ripped
09 [c0ba8b6d] (018/1549) Accurately ripped
10 [a8186609] (018/1556) Accurately ripped
11 [b2b3f7d7] (017/1552) Accurately ripped
12 [8f3aaba7] (017/1552) Accurately ripped
13 [4eff7bb6] (018/1556) Accurately ripped
14 [a9bc5b16] (018/1544) Accurately ripped
15 [7a5e4657] (016/1543) Accurately ripped
16 [ea99beae] (015/1535) Accurately ripped
Offsetted by 578:
01 [d967519f] (009/1563) Accurately ripped
02 [9fd8856b] (009/1554) Accurately ripped
03 [0bea362c] (009/1563) Accurately ripped
04 [dbdf84eb] (009/1553) Accurately ripped
05 [aef8e7af] (009/1556) Accurately ripped
06 [35951212] (009/1562) Accurately ripped
07 [9fd9325f] (009/1558) Accurately ripped
08 [333aa662] (009/1542) Accurately ripped
09 [a34286a6] (009/1549) Accurately ripped
10 [20c4deee] (009/1556) Accurately ripped
11 [b3f26d66] (009/1552) Accurately ripped
12 [9ae21e0a] (009/1552) Accurately ripped
13 [61c1344c] (009/1556) Accurately ripped
14 [efaa9403] (009/1544) Accurately ripped
15 [35bf7ba7] (008/1543) Accurately ripped
16 [3a1c7fc0] (009/1535) Accurately ripped
Offsetted by 670:
01 [ef2db307] (190/1563) Accurately ripped
02 [93e165ff] (189/1554) Accurately ripped
03 [aa14e474] (189/1563) Accurately ripped
04 [bcb4b73f] (186/1553) Accurately ripped
05 [4f5f1337] (189/1556) Accurately ripped
06 [1933349a] (186/1562) Accurately ripped
07 [b7cbf94f] (186/1558) Accurately ripped
08 [d63c03ce] (184/1542) Accurately ripped
09 [48e6ae7b] (186/1549) Accurately ripped
10 [6366eab1] (185/1556) Accurately ripped
11 [423034b2] (186/1552) Accurately ripped
12 [189a4366] (187/1552) Accurately ripped
13 [dc337144] (184/1556) Accurately ripped
14 [5e5746e7] (181/1544) Accurately ripped
15 [e075dbe7] (183/1543) Accurately ripped
16 [5440fee8] (172/1535) Accurately ripped
Offsetted by 676:
01 [86dc074b] (200/1563) Accurately ripped
02 [fcd6d8d1] (200/1554) Accurately ripped
03 [7cbea1e8] (200/1563) Accurately ripped
04 [5c108871] (200/1553) Accurately ripped
05 [917bffcb] (200/1556) Accurately ripped
06 [332cd2ae] (200/1562) Accurately ripped
07 [dabffb27] (200/1558) Accurately ripped
08 [2ec73bfc] (200/1542) Accurately ripped
09 [641472b3] (200/1549) Accurately ripped
10 [938521f5] (200/1556) Accurately ripped
11 [5107b690] (200/1552) Accurately ripped
12 [eeb6f7ec] (200/1552) Accurately ripped
13 [964605f0] (200/1556) Accurately ripped
14 [b378cd01] (200/1544) Accurately ripped
15 [a8cfaa87] (200/1543) Accurately ripped
16 [18bdcf8c] (200/1535) Accurately ripped
Offsetted by 817:
01 [f35cc389] (152/1563) Accurately ripped
02 [1f5ee318] (152/1554) Accurately ripped
03 [5353860e] (153/1563) Accurately ripped
04 [fcfe3c88] (154/1553) Accurately ripped
05 [2323b761] (150/1556) Accurately ripped
06 [1596d584] (153/1562) Accurately ripped
07 [1026267b] (152/1558) Accurately ripped
08 [4f8ee435] (152/1542) Accurately ripped
09 [dd03590d] (152/1549) Accurately ripped
10 [01737d9d] (152/1556) Accurately ripped
11 [add02271] (153/1552) Accurately ripped
12 [16598a39] (151/1552) Accurately ripped
13 [2afaabba] (152/1556) Accurately ripped
14 [840c9c64] (151/1544) Accurately ripped
15 [8d0e2237] (149/1543) Accurately ripped
16 [a232f69a] (129/1535) Accurately ripped
Offsetted by -2177:
01 [4a8e82fd] (000/1563) No match (V2 was not tested)
02 [88f013c2] (000/1554) No match (V2 was not tested)
03 [b2773cf2] (000/1563) No match (V2 was not tested)
04 [5d057812] (000/1553) No match (V2 was not tested)
05 [44c292e5] (000/1556) No match (V2 was not tested)
06 [7407b488] (000/1562) No match (V2 was not tested)
07 [ee868e73] (000/1558) No match (V2 was not tested)
08 [b830628b] (000/1542) No match (V2 was not tested)
09 [f96ac3fb] (000/1549) No match (V2 was not tested)
10 [6c252cbb] (000/1556) No match (V2 was not tested)
11 [bfbdfeb7] (000/1552) No match (V2 was not tested)
12 [bc65a907] (000/1552) No match (V2 was not tested)
13 [78c2e076] (000/1556) No match (V2 was not tested)
14 [93b437b6] (000/1544) No match (V2 was not tested)
15 [06006057] (000/1543) No match (V2 was not tested)
16 [a2e846ee] (000/1535) No match (V2 was not tested)
Offsetted by -1513:
01 [dc959b0d] (003/1563) Accurately ripped
02 [3db5b68a] (003/1554) Accurately ripped
03 [c3d7cdc2] (002/1563) Accurately ripped
04 [eb613c5a] (003/1553) Accurately ripped
05 [2e98d835] (003/1556) Accurately ripped
06 [59455fd8] (003/1562) Accurately ripped
07 [0aacafd3] (003/1558) Accurately ripped
08 [a9b4abc3] (002/1542) Accurately ripped
09 [cbd2539b] (003/1549) Accurately ripped
10 [a4acd28b] (003/1556) Accurately ripped
11 [7f9222af] (003/1552) Accurately ripped
12 [a0ce5d9f] (003/1552) Accurately ripped
13 [9375d026] (003/1556) Accurately ripped
14 [0b87859e] (000/1544) No match (V2 was not tested)
15 [f77db2d7] (000/1543) No match (V2 was not tested)
16 [3e32787e] (000/1535) No match (V2 was not tested)
Offsetted by -124:
01 [86bace8b] (000/1563) No match (V2 was not tested)
02 [a7ab0b71] (000/1554) No match (V2 was not tested)
03 [c456a028] (000/1563) No match (V2 was not tested)
04 [06e8e911] (000/1553) No match (V2 was not tested)
05 [77c0c80b] (000/1556) No match (V2 was not tested)
06 [567fd2ee] (000/1562) No match (V2 was not tested)
07 [a6545aa7] (000/1558) No match (V2 was not tested)
08 [bb99f95c] (000/1542) No match (V2 was not tested)
09 [67563e8e] (000/1549) No match (V2 was not tested)
10 [9e820fda] (000/1556) No match (V2 was not tested)
11 [eb7412f0] (000/1552) No match (V2 was not tested)
12 [bfc39ccc] (000/1552) No match (V2 was not tested)
13 [574341b0] (000/1556) No match (V2 was not tested)
14 [07584a21] (000/1544) No match (V2 was not tested)
15 [a4b40c87] (000/1543) No match (V2 was not tested)
16 [6d1124cc] (000/1535) No match (V2 was not tested)
Offsetted by -98:
01 [18039107] (000/1563) No match (V2 was not tested)
02 [1927fcff] (000/1554) No match (V2 was not tested)
03 [55362a74] (000/1563) No match (V2 was not tested)
04 [0ecc1e3f] (000/1553) No match (V2 was not tested)
05 [40e8c937] (000/1556) No match (V2 was not tested)
06 [1c642a9a] (000/1562) No match (V2 was not tested)
07 [3dcb0d4f] (000/1558) No match (V2 was not tested)
08 [909fecce] (000/1542) No match (V2 was not tested)
09 [8dd7e9e3] (000/1549) No match (V2 was not tested)
10 [d411a589] (000/1556) No match (V2 was not tested)
11 [d66f45b2] (000/1552) No match (V2 was not tested)
12 [0a400066] (000/1552) No match (V2 was not tested)
13 [d2e91b44] (000/1556) No match (V2 was not tested)
14 [cd9439e7] (000/1544) No match (V2 was not tested)
15 [b38e8be7] (000/1543) No match (V2 was not tested)
16 [15d8ace8] (000/1535) No match (V2 was not tested)
Offsetted by -46:
01 [3a9515ff] (000/1563) No match (V2 was not tested)
02 [fc21e01b] (000/1554) No match (V2 was not tested)
03 [76f53f0c] (000/1563) No match (V2 was not tested)
04 [1e92889b] (000/1553) No match (V2 was not tested)
05 [d338cb8f] (000/1556) No match (V2 was not tested)
06 [a82cd9f2] (000/1562) No match (V2 was not tested)
07 [6cb8729f] (000/1558) No match (V2 was not tested)
08 [3aabd3b2] (000/1542) No match (V2 was not tested)
09 [80e9ba91] (000/1549) No match (V2 was not tested)
10 [4252d423] (000/1556) No match (V2 was not tested)
11 [ac65ab36] (000/1552) No match (V2 was not tested)
12 [9f38c79a] (000/1552) No match (V2 was not tested)
13 [ca34ce6c] (000/1556) No match (V2 was not tested)
14 [5a0c1973] (000/1544) No match (V2 was not tested)
15 [d1438aa7] (000/1543) No match (V2 was not tested)
16 [6767bd20] (000/1535) No match (V2 was not tested)
Offsetted by 9:
01 [28fdc519] (000/1563) No match (V2 was not tested)
02 [93967ca0] (000/1554) No match (V2 was not tested)
03 [8209325e] (000/1563) No match (V2 was not tested)
04 [7e06db90] (000/1553) No match (V2 was not tested)
05 [06974431] (000/1556) No match (V2 was not tested)
06 [c0f25854] (000/1562) No match (V2 was not tested)
07 [ad1fd8db] (000/1558) No match (V2 was not tested)
08 [10fd56ad] (000/1542) No match (V2 was not tested)
09 [040229b0] (000/1549) No match (V2 was not tested)
10 [d003a16a] (000/1556) No match (V2 was not tested)
11 [89c7d1a9] (000/1552) No match (V2 was not tested)
12 [1f3fe911] (000/1552) No match (V2 was not tested)
13 [9e89cbea] (000/1556) No match (V2 was not tested)
14 [1114bc0c] (000/1544) No match (V2 was not tested)
15 [d32570b7] (000/1543) No match (V2 was not tested)
16 [9b3535aa] (000/1535) No match (V2 was not tested)
Offsetted by 88:
01 [761fc543] (000/1563) No match
02 [cee0e46d] (000/1554) No match
03 [d7c41b80] (000/1563) No match
04 [5aea734d] (000/1553) No match
05 [42696f23] (000/1556) No match
06 [419e4f06] (000/1562) No match
07 [79574677] (000/1558) No match
08 [497bba60] (000/1542) No match
09 [e89cd931] (000/1549) No match
10 [3dc536ff] (000/1556) No match
11 [a287ff94] (000/1552) No match
12 [f7b9dca0] (000/1552) No match
13 [5b291c18] (000/1556) No match
14 [1ca3770d] (000/1544) No match (V2 was not tested)
15 [f66e9147] (000/1543) No match (V2 was not tested)
16 [e0f5f0c4] (000/1535) No match (V2 was not tested)
Offsetted by 150:
01 [957e8157] (000/1563) No match (V2 was not tested)
02 [b61e86e7] (000/1554) No match (V2 was not tested)
03 [589e1684] (000/1563) No match (V2 was not tested)
04 [1ef48fa7] (000/1553) No match (V2 was not tested)
05 [983efbc7] (000/1556) No match (V2 was not tested)
06 [a35c5b2a] (000/1562) No match (V2 was not tested)
07 [e286042f] (000/1558) No match (V2 was not tested)
08 [31c4fee6] (000/1542) No match (V2 was not tested)
09 [507237f1] (000/1549) No match (V2 was not tested)
10 [c969f8ab] (000/1556) No match (V2 was not tested)
11 [e6903d8a] (000/1552) No match (V2 was not tested)
12 [46e27b5e] (000/1552) No match (V2 was not tested)
13 [333e71b4] (000/1556) No match (V2 was not tested)
14 [e1a88b6f] (000/1544) No match (V2 was not tested)
15 [b763e867] (000/1543) No match (V2 was not tested)
16 [24aa5cb8] (000/1535) No match (V2 was not tested)
Offsetted by 211:
01 [1b9584b5] (000/1563) No match (V2 was not tested)
02 [b688963e] (000/1554) No match (V2 was not tested)
03 [365bc74a] (000/1563) No match (V2 was not tested)
04 [1dc4b3ce] (000/1553) No match (V2 was not tested)
05 [0dba60fd] (000/1556) No match (V2 was not tested)
06 [d61b77a0] (000/1562) No match (V2 was not tested)
07 [45e16c43] (000/1558) No match (V2 was not tested)
08 [60a1ba0f] (000/1542) No match (V2 was not tested)
09 [51e9ab77] (000/1549) No match (V2 was not tested)
10 [ad80e087] (000/1556) No match (V2 was not tested)
11 [d2c9e5db] (000/1552) No match (V2 was not tested)
12 [9d06515b] (000/1552) No match (V2 was not tested)
13 [c1a603de] (000/1556) No match (V2 was not tested)
14 [edd2b422] (000/1544) No match (V2 was not tested)
15 [819f9d17] (000/1543) No match (V2 was not tested)
16 [1cf4a5e6] (000/1535) No match (V2 was not tested)
Offsetted by 411:
01 [db9dd2e5] (000/1563) No match (V2 was not tested)
02 [0bd38996] (000/1554) No match (V2 was not tested)
03 [a475c7ba] (000/1563) No match (V2 was not tested)
04 [330e9ba6] (000/1553) No match (V2 was not tested)
05 [54292eed] (000/1556) No match (V2 was not tested)
06 [8d46b790] (000/1562) No match (V2 was not tested)
07 [d2fc5463] (000/1558) No match (V2 was not tested)
08 [3d6d0ab7] (000/1542) No match (V2 was not tested)
09 [584ad0c5] (000/1549) No match (V2 was not tested)
10 [2f6b78c9] (000/1556) No match (V2 was not tested)
11 [6c2ecec3] (000/1552) No match (V2 was not tested)
12 [28c32823] (000/1552) No match (V2 was not tested)
13 [5166b4ee] (000/1556) No match (V2 was not tested)
14 [58dad4da] (000/1544) No match (V2 was not tested)
15 [42a68497] (000/1543) No match (V2 was not tested)
16 [07dfd096] (000/1535) No match (V2 was not tested)
Offsetted by 477:
01 [601b71d1] (000/1563) No match (V2 was not tested)
02 [8e5f789c] (000/1554) No match (V2 was not tested)
03 [b1c0ebb6] (000/1563) No match (V2 was not tested)
04 [0c0098cc] (000/1553) No match (V2 was not tested)
05 [2b675949] (000/1556) No match (V2 was not tested)
06 [ab00826c] (000/1562) No match (V2 was not tested)
07 [537868ab] (000/1558) No match (V2 was not tested)
08 [0b6874b1] (000/1542) No match (V2 was not tested)
09 [a1c72be4] (000/1549) No match (V2 was not tested)
10 [7652e8fe] (000/1556) No match (V2 was not tested)
11 [0f71634d] (000/1552) No match (V2 was not tested)
12 [5bfee9e5] (000/1552) No match (V2 was not tested)
13 [50331852] (000/1556) No match (V2 was not tested)
14 [014b97f8] (000/1544) No match (V2 was not tested)
15 [de826577] (000/1543) No match (V2 was not tested)
16 [793cc7a2] (000/1535) No match (V2 was not tested)
Offsetted by 556:
01 [ad3d71fb] (000/1563) No match (V2 was not tested)
02 [c9a9e069] (000/1554) No match (V2 was not tested)
03 [077bd4d8] (000/1563) No match (V2 was not tested)
04 [e8e43089] (000/1553) No match (V2 was not tested)
05 [6739843b] (000/1556) No match (V2 was not tested)
06 [2bac791e] (000/1562) No match (V2 was not tested)
07 [1fafd647] (000/1558) No match (V2 was not tested)
08 [43e6d864] (000/1542) No match (V2 was not tested)
09 [817042b2] (000/1549) No match (V2 was not tested)
10 [bf6fb806] (000/1556) No match (V2 was not tested)
11 [28319138] (000/1552) No match (V2 was not tested)
12 [3478dd74] (000/1552) No match (V2 was not tested)
13 [0cd26880] (000/1556) No match (V2 was not tested)
14 [0cda52f9] (000/1544) No match (V2 was not tested)
15 [01cb8607] (000/1543) No match (V2 was not tested)
16 [befd82bc] (000/1535) No match (V2 was not tested)
Offsetted by 623:
01 [cb02c99d] (002/1563) Accurately ripped
02 [33096292] (002/1554) Accurately ripped
03 [b7e34312] (002/1563) Accurately ripped
04 [871025e2] (002/1553) Accurately ripped
05 [1ed1d605] (002/1556) Accurately ripped
06 [786533a8] (002/1562) Accurately ripped
07 [a5ff4033] (002/1558) Accurately ripped
08 [cb4ecbbb] (000/1542) No match (V2 was not tested)
09 [1a24eba7] (000/1549) No match (V2 was not tested)
10 [922708ef] (000/1556) No match (V2 was not tested)
11 [2342bb67] (000/1552) No match (V2 was not tested)
12 [60b967f7] (000/1552) No match (V2 was not tested)
13 [554c8f56] (000/1556) No match (V2 was not tested)
14 [6e2601c6] (000/1544) No match (V2 was not tested)
15 [94610957] (000/1543) No match (V2 was not tested)
16 [7bc49c8e] (002/1535) Accurately ripped
Offsetted by 682:
01 [1e8a5b8f] (000/1563) No match (V2 was not tested)
02 [65cc4ba3] (000/1554) No match (V2 was not tested)
03 [4f685f5c] (000/1563) No match (V2 was not tested)
04 [fb6c59a3] (000/1553) No match (V2 was not tested)
05 [d398ec5f] (000/1556) No match (V2 was not tested)
06 [4d2670c2] (000/1562) No match (V2 was not tested)
07 [fdb3fcff] (000/1558) No match (V2 was not tested)
08 [8752742a] (000/1542) No match (V2 was not tested)
09 [f18cd3e7] (000/1549) No match (V2 was not tested)
10 [c39358fd] (002/1556) Accurately ripped
11 [5fdf386e] (000/1552) No match (V2 was not tested)
12 [c4d3ac72] (000/1552) No match (V2 was not tested)
13 [50589a9c] (000/1556) No match (V2 was not tested)
14 [089a531b] (000/1544) No match (V2 was not tested)
15 [71297927] (002/1543) Accurately ripped
16 [dd3aa030] (000/1535) No match (V2 was not tested)
Offsetted by 685:
01 [ea6185b1] (000/1563) No match (V2 was not tested)
02 [1a47050c] (000/1554) No match (V2 was not tested)
03 [38bd3e16] (000/1563) No match (V2 was not tested)
04 [4b1a423c] (000/1553) No match (V2 was not tested)
05 [74a762a9] (000/1556) No match (V2 was not tested)
06 [da233fcc] (000/1562) No match (V2 was not tested)
07 [0f2dfdeb] (000/1558) No match (V2 was not tested)
08 [b3981041] (000/1542) No match (V2 was not tested)
09 [b136e7d5] (000/1549) No match (V2 was not tested)
10 [db91f46d] (000/1556) No match (V2 was not tested)
11 [674af95d] (000/1552) No match (V2 was not tested)
12 [afe206b5] (000/1552) No match (V2 was not tested)
13 [2d61e4f2] (000/1556) No match (V2 was not tested)
14 [332b1628] (000/1544) No match (V2 was not tested)
15 [55566077] (000/1543) No match (V2 was not tested)
16 [bf790882] (000/1535) No match (V2 was not tested)
Offsetted by 694:
01 [4de70417] (000/1563) No match (V2 was not tested)
02 [37b73147] (000/1554) No match (V2 was not tested)
03 [f4bbda44] (000/1563) No match (V2 was not tested)
04 [3a23fc07] (000/1553) No match (V2 was not tested)
05 [57d2c587] (000/1556) No match (V2 was not tested)
06 [8119acea] (000/1562) No match (V2 was not tested)
07 [439c00af] (000/1558) No match (V2 was not tested)
08 [3868e486] (000/1542) No match (V2 was not tested)
09 [8b665d73] (000/1549) No match (V2 was not tested)
10 [2391c669] (000/1556) No match (V2 was not tested)
11 [7d8e3c2a] (000/1552) No match (V2 was not tested)
12 [710d157e] (000/1552) No match (V2 was not tested)
13 [c47dc3f4] (000/1556) No match (V2 was not tested)
14 [b2dd5f4f] (000/1544) No match (V2 was not tested)
15 [01dd1667] (000/1543) No match (V2 was not tested)
16 [66344178] (000/1535) No match (V2 was not tested)
Offsetted by 714:
01 [4781724f] (000/1563) No match (V2 was not tested)
02 [403eb003] (000/1554) No match (V2 was not tested)
03 [b2f1a71c] (000/1563) No match (V2 was not tested)
04 [a2ab6003] (000/1553) No match (V2 was not tested)
05 [deddda1f] (000/1556) No match (V2 was not tested)
06 [2d046682] (000/1562) No match (V2 was not tested)
07 [b81eb17f] (000/1558) No match (V2 was not tested)
08 [b4e39fca] (000/1542) No match (V2 was not tested)
09 [4b0e2492] (000/1549) No match (V2 was not tested)
10 [185d2612] (000/1556) No match (V2 was not tested)
11 [59b1ed0e] (000/1552) No match (V2 was not tested)
12 [e56cc492] (000/1552) No match (V2 was not tested)
13 [861108dc] (000/1556) No match (V2 was not tested)
14 [23f7c8fb] (000/1544) No match (V2 was not tested)
15 [485dc727] (000/1543) No match (V2 was not tested)
16 [4a7ef8f0] (000/1535) No match (V2 was not tested)
More than 16 offsets match!

Track Peak [ CRC32 ] [W/O NULL] [ LOG ]
– 100,0 [2D58D6C8] [A38A7B9C] CRC32
01 99,8 [FAC47106] [AE099D8F]
02 99,8 [37F7E8C1] [F2F4E65A]
03 96,6 [92DCDF99] [B3743E44]
04 99,8 [729DCC46] [28B25F44]
05 99,8 [5036A810] [4155F1EE]
06 96,5 [E94DE88E] [BF6A2AC3]
07 99,8 [188A9773] [9F231380]
08 99,8 [AD70492C] [762D51D1]
09 99,8 [B60DFDF2] [077677E4]
10 99,8 [22217AF8] [F21A2ABF]
11 99,8 [B5093751] [3D606B34]
12 96,6 [58531F95] [68B80F75]
13 96,5 [C60789D8] [CFCE3B77]
14 99,8 [9F13C8DC] [B5C014E1]
15 99,8 [F9B2506B] [ECAA3157]
16 100,0 [4D1B3342] [8D9C115C]

New Concepts on Abdominoplasty and Further Applications

Track List DVD - Farewell 1 Tour: Live From Melbourne:

Part One
01. The Long Run
02. New Kid In Town
03. Wasted Time
04. Wasted Time
05. Wasted Time (Reprise)
06. Peaceful Easy Feeling
07. I Can't Tell You Why
08. One Of These Nights
09. One Day At A Time
10. Lyin' Eyes
11. The Boys Of Summer
12. In The City
13. Already Gone
14. Silent Spring (Intro)
15. Tequila Sunrise
16. Love Will Keep Us Alive
17. No More Cloudy Days
18. Hole In The World
19. Take It To The Limit
20. You Belong To The City
21. Walk Away
22. Sunset Grill

Part Two
23. Life's Been Good
24. Dirty Laundry
25. Funk #49
26. Heartache Tonight
27. Life In The Fast Lane
28. Hotel California
29. Rocky Mountain Way
30. All She Wants To Do Is Dance
31. Take It Easy
32. Desperado

Bonus Feature:
33. Eagles Interviews

General
Complete name : I:\VIDEO_TS\VTS_01_1.VOB
Format : MPEG-PS
File size : 1 024 MiB
Duration : 22 min 33 s
Overall bit rate mode : Variable
Overall bit rate : 6 346 kb/s

Video
ID : 224 (0xE0)
Format : MPEG Video
Format version : Version 2
Format profile : Main@Main
Format settings : CustomMatrix / BVOP
Format settings, BVOP : Yes
Format settings, Matrix : Custom
Format settings, GOP : Variable
Format settings, picture structure : Frame
Duration : 22 min 33 s
Bit rate mode : Variable
Bit rate : 3 174 kb/s
Maximum bit rate : 9 800 kb/s
Width : 720 pixels
Height : 480 pixels
Display aspect ratio : 16:9
Frame rate : 29.970 (30000/1001) FPS
Standard : NTSC
Color space : YUV
Chroma subsampling : 4:2:0
Bit depth : 8 bits
Scan type : Interlaced
Scan order : Bottom Field First
Compression mode : Lossy
Bits/(Pixel*Frame) : 0.306
Time code of first frame : 00:00:00:00
Time code source : Group of pictures header
GOP, Open/Closed : Closed
Stream size : 512 MiB (50%)

Audio #1
ID : 189 (0xBD)-137 (0x89)
Format : DTS
Format/Info : Digital Theater Systems
Muxing mode : DVD-Video
Duration : 22 min 32 s
Bit rate mode : Constant
Bit rate : 1 510 kb/s
Channel(s) : 6 channels
Channel positions : Front: L C R, Side: L R, LFE
Sampling rate : 48.0 kHz
Frame rate : 93.750 FPS (512 SPF)
Bit depth : 16 bits
Compression mode : Lossy
Stream size : 244 MiB (24%)

Audio #2
ID : 189 (0xBD)-160 (0xA0)
Format : PCM
Format settings : Big / Signed
Muxing mode : DVD-Video
Duration : 22 min 32 s
Bit rate mode : Constant
Bit rate : 1 536 kb/s
Channel(s) : 2 channels
Sampling rate : 48.0 kHz
Bit depth : 16 bits
Stream size : 248 MiB (24%)

Menu

General
Complete name : I:\VIDEO_TS\VTS_01_2.VOB
Format : MPEG-PS
File size : 1 024 MiB
Duration : 21 min 48 s
Overall bit rate mode : Variable
Overall bit rate : 6 562 kb/s

Video
ID : 224 (0xE0)
Format : MPEG Video
Format version : Version 2
Format profile : Main@Main
Format settings : CustomMatrix / BVOP
Format settings, BVOP : Yes
Format settings, Matrix : Custom
Format settings, GOP : M=3, N=15
Format settings, picture structure : Frame
Duration : 21 min 48 s
Bit rate mode : Variable
Bit rate : 3 386 kb/s
Maximum bit rate : 9 800 kb/s
Width : 720 pixels
Height : 480 pixels
Display aspect ratio : 16:9
Frame rate : 29.970 (30000/1001) FPS
Standard : NTSC
Color space : YUV
Chroma subsampling : 4:2:0
Bit depth : 8 bits
Scan type : Interlaced
Scan order : Bottom Field First
Compression mode : Lossy
Bits/(Pixel*Frame) : 0.327
Time code of first frame : 00:22:32:03
Time code source : Group of pictures header
GOP, Open/Closed : Closed
Stream size : 528 MiB (52%)

Audio #1
ID : 189 (0xBD)-137 (0x89)
Format : DTS
Format/Info : Digital Theater Systems
Muxing mode : DVD-Video
Duration : 21 min 48 s
Bit rate mode : Constant
Bit rate : 1 510 kb/s
Channel(s) : 6 channels
Channel positions : Front: L C R, Side: L R, LFE
Sampling rate : 48.0 kHz
Frame rate : 93.750 FPS (512 SPF)
Bit depth : 16 bits
Compression mode : Lossy
Delay relative to video : -492 ms
Stream size : 236 MiB (23%)

Audio #2
ID : 189 (0xBD)-160 (0xA0)
Format : PCM
Format settings : Big / Signed
Muxing mode : DVD-Video
Duration : 21 min 48 s
Bit rate mode : Constant
Bit rate : 1 536 kb/s
Channel(s) : 2 channels
Sampling rate : 48.0 kHz
Bit depth : 16 bits
Delay relative to video : -499 ms
Stream size : 240 MiB (23%)

Menu

General
Complete name : I:\VIDEO_TS\VTS_01_3.VOB
Format : MPEG-PS
File size : 1 024 MiB
Duration : 21 min 10 s
Overall bit rate mode : Variable
Overall bit rate : 6 758 kb/s

Video
ID : 224 (0xE0)
Format : MPEG Video
Format version : Version 2
Format profile : Main@Main
Format settings : CustomMatrix / BVOP
Format settings, BVOP : Yes
Format settings, Matrix : Custom
Format settings, GOP : M=3, N=15
Format settings, picture structure : Frame
Duration : 21 min 10 s
Bit rate mode : Variable
Bit rate : 3 577 kb/s
Maximum bit rate : 9 800 kb/s
Width : 720 pixels
Height : 480 pixels
Display aspect ratio : 16:9
Frame rate : 29.970 (30000/1001) FPS
Standard : NTSC
Color space : YUV
Chroma subsampling : 4:2:0
Bit depth : 8 bits
Scan type : Interlaced
Scan order : Bottom Field First
Compression mode : Lossy
Bits/(Pixel*Frame) : 0.345
Time code of first frame : 00:44:19:24
Time code source : Group of pictures header
GOP, Open/Closed : Closed
Stream size : 542 MiB (53%)

Audio #1
ID : 189 (0xBD)-137 (0x89)
Format : DTS
Format/Info : Digital Theater Systems
Muxing mode : DVD-Video
Duration : 21 min 10 s
Bit rate mode : Constant
Bit rate : 1 510 kb/s
Channel(s) : 6 channels
Channel positions : Front: L C R, Side: L R, LFE
Sampling rate : 48.0 kHz
Frame rate : 93.750 FPS (512 SPF)
Bit depth : 16 bits
Compression mode : Lossy
Delay relative to video : -657 ms
Stream size : 229 MiB (22%)

Audio #2
ID : 189 (0xBD)-160 (0xA0)
Format : PCM
Format settings : Big / Signed
Muxing mode : DVD-Video
Duration : 21 min 10 s
Bit rate mode : Constant
Bit rate : 1 536 kb/s
Channel(s) : 2 channels
Sampling rate : 48.0 kHz
Bit depth : 16 bits
Delay relative to video : -666 ms
Stream size : 233 MiB (23%)

Menu

General
Complete name : I:\VIDEO_TS\VTS_01_4.VOB
Format : MPEG-PS
File size : 1 024 MiB
Duration : 21 min 58 s
Overall bit rate mode : Variable
Overall bit rate : 6 515 kb/s

Video
ID : 224 (0xE0)
Format : MPEG Video
Format version : Version 2
Format profile : Main@Main
Format settings : CustomMatrix / BVOP
Format settings, BVOP : Yes
Format settings, Matrix : Custom
Format settings, GOP : Variable
Format settings, picture structure : Frame
Duration : 21 min 58 s
Bit rate mode : Variable
Bit rate : 3 340 kb/s
Maximum bit rate : 9 800 kb/s
Width : 720 pixels
Height : 480 pixels
Display aspect ratio : 16:9
Frame rate : 29.970 (30000/1001) FPS
Standard : NTSC
Color space : YUV
Chroma subsampling : 4:2:0
Bit depth : 8 bits
Scan type : Interlaced
Scan order : Bottom Field First
Compression mode : Lossy
Bits/(Pixel*Frame) : 0.322
Time code of first frame : 01:05:29:07
Time code source : Group of pictures header
GOP, Open/Closed : Closed
Stream size : 525 MiB (51%)

Audio #1
ID : 189 (0xBD)-137 (0x89)
Format : DTS
Format/Info : Digital Theater Systems
Muxing mode : DVD-Video
Duration : 21 min 58 s
Bit rate mode : Constant
Bit rate : 1 510 kb/s
Channel(s) : 6 channels
Channel positions : Front: L C R, Side: L R, LFE
Sampling rate : 48.0 kHz
Frame rate : 93.750 FPS (512 SPF)
Bit depth : 16 bits
Compression mode : Lossy
Delay relative to video : -416 ms
Stream size : 237 MiB (23%)

Audio #2
ID : 189 (0xBD)-160 (0xA0)
Format : PCM
Format settings : Big / Signed
Muxing mode : DVD-Video
Duration : 21 min 58 s
Bit rate mode : Constant
Bit rate : 1 536 kb/s
Channel(s) : 2 channels
Sampling rate : 48.0 kHz
Bit depth : 16 bits
Delay relative to video : -421 ms
Stream size : 241 MiB (24%)

Menu

General
Complete name : I:\VIDEO_TS\VTS_01_5.VOB
Format : MPEG-PS
File size : 581 MiB
Duration : 11 min 37 s
Overall bit rate mode : Variable
Overall bit rate : 6 990 kb/s

Video
ID : 224 (0xE0)
Format : MPEG Video
Format version : Version 2
Format profile : Main@Main
Format settings : CustomMatrix / BVOP
Format settings, BVOP : Yes
Format settings, Matrix : Custom
Format settings, GOP : Variable
Format settings, picture structure : Frame
Duration : 11 min 37 s
Bit rate mode : Variable
Bit rate : 3 805 kb/s
Maximum bit rate : 9 800 kb/s
Width : 720 pixels
Height : 480 pixels
Display aspect ratio : 16:9
Frame rate : 29.970 (30000/1001) FPS
Standard : NTSC
Color space : YUV
Chroma subsampling : 4:2:0
Bit depth : 8 bits
Scan type : Interlaced
Scan order : Bottom Field First
Compression mode : Lossy
Bits/(Pixel*Frame) : 0.367
Time code of first frame : 01:27:26:08
Time code source : Group of pictures header
GOP, Open/Closed : Closed
Stream size : 316 MiB (54%)

Audio #1
ID : 189 (0xBD)-137 (0x89)
Format : DTS
Format/Info : Digital Theater Systems
Muxing mode : DVD-Video
Duration : 11 min 37 s
Bit rate mode : Constant
Bit rate : 1 510 kb/s
Channel(s) : 6 channels
Channel positions : Front: L C R, Side: L R, LFE
Sampling rate : 48.0 kHz
Frame rate : 93.750 FPS (512 SPF)
Bit depth : 16 bits
Compression mode : Lossy
Delay relative to video : -558 ms
Stream size : 126 MiB (22%)

Audio #2
ID : 189 (0xBD)-160 (0xA0)
Format : PCM
Format settings : Big / Signed
Muxing mode : DVD-Video
Duration : 11 min 37 s
Bit rate mode : Constant
Bit rate : 1 536 kb/s
Channel(s) : 2 channels
Sampling rate : 48.0 kHz
Bit depth : 16 bits
Delay relative to video : -571 ms
Stream size : 128 MiB (22%)

General
Complete name : I:\VIDEO_TS\VTS_02_1.VOB
Format : MPEG-PS
File size : 1 024 MiB
Duration : 20 min 48 s
Overall bit rate mode : Variable
Overall bit rate : 6 877 kb/s

Video
ID : 224 (0xE0)
Format : MPEG Video
Format version : Version 2
Format profile : Main@Main
Format settings : CustomMatrix / BVOP
Format settings, BVOP : Yes
Format settings, Matrix : Custom
Format settings, GOP : Variable
Format settings, picture structure : Frame
Duration : 20 min 48 s
Bit rate mode : Variable
Bit rate : 3 694 kb/s
Maximum bit rate : 9 800 kb/s
Width : 720 pixels
Height : 480 pixels
Display aspect ratio : 16:9
Frame rate : 29.970 (30000/1001) FPS
Standard : NTSC
Color space : YUV
Chroma subsampling : 4:2:0
Bit depth : 8 bits
Scan type : Interlaced
Scan order : Bottom Field First
Compression mode : Lossy
Bits/(Pixel*Frame) : 0.357
Time code of first frame : 00:00:00:00
Time code source : Group of pictures header
GOP, Open/Closed : Closed
Stream size : 550 MiB (54%)

Audio #1
ID : 189 (0xBD)-137 (0x89)
Format : DTS
Format/Info : Digital Theater Systems
Muxing mode : DVD-Video
Duration : 20 min 48 s
Bit rate mode : Constant
Bit rate : 1 510 kb/s
Channel(s) : 6 channels
Channel positions : Front: L C R, Side: L R, LFE
Sampling rate : 48.0 kHz
Frame rate : 93.750 FPS (512 SPF)
Bit depth : 16 bits
Compression mode : Lossy
Stream size : 225 MiB (22%)

Audio #2
ID : 189 (0xBD)-160 (0xA0)
Format : PCM
Format settings : Big / Signed
Muxing mode : DVD-Video
Duration : 20 min 48 s
Bit rate mode : Constant
Bit rate : 1 536 kb/s
Channel(s) : 2 channels
Sampling rate : 48.0 kHz
Bit depth : 16 bits
Stream size : 229 MiB (22%)

Menu

General
Complete name : I:\VIDEO_TS\VTS_02_2.VOB
Format : MPEG-PS
File size : 1 024 MiB
Duration : 21 min 40 s
Overall bit rate mode : Variable
Overall bit rate : 6 603 kb/s

Video
ID : 224 (0xE0)
Format : MPEG Video
Format version : Version 2
Format profile : Main@Main
Format settings : CustomMatrix / BVOP
Format settings, BVOP : Yes
Format settings, Matrix : Custom
Format settings, GOP : M=3, N=15
Format settings, picture structure : Frame
Duration : 21 min 40 s
Bit rate mode : Variable
Bit rate : 3 426 kb/s
Maximum bit rate : 9 800 kb/s
Width : 720 pixels
Height : 480 pixels
Display aspect ratio : 16:9
Frame rate : 29.970 (30000/1001) FPS
Standard : NTSC
Color space : YUV
Chroma subsampling : 4:2:0
Bit depth : 8 bits
Scan type : Interlaced
Scan order : Bottom Field First
Compression mode : Lossy
Bits/(Pixel*Frame) : 0.331
Time code of first frame : 00:20:47:29
Time code source : Group of pictures header
GOP, Open/Closed : Closed
Stream size : 531 MiB (52%)

Audio #1
ID : 189 (0xBD)-137 (0x89)
Format : DTS
Format/Info : Digital Theater Systems
Muxing mode : DVD-Video
Duration : 21 min 40 s
Bit rate mode : Constant
Bit rate : 1 510 kb/s
Channel(s) : 6 channels
Channel positions : Front: L C R, Side: L R, LFE
Sampling rate : 48.0 kHz
Frame rate : 93.750 FPS (512 SPF)
Bit depth : 16 bits
Compression mode : Lossy
Delay relative to video : -457 ms
Stream size : 234 MiB (23%)

Audio #2
ID : 189 (0xBD)-160 (0xA0)
Format : PCM
Format settings : Big / Signed
Muxing mode : DVD-Video
Duration : 21 min 40 s
Bit rate mode : Constant
Bit rate : 1 536 kb/s
Channel(s) : 2 channels
Sampling rate : 48.0 kHz
Bit depth : 16 bits
Delay relative to video : -468 ms
Stream size : 238 MiB (23%)

Menu

General
Complete name : I:\VIDEO_TS\VTS_02_3.VOB
Format : MPEG-PS
File size : 1 024 MiB
Duration : 22 min 36 s
Overall bit rate mode : Variable
Overall bit rate : 6 333 kb/s

Video
ID : 224 (0xE0)
Format : MPEG Video
Format version : Version 2
Format profile : Main@Main
Format settings : CustomMatrix / BVOP
Format settings, BVOP : Yes
Format settings, Matrix : Custom
Format settings, GOP : Variable
Format settings, picture structure : Frame
Duration : 22 min 36 s
Bit rate mode : Variable
Bit rate : 3 161 kb/s
Maximum bit rate : 9 800 kb/s
Width : 720 pixels
Height : 480 pixels
Display aspect ratio : 16:9
Frame rate : 29.970 (30000/1001) FPS
Standard : NTSC
Color space : YUV
Chroma subsampling : 4:2:0
Bit depth : 8 bits
Scan type : Interlaced
Scan order : Bottom Field First
Compression mode : Lossy
Bits/(Pixel*Frame) : 0.305
Time code of first frame : 00:42:27:02
Time code source : Group of pictures header
GOP, Open/Closed : Closed
Stream size : 511 MiB (50%)

Audio #1
ID : 189 (0xBD)-137 (0x89)
Format : DTS
Format/Info : Digital Theater Systems
Muxing mode : DVD-Video
Duration : 22 min 35 s
Bit rate mode : Constant
Bit rate : 1 510 kb/s
Channel(s) : 6 channels
Channel positions : Front: L C R, Side: L R, LFE
Sampling rate : 48.0 kHz
Frame rate : 93.750 FPS (512 SPF)
Bit depth : 16 bits
Compression mode : Lossy
Delay relative to video : -248 ms
Stream size : 244 MiB (24%)

Audio #2
ID : 189 (0xBD)-160 (0xA0)
Format : PCM
Format settings : Big / Signed
Muxing mode : DVD-Video
Duration : 22 min 35 s
Bit rate mode : Constant
Bit rate : 1 536 kb/s
Channel(s) : 2 channels
Sampling rate : 48.0 kHz
Bit depth : 16 bits
Delay relative to video : -247 ms
Stream size : 248 MiB (24%)

General
Complete name : I:\VIDEO_TS\VTS_03_1.VOB
Format : MPEG-PS
File size : 142 MiB
Duration : 11 min 13 s
Overall bit rate mode : Variable
Overall bit rate : 1 762 kb/s

Video
ID : 224 (0xE0)
Format : MPEG Video
Format version : Version 2
Format profile : Main@Main
Format settings : CustomMatrix / BVOP
Format settings, BVOP : Yes
Format settings, Matrix : Custom
Format settings, GOP : Variable
Format settings, picture structure : Frame
Duration : 11 min 13 s
Bit rate mode : Variable
Bit rate : 1 535 kb/s
Maximum bit rate : 9 800 kb/s
Width : 720 pixels
Height : 480 pixels
Display aspect ratio : 16:9
Frame rate : 29.970 (30000/1001) FPS
Standard : NTSC
Color space : YUV
Chroma subsampling : 4:2:0
Bit depth : 8 bits
Scan type : Interlaced
Scan order : Bottom Field First
Compression mode : Lossy
Bits/(Pixel*Frame) : 0.148
Time code of first frame : 00:00:00:00
Time code source : Group of pictures header
GOP, Open/Closed : Closed
Stream size : 123 MiB (87%)

Audio
ID : 189 (0xBD)-128 (0x80)
Format : AC-3
Format/Info : Audio Coding 3
Muxing mode : DVD-Video
Duration : 11 min 13 s
Bit rate mode : Constant
Bit rate : 192 kb/s
Channel(s) : 2 channels
Channel positions : Front: L R
Sampling rate : 48.0 kHz
Frame rate : 31.250 FPS (1536 SPF)
Bit depth : 16 bits
Compression mode : Lossy
Stream size : 15.4 MiB (11%)
Service kind : Complete Main

New Concepts on Abdominoplasty and Further Applications

New Concepts on Abdominoplasty and Further Applications

New Concepts on Abdominoplasty and Further Applications

New Concepts on Abdominoplasty and Further Applications

New Concepts on Abdominoplasty and Further Applications

New Concepts on Abdominoplasty and Further Applications

New Concepts on Abdominoplasty and Further Applications

New Concepts on Abdominoplasty and Further Applications

All thanks go to RD

>>> The Eagles in my Blog <<<

Download from icerbox.com: