Subcategories

The Everly Brothers - All Time Original Hits (1999)

Posted By: ciklon5
The Everly Brothers - All Time Original Hits (1999)

The Everly Brothers - All Time Original Hits (1999)
FLAC (image+.cue+log | 00:37:54 | 212 Mb
Genre: Rock & Roll, Pop Rock, Classic Rock / Label: Rhino Records

The Everly Brothers were American country-influenced rock and roll singers, known for steel-string guitar and close harmony singing, formed by brothers Don Everly born February 1, 1937 and Phil Everly born January 19, 1939 - died January 3, 2014. They had their greatest success between 1957 and 1964. They were inducted into Rock And Roll Hall of Fame in 1986 Performer.

Track List:

1 Bye Bye Love
2 Wake Up Little Susie
3 All I Have To Do Is Dream
4 Bird Dog
5 Devoted To You
6 Problems
7 Take A Message To Mary
8 ('Til) I Kissed You
9 Let It Be Me
10 When Will I Be Loved
11 Cathy's Clown
12 So Sad (To Watch Good Love Go Bad)
13 Ebony Eyes
14 Walk Right Back
15 That's Old Fashioned (That's The Way Love Should Be)
16 Crying In The Rain

Exact Audio Copy V0.99 prebeta 5 from 4. May 2009

EAC extraction logfile from 18. December 2010, 23:59

The Everly Brothers / All-Time Original Hits

Used drive : Optiarc DVD RW AD-7241S Adapter: 5 ID: 0

Read mode : Secure
Utilize accurate stream : Yes
Defeat audio cache : Yes
Make use of C2 pointers : No

Read offset correction : 48
Overread into Lead-In and Lead-Out : No
Fill up missing offset samples with silence : Yes
Delete leading and trailing silent blocks : No
Null samples used in CRC calculations : Yes
Used interface : Native Win32 interface for Win NT & 2000

Used output format : User Defined Encoder
Selected bitrate : 768 kBit/s
Quality : High
Add ID3 tag : No
Command line compressor : D:\Program Files (x86)\Exact Audio Copy\FLAC\FLAC.EXE
Additional command line options : -6 -V -T "ARTIST=%a" -T "TITLE=%t" -T "ALBUM=%g" -T "DATE=%y" -T "TRACKNUMBER=%n" -T "GENRE=%m" -T "COMMENT=%e" %s -o %d


TOC of the extracted CD

Track | Start | Length | Start sector | End sector
––––––––––––––––––––––––––––-
1 | 0:00.32 | 2:21.70 | 32 | 10676
2 | 2:22.27 | 2:03.45 | 10677 | 19946
3 | 4:25.72 | 2:20.73 | 19947 | 30519
4 | 6:46.70 | 2:17.37 | 30520 | 40831
5 | 9:04.32 | 2:25.23 | 40832 | 51729
6 | 11:29.55 | 1:59.37 | 51730 | 60691
7 | 13:29.17 | 2:28.20 | 60692 | 71811
8 | 15:57.37 | 2:24.35 | 71812 | 82646
9 | 18:21.72 | 2:37.45 | 82647 | 94466
10 | 20:59.42 | 2:04.20 | 94467 | 103786
11 | 23:03.62 | 2:26.00 | 103787 | 114736
12 | 25:29.62 | 2:35.53 | 114737 | 126414
13 | 28:05.40 | 3:06.42 | 126415 | 140406
14 | 31:12.07 | 2:18.45 | 140407 | 150801
15 | 33:30.52 | 2:24.55 | 150802 | 161656
16 | 35:55.32 | 1:59.50 | 161657 | 170631


Range status and errors

Selected range

Filename F:\lossless\The Everly Brothers\1999 - All-Time Original Hits\The Everly Brothers - All-Time Original Hits.wav

Peak level 100.0 %
Range quality 100.0 %
Test CRC 3B4EC528
Copy CRC 3B4EC528
Copy OK

No errors occurred


AccurateRip summary

Track 1 accurately ripped (confidence 13) [6B5DCF03]
Track 2 accurately ripped (confidence 13) [F4334AC8]
Track 3 accurately ripped (confidence 13) [E960CF04]
Track 4 accurately ripped (confidence 13) [E1765EC4]
Track 5 accurately ripped (confidence 13) [38AD4C7C]
Track 6 accurately ripped (confidence 13) [DD14B241]
Track 7 accurately ripped (confidence 13) [D43D8CC4]
Track 8 accurately ripped (confidence 12) [AB84DA57]
Track 9 accurately ripped (confidence 13) [63D25537]
Track 10 accurately ripped (confidence 14) [EF5C9E3F]
Track 11 accurately ripped (confidence 13) [0A650343]
Track 12 accurately ripped (confidence 12) [7CD74DE5]
Track 13 accurately ripped (confidence 13) [CCC1B6CD]
Track 14 accurately ripped (confidence 13) [142CD4B2]
Track 15 accurately ripped (confidence 12) [3C1BC350]
Track 16 accurately ripped (confidence 12) [831D93B9]

All tracks accurately ripped

End of status report