Subcategories

The Everly Brothers - The Absolutely Essential (2012)

Posted By: ciklon5
The Everly Brothers - The Absolutely Essential (2012)

The Everly Brothers - The Absolutely Essential (2012)
FLAC (track+cue+log+covers) | 02:21:34 | 755 Mb
Genre: Pop, Rock / Label: Big 3

UK three CD set from the influential Pop duo containing ’60 of their finest recordings. Big 3.

Track List:

Disc: 1
1. Wake Up Little Susie
2. Love Hurts
3. Since You Broke My Heart
4. Stick With Me Baby
5. Rip It Up
6. Muskrat
7. Made To Love
8. Now Is The Hour
9. Problems
10. Baby What You Want Me To Do
11. Grandfather's Clock
12. Lucille
13. Bully Of The Town
14. Nashville Blues
15. My Mammy
16. Barbara Allen
17. Temptation
18. Sigh, Cry, Almost Die
19. When I Grow Too Old To Dream
20. Cathy's Clown

Disc: 2
1. All I Have To Do Is Dream
2. Some Sweet Day
3. Hi-Lili, Hi-Lo
4. Maybe Tomorrow
5. A Change Of Heart
6. The Wayward Wind
7. Brand New Heartache
8. Poor Jenny
9. What Kind Of Girl Are You
10. Love Is Where You Find It
11. When Will I Be Loved
12. ('Til) I Kissed You
13. So Sad (To Watch Good Love Go Bad)
14. Carol Jane
15. Devoted To You
16. Take A Message To Mary
17. Like Strangers
18. Don't Blame Me
19. That's What Yo Do To Me
20. My Gal Sal

Disc: 3
1. Bird Dog
2. That's Just Too Much
3. Be Bop A Lula
4. Let It Be Me
5. Claudette
6. Just In Case
7. I Wonder If I Care As Much
8. Oh, True Love
9. This Little Girl Of Mine
10. Walk Right Back
11. Donna, Donna
12. Should We Tell Him?
13. I Want You To Know
14. Bye Bye Love
15. So How Come (No One Loves Me)
16. Always It's You
17. Down In The Willow Garden
18. You Thrill Me (Through And Through)
19. Ebony Eyes
20. Sleepless Nights


Exact Audio Copy V1.0 beta 3 from 29. August 2011

EAC extraction logfile from 3. February 2018, 21:57

The Everly Brothers / The Absolutely Essential (CD1)

Used drive : ASUS DRW-24F1ST a Adapter: 2 ID: 0

Read mode : Secure
Utilize accurate stream : Yes
Defeat audio cache : No
Make use of C2 pointers : No

Read offset correction : 6
Overread into Lead-In and Lead-Out : No
Fill up missing offset samples with silence : Yes
Delete leading and trailing silent blocks : No
Null samples used in CRC calculations : Yes
Used interface : Native Win32 interface for Win NT & 2000
Gap handling : Appended to previous track

Used output format : User Defined Encoder
Selected bitrate : 768 kBit/s
Quality : High
Add ID3 tag : No
Command line compressor : C:\Program Files (x86)\Exact Audio Copy\FLAC\FLAC.EXE
Additional command line options : -8 -V -T "ARTIST=%artist%" -T "TITLE=%title%" -T "ALBUM=%albumtitle%" -T "DATE=%year%" -T "TRACKNUMBER=%tracknr%" -T "GENRE=%genre%" -T "COMMENT=%comment%" -T "BAND=%albuminterpret%" -T "ALBUMARTIST=%albuminterpret%" -T "COMPOSER=%composer%" %haslyrics%–tag-from-file=LYRICS="%lyricsfile%"%haslyrics% -T "DISCNUMBER=%cdnumber%" -T "TOTALDISCS=%totalcds%" -T "TOTALTRACKS=%numtracks%" %hascover%–picture="%coverfile%"%hascover% %source% -o %dest%


TOC of the extracted CD

Track | Start | Length | Start sector | End sector
––––––––––––––––––––––––––––-
1 | 0:00.00 | 2:03.19 | 0 | 9243
2 | 2:03.19 | 2:23.33 | 9244 | 20001
3 | 4:26.52 | 1:57.45 | 20002 | 28821
4 | 6:24.22 | 1:53.00 | 28822 | 37296
5 | 8:17.22 | 2:15.14 | 37297 | 47435
6 | 10:32.36 | 2:18.26 | 47436 | 57811
7 | 12:50.62 | 2:05.55 | 57812 | 67241
8 | 14:56.42 | 2:39.13 | 67242 | 79179
9 | 17:35.55 | 1:57.47 | 79180 | 88001
10 | 19:33.27 | 2:20.72 | 88002 | 98573
11 | 21:54.24 | 2:22.42 | 98574 | 109265
12 | 24:16.66 | 2:32.40 | 109266 | 120705
13 | 26:49.31 | 2:01.32 | 120706 | 129812
14 | 28:50.63 | 2:39.50 | 129813 | 141787
15 | 31:30.38 | 2:15.05 | 141788 | 151917
16 | 33:45.43 | 4:41.04 | 151918 | 172996
17 | 38:26.47 | 2:14.07 | 172997 | 183053
18 | 40:40.54 | 2:18.08 | 183054 | 193411
19 | 42:58.62 | 2:30.62 | 193412 | 204723
20 | 45:29.49 | 2:27.12 | 204724 | 215760


Track 1

Filename E:\01 The Everly Brothers - Absolutely Essential (CD1) - Wake Up Little Susie.wav

Pre-gap length 0:00:02.00

Peak level 84.2 %
Extraction speed 3.9 X
Track quality 100.0 %
Copy CRC 137D0777
Cannot be verified as accurate (confidence 5) [6B8FBF95], AccurateRip returned [D198B282] (AR v2)
Copy OK

Track 2

Filename E:\02 The Everly Brothers - Absolutely Essential (CD1) - Love Hurts.wav

Peak level 85.3 %
Extraction speed 4.0 X
Track quality 99.9 %
Copy CRC A64256A3
Cannot be verified as accurate (confidence 5) [08156BEF], AccurateRip returned [35E35A14] (AR v2)
Copy OK

Track 3

Filename E:\03 The Everly Brothers - Absolutely Essential (CD1) - Since You Broke My Heart.wav

Peak level 94.7 %
Extraction speed 4.3 X
Track quality 100.0 %
Copy CRC C441D7B8
Cannot be verified as accurate (confidence 5) [DB6A2B0F], AccurateRip returned [CA5FB4DF] (AR v2)
Copy OK

Track 4

Filename E:\04 The Everly Brothers - Absolutely Essential (CD1) - Stick With Me Baby.wav

Peak level 97.9 %
Extraction speed 4.7 X
Track quality 100.0 %
Copy CRC 40732433
Cannot be verified as accurate (confidence 5) [1A9A6CDC], AccurateRip returned [872B52D6] (AR v2)
Copy OK

Track 5

Filename E:\05 The Everly Brothers - Absolutely Essential (CD1) - Rip It Up.wav

Peak level 100.0 %
Extraction speed 5.0 X
Track quality 100.0 %
Copy CRC D6503D69
Cannot be verified as accurate (confidence 5) [D346A17E], AccurateRip returned [612226E7] (AR v2)
Copy OK

Track 6

Filename E:\06 The Everly Brothers - Absolutely Essential (CD1) - Muskrat.wav

Peak level 98.8 %
Extraction speed 5.2 X
Track quality 100.0 %
Copy CRC C46137E1
Cannot be verified as accurate (confidence 5) [2A0133F3], AccurateRip returned [B0A957BA] (AR v2)
Copy OK

Track 7

Filename E:\07 The Everly Brothers - Absolutely Essential (CD1) - Made To Love.wav

Peak level 88.9 %
Extraction speed 5.4 X
Track quality 100.0 %
Copy CRC 2D4B61B2
Cannot be verified as accurate (confidence 5) [95A02530], AccurateRip returned [31EA15E5] (AR v2)
Copy OK

Track 8

Filename E:\08 The Everly Brothers - Absolutely Essential (CD1) - Now Is The Hour.wav

Peak level 89.6 %
Extraction speed 5.7 X
Track quality 100.0 %
Copy CRC 6BB084B4
Cannot be verified as accurate (confidence 5) [30CF45EF], AccurateRip returned [AFAAB8E6] (AR v2)
Copy OK

Track 9

Filename E:\09 The Everly Brothers - Absolutely Essential (CD1) - Problems.wav

Peak level 87.9 %
Extraction speed 5.8 X
Track quality 100.0 %
Copy CRC B415EEE1
Cannot be verified as accurate (confidence 5) [DEB2D7A4], AccurateRip returned [638455F9] (AR v2)
Copy OK

Track 10

Filename E:\10 The Everly Brothers - Absolutely Essential (CD1) - Baby What You Want Me To Do.wav

Peak level 97.2 %
Extraction speed 5.9 X
Track quality 100.0 %
Copy CRC 00930559
Cannot be verified as accurate (confidence 5) [8D98CA13], AccurateRip returned [CE706F9F] (AR v2)
Copy OK

Track 11

Filename E:\11 The Everly Brothers - Absolutely Essential (CD1) - Grandfather's Clock.wav

Peak level 95.9 %
Extraction speed 6.2 X
Track quality 100.0 %
Copy CRC 3014C82A
Cannot be verified as accurate (confidence 5) [F07A61CF], AccurateRip returned [5A46A0E3] (AR v2)
Copy OK

Track 12

Filename E:\12 The Everly Brothers - Absolutely Essential (CD1) - Lucille.wav

Peak level 100.0 %
Extraction speed 6.4 X
Track quality 100.0 %
Copy CRC 36CDE303
Cannot be verified as accurate (confidence 5) [3B9A0556], AccurateRip returned [7384F525] (AR v2)
Copy OK

Track 13

Filename E:\13 The Everly Brothers - Absolutely Essential (CD1) - Bully Of The Town.wav

Peak level 80.5 %
Extraction speed 6.4 X
Track quality 100.0 %
Copy CRC 0BD1C481
Cannot be verified as accurate (confidence 5) [1A54BEAD], AccurateRip returned [3B7E4EE9] (AR v2)
Copy OK

Track 14

Filename E:\14 The Everly Brothers - Absolutely Essential (CD1) - Nashville Blues.wav

Peak level 82.8 %
Extraction speed 6.2 X
Track quality 99.9 %
Copy CRC AD2724C9
Cannot be verified as accurate (confidence 5) [155962EB], AccurateRip returned [DC2E77FB] (AR v2)
Copy OK

Track 15

Filename E:\15 The Everly Brothers - Absolutely Essential (CD1) - My Mammy.wav

Peak level 85.2 %
Extraction speed 6.4 X
Track quality 100.0 %
Copy CRC EC7D9B6B
Cannot be verified as accurate (confidence 5) [832E10C8], AccurateRip returned [1F71AA66] (AR v2)
Copy OK

Track 16

Filename E:\16 The Everly Brothers - Absolutely Essential (CD1) - Barbara Allen.wav

Peak level 84.1 %
Extraction speed 7.2 X
Track quality 100.0 %
Copy CRC EED2F823
Cannot be verified as accurate (confidence 5) [617D7D69], AccurateRip returned [EC7D075A] (AR v2)
Copy OK

Track 17

Filename E:\17 The Everly Brothers - Absolutely Essential (CD1) - Temptation.wav

Peak level 92.7 %
Extraction speed 6.6 X
Track quality 99.9 %
Copy CRC 5D3BE55F
Cannot be verified as accurate (confidence 5) [447D7880], AccurateRip returned [082A2FEB] (AR v2)
Copy OK

Track 18

Filename E:\18 The Everly Brothers - Absolutely Essential (CD1) - Sigh, Cry, Almost Die.wav

Peak level 97.0 %
Extraction speed 6.3 X
Track quality 99.9 %
Copy CRC 95B142FF
Cannot be verified as accurate (confidence 5) [637C7EDD], AccurateRip returned [78DBEC58] (AR v2)
Copy OK

Track 19

Filename E:\19 The Everly Brothers - Absolutely Essential (CD1) - When I Grow Too Old To Dream.wav

Peak level 76.9 %
Extraction speed 7.2 X
Track quality 100.0 %
Copy CRC 9ADA8F1D
Cannot be verified as accurate (confidence 5) [9A862B13], AccurateRip returned [B202AB41] (AR v2)
Copy OK

Track 20

Filename E:\20 The Everly Brothers - Absolutely Essential (CD1) - Cathy's Clown.wav

Peak level 84.4 %
Extraction speed 7.7 X
Track quality 100.0 %
Copy CRC AD10AF81
Cannot be verified as accurate (confidence 5) [39A16583], AccurateRip returned [A379F613] (AR v2)
Copy OK


No tracks could be verified as accurate
You may have a different pressing from the one(s) in the database

No errors occurred

End of status report

Exact Audio Copy V1.0 beta 3 from 29. August 2011

EAC extraction logfile from 3. February 2018, 22:56

The Everly Brothers / The Absolutely Essential (CD2)

Used drive : ASUS DRW-24F1ST a Adapter: 2 ID: 0

Read mode : Secure
Utilize accurate stream : Yes
Defeat audio cache : No
Make use of C2 pointers : No

Read offset correction : 6
Overread into Lead-In and Lead-Out : No
Fill up missing offset samples with silence : Yes
Delete leading and trailing silent blocks : No
Null samples used in CRC calculations : Yes
Used interface : Native Win32 interface for Win NT & 2000
Gap handling : Appended to previous track

Used output format : User Defined Encoder
Selected bitrate : 768 kBit/s
Quality : High
Add ID3 tag : No
Command line compressor : C:\Program Files (x86)\Exact Audio Copy\FLAC\FLAC.EXE
Additional command line options : -8 -V -T "ARTIST=%artist%" -T "TITLE=%title%" -T "ALBUM=%albumtitle%" -T "DATE=%year%" -T "TRACKNUMBER=%tracknr%" -T "GENRE=%genre%" -T "COMMENT=%comment%" -T "BAND=%albuminterpret%" -T "ALBUMARTIST=%albuminterpret%" -T "COMPOSER=%composer%" %haslyrics%–tag-from-file=LYRICS="%lyricsfile%"%haslyrics% -T "DISCNUMBER=%cdnumber%" -T "TOTALDISCS=%totalcds%" -T "TOTALTRACKS=%numtracks%" %hascover%–picture="%coverfile%"%hascover% %source% -o %dest%


TOC of the extracted CD

Track | Start | Length | Start sector | End sector
––––––––––––––––––––––––––––-
1 | 0:00.00 | 2:19.15 | 0 | 10439
2 | 2:19.15 | 2:25.30 | 10440 | 21344
3 | 4:44.45 | 1:44.36 | 21345 | 29180
4 | 6:29.06 | 2:06.18 | 29181 | 38648
5 | 8:35.24 | 2:07.18 | 38649 | 48191
6 | 10:42.42 | 2:26.36 | 48192 | 59177
7 | 13:09.03 | 2:16.31 | 59178 | 69408
8 | 15:25.34 | 2:18.65 | 69409 | 79823
9 | 17:44.24 | 1:57.12 | 79824 | 88610
10 | 19:41.36 | 1:48.19 | 88611 | 96729
11 | 21:29.55 | 2:05.10 | 96730 | 106114
12 | 23:34.65 | 2:19.53 | 106115 | 116592
13 | 25:54.43 | 2:37.12 | 116593 | 128379
14 | 28:31.55 | 1:51.73 | 128380 | 136777
15 | 30:23.53 | 2:23.56 | 136778 | 147558
16 | 32:47.34 | 2:28.15 | 147559 | 158673
17 | 35:15.49 | 2:04.23 | 158674 | 167996
18 | 37:19.72 | 3:26.52 | 167997 | 183498
19 | 40:46.49 | 2:03.70 | 183499 | 192793
20 | 42:50.44 | 2:50.01 | 192794 | 205544


Track 1

Filename E:\01 The Everly Brothers - Absolutely Essential (CD2) - All I Have To Do Is Dream.wav

Pre-gap length 0:00:02.00

Peak level 99.0 %
Extraction speed 2.7 X
Track quality 100.0 %
Copy CRC DCF35856
Cannot be verified as accurate (confidence 3) [89FA4883], AccurateRip returned [5297F1F9] (AR v2)
Copy OK

Track 2

Filename E:\02 The Everly Brothers - Absolutely Essential (CD2) - Some Sweet Day.wav

Peak level 78.9 %
Extraction speed 2.9 X
Track quality 99.9 %
Copy CRC 2ADC3AB9
Cannot be verified as accurate (confidence 3) [23AADC28], AccurateRip returned [306EADCE] (AR v2)
Copy OK

Track 3

Filename E:\03 The Everly Brothers - Absolutely Essential (CD2) - Hi-Lili, Hi-Lo.wav

Peak level 73.1 %
Extraction speed 3.0 X
Track quality 100.0 %
Copy CRC 0F714819
Cannot be verified as accurate (confidence 3) [34B16718], AccurateRip returned [4A626B42] (AR v2)
Copy OK

Track 4

Filename E:\04 The Everly Brothers - Absolutely Essential (CD2) - Maybe Tomorrow.wav

Peak level 85.9 %
Extraction speed 3.3 X
Track quality 100.0 %
Copy CRC 3AF436D6
Cannot be verified as accurate (confidence 3) [4CF0B1AC], AccurateRip returned [05D9CDAA] (AR v2)
Copy OK

Track 5

Filename E:\05 The Everly Brothers - Absolutely Essential (CD2) - A Change Of Heart.wav

Peak level 69.6 %
Extraction speed 3.4 X
Track quality 100.0 %
Copy CRC 042D6B16
Cannot be verified as accurate (confidence 4) [CC890BA9], AccurateRip returned [12355D3E] (AR v2)
Copy OK

Track 6

Filename E:\06 The Everly Brothers - Absolutely Essential (CD2) - The Wayward Wind.wav

Peak level 79.6 %
Extraction speed 3.6 X
Track quality 100.0 %
Copy CRC 8CD66F84
Cannot be verified as accurate (confidence 4) [08B2F4BB], AccurateRip returned [51B8DC51] (AR v2)
Copy OK

Track 7

Filename E:\07 The Everly Brothers - Absolutely Essential (CD2) - Brand New Heartache.wav

Peak level 91.2 %
Extraction speed 3.6 X
Track quality 99.9 %
Copy CRC E8504C74
Cannot be verified as accurate (confidence 4) [49463FCD], AccurateRip returned [DF077330] (AR v2)
Copy OK

Track 8

Filename E:\08 The Everly Brothers - Absolutely Essential (CD2) - Poor Jenny.wav

Peak level 86.6 %
Extraction speed 3.7 X
Track quality 100.0 %
Copy CRC 6B145291
Cannot be verified as accurate (confidence 4) [2D990E8D], AccurateRip returned [0DBF829F] (AR v2)
Copy OK

Track 9

Filename E:\09 The Everly Brothers - Absolutely Essential (CD2) - What Kind Of Girl Are You.wav

Peak level 97.0 %
Extraction speed 3.7 X
Track quality 99.9 %
Copy CRC 69E16940
Cannot be verified as accurate (confidence 3) [A2877BF5], AccurateRip returned [8C920BBE] (AR v2)
Copy OK

Track 10

Filename E:\10 The Everly Brothers - Absolutely Essential (CD2) - Love Is Where You Find It.wav

Peak level 82.0 %
Extraction speed 4.0 X
Track quality 100.0 %
Copy CRC 5ECD418C
Cannot be verified as accurate (confidence 4) [552CC89B], AccurateRip returned [3B9080C6] (AR v2)
Copy OK

Track 11

Filename E:\11 The Everly Brothers - Absolutely Essential (CD2) - When Will I Be Loved.wav

Peak level 97.2 %
Extraction speed 3.8 X
Track quality 99.9 %
Copy CRC C6D520AD
Cannot be verified as accurate (confidence 4) [3305A643], AccurateRip returned [0A43CDA4] (AR v2)
Copy OK

Track 12

Filename E:\12 The Everly Brothers - Absolutely Essential (CD2) - ('Til) I Kissed You.wav

Peak level 88.5 %
Extraction speed 4.2 X
Track quality 100.0 %
Copy CRC DA3D74BF
Cannot be verified as accurate (confidence 4) [D55E02B1], AccurateRip returned [BCE8E8D6] (AR v2)
Copy OK

Track 13

Filename E:\13 The Everly Brothers - Absolutely Essential (CD2) - So Sad (To Watch Good Love Go Bad).wav

Peak level 84.8 %
Extraction speed 4.5 X
Track quality 100.0 %
Copy CRC D682BDBF
Cannot be verified as accurate (confidence 4) [573BCCF5], AccurateRip returned [A5DC7E69] (AR v2)
Copy OK

Track 14

Filename E:\14 The Everly Brothers - Absolutely Essential (CD2) - Carol Jane.wav

Peak level 88.1 %
Extraction speed 4.5 X
Track quality 100.0 %
Copy CRC 693FCD20
Cannot be verified as accurate (confidence 4) [64D16DF4], AccurateRip returned [EEAABD7B] (AR v2)
Copy OK

Track 15

Filename E:\15 The Everly Brothers - Absolutely Essential (CD2) - Devoted To You.wav

Peak level 92.7 %
Extraction speed 4.3 X
Track quality 99.9 %
Copy CRC C9662213
Cannot be verified as accurate (confidence 4) [0CA63102], AccurateRip returned [DEF50396] (AR v2)
Copy OK

Track 16

Filename E:\16 The Everly Brothers - Absolutely Essential (CD2) - Take A Message To Mary.wav

Peak level 91.8 %
Extraction speed 4.7 X
Track quality 100.0 %
Copy CRC F1D6514D
Cannot be verified as accurate (confidence 4) [C7492859], AccurateRip returned [3B203D33] (AR v2)
Copy OK

Track 17

Filename E:\17 The Everly Brothers - Absolutely Essential (CD2) - Like Strangers.wav

Peak level 72.9 %
Extraction speed 4.8 X
Track quality 100.0 %
Copy CRC 97E238F3
Cannot be verified as accurate (confidence 4) [A42F2E4E], AccurateRip returned [E0BB2576] (AR v2)
Copy OK

Track 18

Filename E:\18 The Everly Brothers - Absolutely Essential (CD2) - Don't Blame Me.wav

Peak level 77.3 %
Extraction speed 4.9 X
Track quality 100.0 %
Copy CRC 6EFFF12A
Cannot be verified as accurate (confidence 4) [4CE30E4A], AccurateRip returned [325B98E1] (AR v2)
Copy OK

Track 19

Filename E:\19 The Everly Brothers - Absolutely Essential (CD2) - That's What You Do To Me.wav

Peak level 97.8 %
Extraction speed 5.1 X
Track quality 100.0 %
Copy CRC B2B48B88
Cannot be verified as accurate (confidence 4) [49361F5D], AccurateRip returned [AEBCB516] (AR v2)
Copy OK

Track 20

Filename E:\20 The Everly Brothers - Absolutely Essential (CD2) - My Gal Sal.wav

Peak level 83.2 %
Extraction speed 4.7 X
Track quality 99.9 %
Copy CRC D11316B6
Cannot be verified as accurate (confidence 4) [E5BA710C], AccurateRip returned [28CEC1F9] (AR v2)
Copy OK


No tracks could be verified as accurate
You may have a different pressing from the one(s) in the database

No errors occurred

End of status report


Exact Audio Copy V1.0 beta 3 from 29. August 2011

EAC extraction logfile from 3. February 2018, 23:42

The Everly Brothers / The Absolutely Essential (CD3)

Used drive : ASUS DRW-24F1ST a Adapter: 2 ID: 0

Read mode : Secure
Utilize accurate stream : Yes
Defeat audio cache : No
Make use of C2 pointers : No

Read offset correction : 6
Overread into Lead-In and Lead-Out : No
Fill up missing offset samples with silence : Yes
Delete leading and trailing silent blocks : No
Null samples used in CRC calculations : Yes
Used interface : Native Win32 interface for Win NT & 2000
Gap handling : Appended to previous track

Used output format : User Defined Encoder
Selected bitrate : 768 kBit/s
Quality : High
Add ID3 tag : No
Command line compressor : C:\Program Files (x86)\Exact Audio Copy\FLAC\FLAC.EXE
Additional command line options : -8 -V -T "ARTIST=%artist%" -T "TITLE=%title%" -T "ALBUM=%albumtitle%" -T "DATE=%year%" -T "TRACKNUMBER=%tracknr%" -T "GENRE=%genre%" -T "COMMENT=%comment%" -T "BAND=%albuminterpret%" -T "ALBUMARTIST=%albuminterpret%" -T "COMPOSER=%composer%" %haslyrics%–tag-from-file=LYRICS="%lyricsfile%"%haslyrics% -T "DISCNUMBER=%cdnumber%" -T "TOTALDISCS=%totalcds%" -T "TOTALTRACKS=%numtracks%" %hascover%–picture="%coverfile%"%hascover% %source% -o %dest%


TOC of the extracted CD

Track | Start | Length | Start sector | End sector
––––––––––––––––––––––––––––-
1 | 0:00.00 | 2:14.50 | 0 | 10099
2 | 2:14.50 | 2:41.03 | 10100 | 22177
3 | 4:55.53 | 2:18.25 | 22178 | 32552
4 | 7:14.03 | 2:38.13 | 32553 | 44415
5 | 9:52.16 | 2:13.19 | 44416 | 54409
6 | 12:05.35 | 2:13.10 | 54410 | 64394
7 | 14:18.45 | 2:12.06 | 64395 | 74300
8 | 16:30.51 | 2:14.00 | 74301 | 84350
9 | 18:44.51 | 2:16.69 | 84351 | 94619
10 | 21:01.45 | 2:33.30 | 94620 | 106124
11 | 23:35.00 | 2:15.50 | 106125 | 116299
12 | 25:50.50 | 2:07.45 | 116300 | 125869
13 | 27:58.20 | 2:03.72 | 125870 | 135166
14 | 30:02.17 | 2:25.52 | 135167 | 146093
15 | 32:27.69 | 2:18.02 | 146094 | 156445
16 | 34:45.71 | 2:30.32 | 156446 | 167727
17 | 37:16.28 | 3:02.46 | 167728 | 181423
18 | 40:18.74 | 2:05.45 | 181424 | 190843
19 | 42:24.44 | 3:07.43 | 190844 | 204911
20 | 45:32.12 | 2:24.53 | 204912 | 215764


Track 1

Filename E:\01 The Everly Brothers - Absolutely Essential (CD3) - Bird Dog.wav

Pre-gap length 0:00:02.00

Peak level 89.4 %
Extraction speed 2.7 X
Track quality 100.0 %
Copy CRC 525A17B9
Cannot be verified as accurate (confidence 3) [CEE91A27], AccurateRip returned [78D62731] (AR v2)
Copy OK

Track 2

Filename E:\02 The Everly Brothers - Absolutely Essential (CD3) - That's Just Too Much.wav

Peak level 92.6 %
Extraction speed 3.0 X
Track quality 100.0 %
Copy CRC 023D92CC
Cannot be verified as accurate (confidence 3) [2E2CEDBA], AccurateRip returned [EA7163C0] (AR v2)
Copy OK

Track 3

Filename E:\03 The Everly Brothers - Absolutely Essential (CD3) - Be-Bop-A-Lula.wav

Peak level 87.9 %
Extraction speed 3.1 X
Track quality 100.0 %
Copy CRC 5FBB2141
Cannot be verified as accurate (confidence 3) [996A03A0], AccurateRip returned [517BC057] (AR v2)
Copy OK

Track 4

Filename E:\04 The Everly Brothers - Absolutely Essential (CD3) - Let It Be Me.wav

Peak level 86.1 %
Extraction speed 3.3 X
Track quality 100.0 %
Copy CRC D534BF2A
Cannot be verified as accurate (confidence 3) [1670312D], AccurateRip returned [8D5CEAD3] (AR v2)
Copy OK

Track 5

Filename E:\05 The Everly Brothers - Absolutely Essential (CD3) - Claudette.wav

Peak level 87.7 %
Extraction speed 3.5 X
Track quality 100.0 %
Copy CRC EE590881
Cannot be verified as accurate (confidence 3) [7562EF7D], AccurateRip returned [8DC07BFC] (AR v2)
Copy OK

Track 6

Filename E:\06 The Everly Brothers - Absolutely Essential (CD3) - Just In Case.wav

Peak level 97.0 %
Extraction speed 3.5 X
Track quality 99.9 %
Copy CRC C4632EA5
Cannot be verified as accurate (confidence 3) [3B20DC69], AccurateRip returned [CC66A148] (AR v2)
Copy OK

Track 7

Filename E:\07 The Everly Brothers - Absolutely Essential (CD3) - I Wonder If I Care As Much.wav

Peak level 90.7 %
Extraction speed 3.7 X
Track quality 100.0 %
Copy CRC D36EF0FE
Cannot be verified as accurate (confidence 3) [2BA30659], AccurateRip returned [55EB2DC6] (AR v2)
Copy OK

Track 8

Filename E:\08 The Everly Brothers - Absolutely Essential (CD3) - Oh, True Love.wav

Peak level 86.4 %
Extraction speed 3.9 X
Track quality 100.0 %
Copy CRC 5985D9B7
Cannot be verified as accurate (confidence 3) [761E56D4], AccurateRip returned [7449F712] (AR v2)
Copy OK

Track 9

Filename E:\09 The Everly Brothers - Absolutely Essential (CD3) - This Little Girl Of Mine.wav

Peak level 87.6 %
Extraction speed 4.1 X
Track quality 100.0 %
Copy CRC 7158B0C2
Cannot be verified as accurate (confidence 3) [17E9D01D], AccurateRip returned [DCF786BC] (AR v2)
Copy OK

Track 10

Filename E:\10 The Everly Brothers - Absolutely Essential (CD3) - Walk Right Back.wav

Peak level 74.4 %
Extraction speed 4.2 X
Track quality 100.0 %
Copy CRC 5F26A942
Cannot be verified as accurate (confidence 3) [8C1F2283], AccurateRip returned [F9CC55BE] (AR v2)
Copy OK

Track 11

Filename E:\11 The Everly Brothers - Absolutely Essential (CD3) - Donna Donna.wav

Peak level 97.9 %
Extraction speed 4.3 X
Track quality 100.0 %
Copy CRC 327B1918
Cannot be verified as accurate (confidence 3) [528072BC], AccurateRip returned [525CC0FF] (AR v2)
Copy OK

Track 12

Filename E:\12 The Everly Brothers - Absolutely Essential (CD3) - Should We Tell Him¿.wav

Peak level 84.2 %
Extraction speed 4.4 X
Track quality 100.0 %
Copy CRC 6BC18DC6
Cannot be verified as accurate (confidence 3) [84854F18], AccurateRip returned [F2B63099] (AR v2)
Copy OK

Track 13

Filename E:\13 The Everly Brothers - Absolutely Essential (CD3) - I Want You To Know.wav

Peak level 85.6 %
Extraction speed 4.5 X
Track quality 100.0 %
Copy CRC D18EC3F1
Cannot be verified as accurate (confidence 3) [1BE68477], AccurateRip returned [A93778E9] (AR v2)
Copy OK

Track 14

Filename E:\14 The Everly Brothers - Absolutely Essential (CD3) - Bye Bye Love.wav

Peak level 98.8 %
Extraction speed 4.6 X
Track quality 100.0 %
Copy CRC 97444D6F
Cannot be verified as accurate (confidence 3) [C0549F89], AccurateRip returned [50EE2E37] (AR v2)
Copy OK

Track 15

Filename E:\15 The Everly Brothers - Absolutely Essential (CD3) - So How Come (No One Loves Me).wav

Peak level 97.0 %
Extraction speed 4.7 X
Track quality 100.0 %
Copy CRC 822CA2F9
Cannot be verified as accurate (confidence 3) [BC6C45A3], AccurateRip returned [6994FED1] (AR v2)
Copy OK

Track 16

Filename E:\16 The Everly Brothers - Absolutely Essential (CD3) - Always It's You.wav

Peak level 68.3 %
Extraction speed 5.0 X
Track quality 100.0 %
Copy CRC FF3DADA4
Cannot be verified as accurate (confidence 3) [CD0EAD2F], AccurateRip returned [81F2BFDF] (AR v2)
Copy OK

Track 17

Filename E:\17 The Everly Brothers - Absolutely Essential (CD3) - Down In The Willow Garden.wav

Peak level 89.4 %
Extraction speed 4.8 X
Track quality 99.9 %
Copy CRC 11FCA547
Cannot be verified as accurate (confidence 3) [041F4731], AccurateRip returned [0DE246E8] (AR v2)
Copy OK

Track 18

Filename E:\18 The Everly Brothers - Absolutely Essential (CD3) - You Thrill Me (Through And Through).wav

Peak level 82.6 %
Extraction speed 4.9 X
Track quality 100.0 %
Copy CRC B529B827
Cannot be verified as accurate (confidence 3) [4F17B786], AccurateRip returned [79277551] (AR v2)
Copy OK

Track 19

Filename E:\19 The Everly Brothers - Absolutely Essential (CD3) - Ebony Eyes.wav

Peak level 93.8 %
Extraction speed 5.0 X
Track quality 99.9 %
Copy CRC 1380566E
Cannot be verified as accurate (confidence 3) [6BE2DCB1], AccurateRip returned [E52F11E7] (AR v2)
Copy OK

Track 20

Filename E:\20 The Everly Brothers - Absolutely Essential (CD3) - Sleepless Nights.wav

Peak level 74.4 %
Extraction speed 5.1 X
Track quality 100.0 %
Copy CRC BFFC479E
Cannot be verified as accurate (confidence 3) [70B50561], AccurateRip returned [061A5EFA] (AR v2)
Copy OK


No tracks could be verified as accurate
You may have a different pressing from the one(s) in the database

No errors occurred

End of status report