Subcategories

The Fallen Angels - Happy Ever After (1998)

Posted By: tirexiss
The Fallen Angels - Happy Ever After (1998)

The Fallen Angels - Happy Ever After (1998)
EAC | FLAC (image+.cue, log) | Covers Included | 42:21 | 281 MB
Genre: World, Celtic, Acapella | Label: Tara Music Company | Catalog: 4005

This Irish female vocal quartet sings beautifully, but its aggressively eclectic repertoire sometimes works against it. The best and worst of the group's approach are both in evidence on this album, which features traditional material like "Aililiu Na Gamhna" and "She Moved Through the Fair," alongside covers of songs by Neil Young ("Love Is a Rose"), Julia Fordham (the title track), and Sting ("Fragile"). It's the folkier material that comes off the best – on "Aililiu Na Gamhna" and "Tha Mullad" the backing harmonies add richness and complexity to the traditional tune, and the group's arrangement of "She Moved Through the Fair" is spare and lovely. But the pop tunes have two strikes against them. First of all, they are poorly chosen; "Love Is a Rose" may resonate with Baby Boomers, but its hippy-dippy sentiments are bound to sound awfully dated to most listeners under the age of 45. And Sting's "Fragile" is simply a bad song, its bathetic fatuity uncomfortably exposed in this bare-bones arrangement. Julia Fordham's "Happily Ever After" fares a bit better, but a halfhearted percussion accompaniment leaves it sounding naked, and not in a good way. This album is pleasant, but not strongly recommended.

The Fallen Angels - Happy Ever After (1998)

Track List:

01. Happy Ever After (03:52)
02. Millworker (03:35)
03. Ailliliú Na Gamhna (01:46)
04. Love Is A Rose (02:03)
05. Throwing Doves (02:27)
06.Sunrise, Sunset (03:16)
07. Virtual Strangers (02:44)
08. The Greatest Gift (03:11)
09. Tha Mullad (01:42)
10. She Moved Through The Fair (03:53)
11. Madam I'm A Darling (02:06)
12. Starfish And Coffee (02:19)
13. Fragile (02:51)
14. That Lonesome Road (02:03)
15. I Saw Jesus (03:43)

Performers:
Hailey Kaley Murphy (Vocal)
Bridget Heffernan (Vocal)
Joan Macdermott (Vocal)
Ursula Connolly (Vocal)
Dave Pegg (Vocal) /ex. Jethro Tull/
Anth Kelly (Percussion)

Exact Audio Copy V1.1 from 23. June 2015

Отчёт EAC об извлечении, выполненном 17. июня 2017, 17:12

The Fallen Angels / Happy Ever After

Дисковод: PIONEER DVD-RW DVR-221L Adapter: 2 ID: 1

Режим чтения : Достоверность
Использование точного потока : Да
Отключение кэша аудио : Да
Использование указателей C2 : Нет

Коррекция смещения при чтении : 6
Способность читать области Lead-in и Lead-out : Нет
Заполнение пропущенных сэмплов тишиной : Да
Удаление блоков с тишиной в начале и конце : Нет
При вычислениях CRC использовались нулевые сэмплы : Да
Интерфейс : Установленный внешний ASPI-интерфейс

Выходной формат : Пользовательский кодировщик
Выбранный битрейт : 128 kBit/s
Качество : Высокий
Добавление ID3-тега : Нет
Утилита сжатия : C:\Program Files\Exact Audio Copy\FLAC\FLAC.EXE
Дополнительные параметры : -V -8 %source%


TOC извлечённого CD

Трек | Старт | Длительность | Начальный сектор | Конечный сектор
––––––––––––––––––––––––––––––––––-
1 | 0:00.00 | 3:54.52 | 0 | 17601
2 | 3:54.52 | 3:39.23 | 17602 | 34049
3 | 7:34.00 | 1:49.45 | 34050 | 42269
4 | 9:23.45 | 2:05.60 | 42270 | 51704
5 | 11:29.30 | 2:30.60 | 51705 | 63014
6 | 14:00.15 | 3:18.72 | 63015 | 77936
7 | 17:19.12 | 2:47.68 | 77937 | 90529
8 | 20:07.05 | 3:13.47 | 90530 | 105051
9 | 23:20.52 | 1:46.28 | 105052 | 113029
10 | 25:07.05 | 3:56.55 | 113030 | 130784
11 | 29:03.60 | 2:09.35 | 130785 | 140494
12 | 31:13.20 | 2:22.07 | 140495 | 151151
13 | 33:35.27 | 2:55.13 | 151152 | 164289
14 | 36:30.40 | 2:06.37 | 164290 | 173776
15 | 38:37.02 | 3:43.48 | 173777 | 190549


Характеристики диапазона извлечения и сообщения об ошибках

Выбранный диапазон

Имя файла D:\Мусор\The Fallen Angels - Happy Ever After - 1998.wav

Пиковый уровень 99.9 %
Скорость извлечения 6.6 X
Качество диапазона 100.0 %
CRC теста 2B5743D9
CRC копии 2B5743D9
Копирование… OK

Ошибок не произошло


AccurateRip: сводка

Трек 1 отсутствует в базе данных
Трек 2 отсутствует в базе данных
Трек 3 отсутствует в базе данных
Трек 4 отсутствует в базе данных
Трек 5 отсутствует в базе данных
Трек 6 отсутствует в базе данных
Трек 7 отсутствует в базе данных
Трек 8 отсутствует в базе данных
Трек 9 отсутствует в базе данных
Трек 10 отсутствует в базе данных
Трек 11 отсутствует в базе данных
Трек 12 отсутствует в базе данных
Трек 13 отсутствует в базе данных
Трек 14 отсутствует в базе данных
Трек 15 отсутствует в базе данных

Ни одного трека нет в базе AccurateRip

Конец отчёта

==== Контрольная сумма отчёта 820A9C99632810073EBF15DBBCC6B9589CC9B494C4297854615084A5B441F837 ====

The Fallen Angels - Happy Ever After (1998)

Thanks to the Original ripper moiseykin!

Download: