Subcategories

The Hamsters - Pet Sounds: 10 Years of Rodent Rock (1998) 2CDs

Posted By: Designol
The Hamsters - Pet Sounds: 10 Years of Rodent Rock (1998) 2CDs

The Hamsters - Pet Sounds: 10 Years of Rodent Rock (1998) 2CDs
EAC | FLAC | Image (Cue&Log) ~ 994 Mb | Mp3 (CBR320) ~ 335 Mb | Scans ~ 95 Mb
Label: Rockin' Rodent Recordings | # HAMSTER CD14 | Time: 02:25:38
Blues-Rock, Southern Rock, Boogie Rock, Hard Rock

Pet Sounds: 10 Years of Rodent Rock is a double CD compilation that contains 34 tracks and is a combination of a 'greatest hits' type collection along with songs from the archives that have never been released on CD before.

If like me you have enjoyed Hendrix music, and the solid rock of ZZ Top, you will love this album. Mainly live, from a three piece band that really rocks. Without doubt one of the most hard working bands in the country, this album reflects totally the live sound and feel they have for the music they play. Hardly a dud track on either of the CD's, well mixed and one that I never get tired of listening to. Yes you will know most of the original recordings, but mixed with some original material this is well worth the money. You will not be disappointed.

Review by Dave Osborn, Amazon.co.uk

A double CD of choice Hamster tracks from 1988 to 1998.The album captures all the fire and drive of the Hamsters live. If you are of an age that you missed Jimi Hendrix in the flesh. These Rockin' Rodents come mighty close.The mix of hendrix and z.z.top covers together with original material just cry out to be played LOUD.

Review by M. C. Fullard, Amazon.co.uk

Based in Southend, Essex, England, this blues rock trio was formed at a rehearsal on 1 April 1987 by ex-Kursaal Flyers member ‘Snail’s Pace Slim’ (b. Barry Martin, Essex, England; guitar/vocals). Named after an alias used by the Sex Pistols, Martin, Andy ‘Zsa Zsa’ Billups (bass) and Rev. Otis (drums) began playing locally, their powerful live performances belying the inoffensiveness of their name. Setting up their own mailing list to promote records and gigs, they currently hold over 20, 000 names on database, justifying their strong belief in self-promotion. Perennial regulars on the club/pub circuit in the south of England, the enthusiasm of the band’s loyal live following easily outweighs the harsh criticism meted out to them by members of the press. They have also released several albums to date, including their 1990 CD debut Electric Hamsterland, which consisted entirely of Jimi Hendrix cover versions.

Allmusic.com

The Hamsters - Pet Sounds: 10 Years of Rodent Rock (1998) 2CDs

The Hamsters - Pet Sounds: 10 Years of Rodent Rock (1998) 2CDs



Tracklist:

CD1 (1:11:45)

01. Fire (3:42)
02. La Grange (5:49)
03. Mercury Blues (6:37)
04. Sweet Little Lisa (4:45)
05. Cadillac Walk (4:49)
06. Ju Ju Man (3:19)
07. Climbing The Corporate Ladder (Early Version) (4:47)
08. Guitar Bug (3:33)
09. Heat Of The Night (5:56)
10. Black Monday (3:37)
11. Chevrolet (3:11)
12. Route 666 (6:18)
13. Boogie Man (3:53)
14. Only Rock 'n' Roll (3:06)
15. Room Full Of Mirrors (4:32)
16. Stone Free (3:50)


CD2 (1:13:53)

01. Little Wing (6:31)
02. Straight Ahead (2:22)
03. If 6 Was 9 (3:09)
04. Machine Gun (0:43)
05. Voodoo Chile (5:53)
06. Hey, Baby (Land Of The Rising Sun) (5:15)
07. Moon, Turn The Tides Gently Away… (1:18)
08. Midnight (3:31)
09. Pali Gap (2:27)
10. Sunshine Of Your Love (2:34)
11. She's Just Killing Me (5:24)
12. Fool For Your Stockings (6:35)
13. Can't Stop Rockin' (3:32)
14. My Head's In Mississippi (4:10)
15. Pincushion (4:32)
16. Got Me Under Pressure (3:26)
17. Blues For The Blues (6:13)
18. All Along The Watchtower (6:17)


Exact Audio Copy V1.0 beta 1 from 15. November 2010

EAC extraction logfile from 17. April 2011, 11:23

The Hamsters / Pet Sounds (CD1)

Used drive : HL-DT-STDVD-RAM GH22NP20 Adapter: 0 ID: 0

Read mode : Secure
Utilize accurate stream : Yes
Defeat audio cache : Yes
Make use of C2 pointers : No

Read offset correction : 102
Overread into Lead-In and Lead-Out : No
Fill up missing offset samples with silence : Yes
Delete leading and trailing silent blocks : No
Null samples used in CRC calculations : Yes
Used interface : Native Win32 interface for Win NT & 2000

Used output format : User Defined Encoder
Selected bitrate : 768 kBit/s
Quality : High
Add ID3 tag : No
Command line compressor : C:\Program Files\Exact Audio Copy\FLAC\FLAC.EXE
Additional command line options : -6 -V -T "ARTIST=%a" -T "TITLE=%t" -T "ALBUM=%g" -T "DATE=%y" -T "TRACKNUMBER=%n" -T "GENRE=%m" -T "COMMENT=%e" %j–picture="%i"%j %s -o %d


TOC of the extracted CD

Track | Start | Length | Start sector | End sector
––––––––––––––––––––––––––––-
1 | 0:00.00 | 3:41.39 | 0 | 16613
2 | 3:41.39 | 5:49.25 | 16614 | 42813
3 | 9:30.64 | 6:37.37 | 42814 | 72625
4 | 16:08.26 | 4:45.28 | 72626 | 94028
5 | 20:53.54 | 4:49.17 | 94029 | 115720
6 | 25:42.71 | 3:18.46 | 115721 | 130616
7 | 29:01.42 | 4:46.55 | 130617 | 152121
8 | 33:48.22 | 3:33.02 | 152122 | 168098
9 | 37:21.24 | 5:56.25 | 168099 | 194823
10 | 43:17.49 | 3:37.35 | 194824 | 211133
11 | 46:55.09 | 3:10.63 | 211134 | 225446
12 | 50:05.72 | 6:18.00 | 225447 | 253796
13 | 56:23.72 | 3:53.00 | 253797 | 271271
14 | 60:16.72 | 3:05.52 | 271272 | 285198
15 | 63:22.49 | 4:32.28 | 285199 | 305626
16 | 67:55.02 | 3:49.60 | 305627 | 322861


Range status and errors

Selected range

Filename E:\1donagrm\blues\The Hamsters - Pet Sounds (CD1).wav

Peak level 100.0 %
Extraction speed 0.1 X
Range quality 100.0 %
Copy CRC 49F1C10F
Copy OK

No errors occurred


AccurateRip summary

Track 1 accurately ripped (confidence 2) [B0553A6B]
Track 2 accurately ripped (confidence 2) [6AA131C4]
Track 3 accurately ripped (confidence 2) [7E1A922B]
Track 4 accurately ripped (confidence 2) [0D5ACBDB]
Track 5 accurately ripped (confidence 2) [FBE50367]
Track 6 accurately ripped (confidence 2) [D06AC230]
Track 7 accurately ripped (confidence 2) [6695A0C3]
Track 8 accurately ripped (confidence 2) [7E82E570]
Track 9 accurately ripped (confidence 2) [0A1227B6]
Track 10 accurately ripped (confidence 2) [5C05924D]
Track 11 accurately ripped (confidence 2) [3D92F56F]
Track 12 accurately ripped (confidence 2) [55C0D880]
Track 13 accurately ripped (confidence 2) [099CA424]
Track 14 accurately ripped (confidence 2) [7B8223E3]
Track 15 accurately ripped (confidence 2) [52936A96]
Track 16 accurately ripped (confidence 2) [422DBD4C]

All tracks accurately ripped

End of status report

==== Log checksum B03F3E70970AA259A467FA2E085721B6D7D77385C3155B0CA3CDF6C63BFFE714 ====

[CUETools log; Date: 06.01.2018 23:42:07; Version: 2.1.4]
[CTDB TOCID: ySSI55MilhN4BnfRLUvscQnu8W8-] found.
Track | CTDB Status
1 | (4/4) Accurately ripped
2 | (4/4) Accurately ripped
3 | (4/4) Accurately ripped
4 | (4/4) Accurately ripped
5 | (4/4) Accurately ripped
6 | (4/4) Accurately ripped
7 | (4/4) Accurately ripped
8 | (4/4) Accurately ripped
9 | (4/4) Accurately ripped
10 | (4/4) Accurately ripped
11 | (4/4) Accurately ripped
12 | (4/4) Accurately ripped
13 | (4/4) Accurately ripped
14 | (4/4) Accurately ripped
15 | (4/4) Accurately ripped
16 | (4/4) Accurately ripped
[AccurateRip ID: 002baed4-0206a85e-dc10d010] found.
Track [ CRC | V2 ] Status
01 [b0553a6b|44e6a144] (2+4/6) Accurately ripped
02 [6aa131c4|dde3c14e] (2+4/6) Accurately ripped
03 [7e1a922b|8448bd42] (2+4/6) Accurately ripped
04 [0d5acbdb|562e5322] (2+4/6) Accurately ripped
05 [fbe50367|8a5126c2] (2+4/6) Accurately ripped
06 [d06ac230|ba194b07] (2+4/6) Accurately ripped
07 [6695a0c3|8d5dab27] (2+4/6) Accurately ripped
08 [7e82e570|635aabad] (2+4/6) Accurately ripped
09 [0a1227b6|b79e5b82] (2+4/6) Accurately ripped
10 [5c05924d|92d926af] (2+4/6) Accurately ripped
11 [3d92f56f|7c56cc17] (2+4/6) Accurately ripped
12 [55c0d880|1c20bc48] (2+4/6) Accurately ripped
13 [099ca424|d3d3fc9e] (2+4/6) Accurately ripped
14 [7b8223e3|818552a5] (2+4/6) Accurately ripped
15 [52936a96|4b7cbabd] (2+4/6) Accurately ripped
16 [422dbd4c|f014eac8] (2+4/6) Accurately ripped

Track Peak [ CRC32 ] [W/O NULL] [ LOG ]
– 100,0 [49F1C10F] [5489F1A9] CRC32
01 98,7 [285EA82D] [90E7B534]
02 96,5 [C9447487] [91F38EAC]
03 99,2 [0E65B2DD] [7368F6D4]
04 97,2 [B95939D2] [228F348A]
05 99,5 [6CCD7E99] [CAE3D608]
06 99,5 [99928209] [00006E0C]
07 100,0 [22097D8F] [13CD5112]
08 91,0 [798FB0AC] [B88CE017]
09 97,7 [E6D29E82] [B3E4EB02]
10 97,7 [D90841FD] [F4CBC5DC]
11 97,7 [D230EF00] [DC7553DB]
12 98,4 [FE3349AC] [36CA0B2B]
13 98,4 [4F89D138] [7392BD20]
14 98,4 [3CB3411C] [E54A39B4]
15 100,0 [22C2200F] [8A3939D8]
16 95,0 [9700E744] [FD1332A2]

foobar2000 1.2 / Dynamic Range Meter 1.1.1
log date: 2018-01-06 23:52:11

––––––––––––––––––––––––––––––––––––––––
Analyzed: The Hamsters / Pet Sounds (CD1)
––––––––––––––––––––––––––––––––––––––––

DR Peak RMS Duration Track
––––––––––––––––––––––––––––––––––––––––
DR12 -0.11 dB -13.55 dB 3:42 01-Fire
DR13 -0.30 dB -14.62 dB 5:49 02-La Grange
DR13 -0.07 dB -14.84 dB 6:37 03-Mercury Blues
DR12 -0.24 dB -13.61 dB 4:45 04-Sweet Little Lisa
DR10 -0.04 dB -11.86 dB 4:49 05-Cadillac Walk
DR9 -0.04 dB -10.75 dB 3:19 06-Ju Ju Man
DR12 0.00 dB -13.25 dB 4:47 07-Climbing The Corporate Ladder (Early Version)
DR11 -0.81 dB -13.36 dB 3:33 08-Guitar Bug
DR11 -0.20 dB -13.71 dB 5:56 09-Heat Of The Night
DR11 -0.20 dB -12.78 dB 3:37 10-Black Monday
DR12 -0.20 dB -13.45 dB 3:11 11-Chevrolet
DR12 -0.14 dB -13.58 dB 6:18 12-Route 666
DR14 -0.14 dB -14.89 dB 3:53 13-Boogie Man
DR13 -0.14 dB -14.30 dB 3:06 14-Only Rock 'n' Roll
DR11 0.00 dB -13.16 dB 4:32 15-Room Full Of Mirrors
DR11 -0.45 dB -13.66 dB 3:50 16-Stone Free
––––––––––––––––––––––––––––––––––––––––

Number of tracks: 16
Official DR value: DR12

Samplerate: 44100 Hz
Channels: 2
Bits per sample: 16
Bitrate: 967 kbps
Codec: FLAC
================================================================================


Exact Audio Copy V1.0 beta 1 from 15. November 2010

EAC extraction logfile from 17. April 2011, 11:54

The Hamsters / Pet Sounds (CD2)

Used drive : HL-DT-STDVD-RAM GH22NP20 Adapter: 0 ID: 0

Read mode : Secure
Utilize accurate stream : Yes
Defeat audio cache : Yes
Make use of C2 pointers : No

Read offset correction : 102
Overread into Lead-In and Lead-Out : No
Fill up missing offset samples with silence : Yes
Delete leading and trailing silent blocks : No
Null samples used in CRC calculations : Yes
Used interface : Native Win32 interface for Win NT & 2000

Used output format : User Defined Encoder
Selected bitrate : 768 kBit/s
Quality : High
Add ID3 tag : No
Command line compressor : C:\Program Files\Exact Audio Copy\FLAC\FLAC.EXE
Additional command line options : -6 -V -T "ARTIST=%a" -T "TITLE=%t" -T "ALBUM=%g" -T "DATE=%y" -T "TRACKNUMBER=%n" -T "GENRE=%m" -T "COMMENT=%e" %j–picture="%i"%j %s -o %d


TOC of the extracted CD

Track | Start | Length | Start sector | End sector
––––––––––––––––––––––––––––-
1 | 0:00.00 | 6:31.19 | 0 | 29343
2 | 6:31.19 | 2:21.67 | 29344 | 39985
3 | 8:53.11 | 3:09.05 | 39986 | 54165
4 | 12:02.16 | 0:43.36 | 54166 | 57426
5 | 12:45.52 | 5:52.40 | 57427 | 83866
6 | 18:38.17 | 5:14.64 | 83867 | 107480
7 | 23:53.06 | 1:18.31 | 107481 | 113361
8 | 25:11.37 | 3:31.25 | 113362 | 129211
9 | 28:42.62 | 2:26.58 | 129212 | 140219
10 | 31:09.45 | 2:33.74 | 140220 | 151768
11 | 33:43.44 | 5:24.34 | 151769 | 176102
12 | 39:08.03 | 6:35.11 | 176103 | 205738
13 | 45:43.14 | 3:32.24 | 205739 | 221662
14 | 49:15.38 | 4:09.69 | 221663 | 240406
15 | 53:25.32 | 4:32.21 | 240407 | 260827
16 | 57:57.53 | 3:26.29 | 260828 | 276306
17 | 61:24.07 | 6:12.40 | 276307 | 304246
18 | 67:36.47 | 6:16.63 | 304247 | 332509


Range status and errors

Selected range

Filename E:\1donagrm\blues\The Hamsters - Pet Sounds (CD2).wav

Peak level 100.0 %
Extraction speed 0.2 X
Range quality 100.0 %
Copy CRC 33A898E8
Copy OK

No errors occurred


AccurateRip summary

Track 1 not present in database
Track 2 not present in database
Track 3 not present in database
Track 4 not present in database
Track 5 not present in database
Track 6 not present in database
Track 7 not present in database
Track 8 not present in database
Track 9 not present in database
Track 10 not present in database
Track 11 not present in database
Track 12 not present in database
Track 13 not present in database
Track 14 not present in database
Track 15 not present in database
Track 16 not present in database
Track 17 not present in database
Track 18 not present in database

None of the tracks are present in the AccurateRip database

End of status report

==== Log checksum 7D3A5BD29645401938DD1BC3B3E186183E7D5D712E332C795C5E3C7252285286 ====

[CUETools log; Date: 06.01.2018 23:42:26; Version: 2.1.4]
[CTDB TOCID: K6jtCcUKznwfHox4YL1TFWIm73w-] found.
Track | CTDB Status
1 | (4/4) Accurately ripped
2 | (3/4) Accurately ripped
3 | (4/4) Accurately ripped
4 | (4/4) Accurately ripped
5 | (4/4) Accurately ripped
6 | (4/4) Accurately ripped
7 | (4/4) Accurately ripped
8 | (4/4) Accurately ripped
9 | (4/4) Accurately ripped
10 | (4/4) Accurately ripped
11 | (4/4) Accurately ripped
12 | (4/4) Accurately ripped
13 | (4/4) Accurately ripped
14 | (4/4) Accurately ripped
15 | (4/4) Accurately ripped
16 | (4/4) Accurately ripped
17 | (4/4) Accurately ripped
18 | (4/4) Accurately ripped
[AccurateRip ID: 002ca05e-0256c65f-01115112] found.
Track [ CRC | V2 ] Status
01 [f043b0d8|86fb9d07] (0+4/4) Accurately ripped
02 [9a395f77|51bde63d] (0+4/4) Accurately ripped
03 [089e006f|e9ed16ba] (0+4/4) Accurately ripped
04 [a4286d75|dbf68c18] (0+4/4) Accurately ripped
05 [82f353f9|b37961ee] (0+4/4) Accurately ripped
06 [85e0772f|63446b9b] (0+4/4) Accurately ripped
07 [de82a041|42b584c8] (0+4/4) Accurately ripped
08 [b8d8ff9c|7642db14] (0+4/4) Accurately ripped
09 [b9dbf749|9e388ade] (0+4/4) Accurately ripped
10 [ed4865de|97ad5b15] (0+4/4) Accurately ripped
11 [14789e55|171283cd] (0+4/4) Accurately ripped
12 [f656cd52|1d2defab] (0+4/4) Accurately ripped
13 [896fe987|ae8a0fde] (0+4/4) Accurately ripped
14 [4a938e4a|addba6d1] (0+4/4) Accurately ripped
15 [bd89ffc0|a902c18d] (0+4/4) Accurately ripped
16 [b87d2780|7ad00765] (0+4/4) Accurately ripped
17 [a1ff766f|f80947ef] (0+4/4) Accurately ripped
18 [e28dd7e9|5d1abc53] (0+3/3) Accurately ripped

Track Peak [ CRC32 ] [W/O NULL] [ LOG ]
– 100,0 [33A898E8] [08BE1B39] CRC32
01 98,4 [5CD0F1D2] [F312A951]
02 98,4 [062CE62A] [D892D133]
03 98,4 [9B6F171B] [938F1EF1]
04 98,4 [17383E08] [98F1F942]
05 98,4 [F81A9F7F] [78E1B49F]
06 98,4 [54837889] [09B10C12]
07 65,7 [7E7B4992] [1066DF3D]
08 98,4 [AE9D9B2D] [E074DF51]
09 98,4 [546328C4] [72CE2962]
10 98,4 [B6DA88A9] [D799EA36]
11 98,4 [DB571173] [186FE622]
12 98,4 [BAC65E59] [2F50AFCC]
13 98,4 [7CCC02E7] [002200B5]
14 98,4 [EB262A70] [2C9BF277]
15 98,4 [CA0429DF] [B8A0DA5E]
16 98,4 [84EF0759] [A52C2BA7]
17 99,7 [EF79C342] [0E1C5D47]
18 100,0 [3B69F311] [4D6AE1E0]

foobar2000 1.2 / Dynamic Range Meter 1.1.1
log date: 2018-01-06 23:53:31

––––––––––––––––––––––––––––––––––––––––
Analyzed: The Hamsters / Pet Sounds (CD2)
––––––––––––––––––––––––––––––––––––––––

DR Peak RMS Duration Track
––––––––––––––––––––––––––––––––––––––––
DR11 -0.14 dB -13.24 dB 6:31 01-Little Wing
DR11 -0.14 dB -12.16 dB 2:22 02-Straight Ahead
DR11 -0.14 dB -12.44 dB 3:09 03-If 6 Was 9
DR12 -0.14 dB -13.58 dB 0:43 04-Machine Gun
DR10 -0.14 dB -13.33 dB 5:53 05-Voodoo Chile
DR11 -0.14 dB -12.18 dB 5:15 06-Hey, Baby (Land Of The Rising Sun)
DR10 -3.64 dB -17.50 dB 1:18 07-Moon, Turn The Tides Gently Away…
DR11 -0.14 dB -13.20 dB 3:31 08-Midnight
DR11 -0.14 dB -12.14 dB 2:27 09-Pali Gap
DR10 -0.14 dB -11.30 dB 2:34 10-Sunshine Of Your Love
DR11 -0.14 dB -12.42 dB 5:24 11-She's Just Killing Me
DR12 -0.14 dB -14.54 dB 6:35 12-Fool For Your Stockings
DR10 -0.13 dB -12.09 dB 3:32 13-Can't Stop Rockin'
DR11 -0.13 dB -12.85 dB 4:10 14-My Head's In Mississippi
DR11 -0.14 dB -12.79 dB 4:32 15-Pincushion
DR11 -0.14 dB -13.01 dB 3:26 16-Got Me Under Pressure
DR12 -0.02 dB -14.14 dB 6:13 17-Blues For The Blues
DR11 0.00 dB -13.49 dB 6:17 18-All Along The Watchtower
––––––––––––––––––––––––––––––––––––––––

Number of tracks: 18
Official DR value: DR11

Samplerate: 44100 Hz
Channels: 2
Bits per sample: 16
Bitrate: 940 kbps
Codec: FLAC
================================================================================

The Hamsters - Pet Sounds: 10 Years of Rodent Rock (1998) 2CDs

The Hamsters - Pet Sounds: 10 Years of Rodent Rock (1998) 2CDs

All thanks to original releaser - awanga

More interesting music in My Blog